  0
SECTION
  2
HEADER
  9
$ACADVER
  1
AC1018
  9
$ACADMAINTVER
 70
     0
  9
$DWGCODEPAGE
  3
ANSI_1252
  9
$INSBASE
 10
0.0
 20
0.0
 30
0.0
  9
$EXTMIN
 10
72706.39797439399
 20
-43757.67058749446
 30
0.0
  9
$EXTMAX
 10
74857.42331585368
 20
-42322.67058139095
 30
0.0
  9
$LIMMIN
 10
0.0
 20
0.0
  9
$LIMMAX
 10
420.0
 20
297.0
  9
$ORTHOMODE
 70
     0
  9
$REGENMODE
 70
     1
  9
$FILLMODE
 70
     1
  9
$QTEXTMODE
 70
     0
  9
$MIRRTEXT
 70
     1
  9
$LTSCALE
 40
1.0
  9
$ATTMODE
 70
     1
  9
$TEXTSIZE
 40
0.2
  9
$TRACEWID
 40
1.0
  9
$TEXTSTYLE
  7
HELV-HFT
  9
$CLAYER
  8
Calm 831
  9
$CELTYPE
  6
Continuous
  9
$CECOLOR
 62
   256
  9
$CELTSCALE
 40
1.0
  9
$DISPSILH
 70
     0
  9
$DIMSCALE
 40
1.0
  9
$DIMASZ
 40
2.5
  9
$DIMEXO
 40
0.625
  9
$DIMDLI
 40
3.75
  9
$DIMRND
 40
0.0
  9
$DIMDLE
 40
0.0
  9
$DIMEXE
 40
1.25
  9
$DIMTP
 40
0.0
  9
$DIMTM
 40
0.0
  9
$DIMTXT
 40
2.5
  9
$DIMCEN
 40
2.5
  9
$DIMTSZ
 40
0.0
  9
$DIMTOL
 70
     0
  9
$DIMLIM
 70
     0
  9
$DIMTIH
 70
     0
  9
$DIMTOH
 70
     0
  9
$DIMSE1
 70
     0
  9
$DIMSE2
 70
     0
  9
$DIMTAD
 70
     1
  9
$DIMZIN
 70
     8
  9
$DIMBLK
  1

  9
$DIMASO
 70
     1
  9
$DIMSHO
 70
     1
  9
$DIMPOST
  1

  9
$DIMAPOST
  1

  9
$DIMALT
 70
     0
  9
$DIMALTD
 70
     3
  9
$DIMALTF
 40
0.03937007874016
  9
$DIMLFAC
 40
1.0
  9
$DIMTOFL
 70
     1
  9
$DIMTVP
 40
0.0
  9
$DIMTIX
 70
     0
  9
$DIMSOXD
 70
     0
  9
$DIMSAH
 70
     0
  9
$DIMBLK1
  1

  9
$DIMBLK2
  1

  9
$DIMSTYLE
  2
ISO-25
  9
$DIMCLRD
 70
     0
  9
$DIMCLRE
 70
     0
  9
$DIMCLRT
 70
     0
  9
$DIMTFAC
 40
1.0
  9
$DIMGAP
 40
0.625
  9
$DIMJUST
 70
     0
  9
$DIMSD1
 70
     0
  9
$DIMSD2
 70
     0
  9
$DIMTOLJ
 70
     0
  9
$DIMTZIN
 70
     8
  9
$DIMALTZ
 70
     0
  9
$DIMALTTZ
 70
     0
  9
$DIMUPT
 70
     0
  9
$DIMDEC
 70
     2
  9
$DIMTDEC
 70
     2
  9
$DIMALTU
 70
     2
  9
$DIMALTTD
 70
     3
  9
$DIMTXSTY
  7
Standard
  9
$DIMAUNIT
 70
     0
  9
$DIMADEC
 70
     0
  9
$DIMALTRND
 40
0.0
  9
$DIMAZIN
 70
     0
  9
$DIMDSEP
 70
    44
  9
$DIMATFIT
 70
     3
  9
$DIMFRAC
 70
     0
  9
$DIMLDRBLK
  1

  9
$DIMLUNIT
 70
     2
  9
$DIMLWD
 70
    -2
  9
$DIMLWE
 70
    -2
  9
$DIMTMOVE
 70
     0
  9
$LUNITS
 70
     2
  9
$LUPREC
 70
     4
  9
$SKETCHINC
 40
1.0
  9
$FILLETRAD
 40
10.0
  9
$AUNITS
 70
     0
  9
$AUPREC
 70
     0
  9
$MENU
  1
.
  9
$ELEVATION
 40
0.0
  9
$PELEVATION
 40
0.0
  9
$THICKNESS
 40
0.0
  9
$LIMCHECK
 70
     0
  9
$CHAMFERA
 40
10.0
  9
$CHAMFERB
 40
10.0
  9
$CHAMFERC
 40
20.0
  9
$CHAMFERD
 40
0.0
  9
$SKPOLY
 70
     0
  9
$TDCREATE
 40
2457977.673614711
  9
$TDUCREATE
 40
2457977.590281378
  9
$TDUPDATE
 40
2457977.673646771
  9
$TDUUPDATE
 40
2457977.590313437
  9
$TDINDWG
 40
0.0000000116
  9
$TDUSRTIMER
 40
0.0000000116
  9
$USRTIMER
 70
     1
  9
$ANGBASE
 50
0.0
  9
$ANGDIR
 70
     0
  9
$PDMODE
 70
     0
  9
$PDSIZE
 40
0.0
  9
$PLINEWID
 40
0.0
  9
$SPLFRAME
 70
     0
  9
$SPLINETYPE
 70
     6
  9
$SPLINESEGS
 70
     8
  9
$HANDSEED
  5
283
  9
$SURFTAB1
 70
     6
  9
$SURFTAB2
 70
     6
  9
$SURFTYPE
 70
     6
  9
$SURFU
 70
     6
  9
$SURFV
 70
     6
  9
$UCSBASE
  2

  9
$UCSNAME
  2

  9
$UCSORG
 10
0.0
 20
0.0
 30
0.0
  9
$UCSXDIR
 10
1.0
 20
0.0
 30
0.0
  9
$UCSYDIR
 10
0.0
 20
1.0
 30
0.0
  9
$UCSORTHOREF
  2

  9
$UCSORTHOVIEW
 70
     0
  9
$UCSORGTOP
 10
0.0
 20
0.0
 30
0.0
  9
$UCSORGBOTTOM
 10
0.0
 20
0.0
 30
0.0
  9
$UCSORGLEFT
 10
0.0
 20
0.0
 30
0.0
  9
$UCSORGRIGHT
 10
0.0
 20
0.0
 30
0.0
  9
$UCSORGFRONT
 10
0.0
 20
0.0
 30
0.0
  9
$UCSORGBACK
 10
0.0
 20
0.0
 30
0.0
  9
$PUCSBASE
  2

  9
$PUCSNAME
  2

  9
$PUCSORG
 10
0.0
 20
0.0
 30
0.0
  9
$PUCSXDIR
 10
1.0
 20
0.0
 30
0.0
  9
$PUCSYDIR
 10
0.0
 20
1.0
 30
0.0
  9
$PUCSORTHOREF
  2

  9
$PUCSORTHOVIEW
 70
     0
  9
$PUCSORGTOP
 10
0.0
 20
0.0
 30
0.0
  9
$PUCSORGBOTTOM
 10
0.0
 20
0.0
 30
0.0
  9
$PUCSORGLEFT
 10
0.0
 20
0.0
 30
0.0
  9
$PUCSORGRIGHT
 10
0.0
 20
0.0
 30
0.0
  9
$PUCSORGFRONT
 10
0.0
 20
0.0
 30
0.0
  9
$PUCSORGBACK
 10
0.0
 20
0.0
 30
0.0
  9
$USERI1
 70
     0
  9
$USERI2
 70
     0
  9
$USERI3
 70
     0
  9
$USERI4
 70
     0
  9
$USERI5
 70
     0
  9
$USERR1
 40
0.0
  9
$USERR2
 40
0.0
  9
$USERR3
 40
0.0
  9
$USERR4
 40
0.0
  9
$USERR5
 40
0.0
  9
$WORLDVIEW
 70
     1
  9
$SHADEDGE
 70
     3
  9
$SHADEDIF
 70
    70
  9
$TILEMODE
 70
     1
  9
$MAXACTVP
 70
    64
  9
$PINSBASE
 10
0.0
 20
0.0
 30
0.0
  9
$PLIMCHECK
 70
     0
  9
$PEXTMIN
 10
1.000000000000000E+20
 20
1.000000000000000E+20
 30
1.000000000000000E+20
  9
$PEXTMAX
 10
-1.000000000000000E+20
 20
-1.000000000000000E+20
 30
-1.000000000000000E+20
  9
$PLIMMIN
 10
0.0
 20
0.0
  9
$PLIMMAX
 10
420.0
 20
297.0
  9
$UNITMODE
 70
     0
  9
$VISRETAIN
 70
     1
  9
$PLINEGEN
 70
     0
  9
$PSLTSCALE
 70
     1
  9
$TREEDEPTH
 70
  3020
  9
$CMLSTYLE
  2
Standard
  9
$CMLJUST
 70
     0
  9
$CMLSCALE
 40
20.0
  9
$PROXYGRAPHICS
 70
     1
  9
$MEASUREMENT
 70
     1
  9
$CELWEIGHT
370
    -1
  9
$ENDCAPS
280
     0
  9
$JOINSTYLE
280
     0
  9
$LWDISPLAY
290
     0
  9
$INSUNITS
 70
     4
  9
$HYPERLINKBASE
  1

  9
$STYLESHEET
  1

  9
$XEDIT
290
     1
  9
$CEPSNTYPE
380
     0
  9
$PSTYLEMODE
290
     1
  9
$FINGERPRINTGUID
  2
{A265C0C6-DF37-4EFE-8F91-8AB27C0331FE}
  9
$VERSIONGUID
  2
{FAEB1C32-E019-11D5-929B-00C0DF256EC4}
  9
$EXTNAMES
290
     1
  9
$PSVPSCALE
 40
0.0
  9
$OLESTARTUP
290
     0
  9
$SORTENTS
280
   127
  9
$INDEXCTL
280
     0
  9
$HIDETEXT
280
     1
  9
$XCLIPFRAME
290
     0
  9
$HALOGAP
280
     0
  9
$OBSCOLOR
 70
   257
  9
$OBSLTYPE
280
     0
  9
$INTERSECTIONDISPLAY
280
     0
  9
$INTERSECTIONCOLOR
 70
   257
  9
$DIMASSOC
280
     2
  9
$PROJECTNAME
  1

  0
ENDSEC
  0
SECTION
  2
CLASSES
  0
CLASS
  1
ACDBDICTIONARYWDFLT
  2
AcDbDictionaryWithDefault
  3
ObjectDBX Classes
 90
        0
 91
        4
280
     0
281
     0
  0
CLASS
  1
VISUALSTYLE
  2
AcDbVisualStyle
  3
ObjectDBX Classes
 90
     4095
 91
        4
280
     0
281
     0
  0
CLASS
  1
MATERIAL
  2
AcDbMaterial
  3
ObjectDBX Classes
 90
     1153
 91
        4
280
     0
281
     0
  0
CLASS
  1
SCALE
  2
AcDbScale
  3
ObjectDBX Classes
 90
     1153
 91
        4
280
     0
281
     0
  0
CLASS
  1
DICTIONARYVAR
  2
AcDbDictionaryVar
  3
ObjectDBX Classes
 90
        0
 91
        4
280
     0
281
     0
  0
ENDSEC
  0
SECTION
  2
TABLES
  0
TABLE
  2
VPORT
  5
8
330
0
100
AcDbSymbolTable
 70
     1
  0
VPORT
  5
29
330
8
100
AcDbSymbolTableRecord
100
AcDbViewportTableRecord
  2
*Active
 70
     0
 10
0.0
 20
0.0
 11
1.0
 21
1.0
 12
37063.04878050584
 22
-21445.83529222135
 13
0.0
 23
0.0
 14
10.0
 24
10.0
 15
10.0
 25
10.0
 16
0.0
 26
0.0
 36
1.0
 17
0.0
 27
0.0
 37
0.0
 40
1463.70000622558
 41
1.498972357010943
 42
50.0
 43
0.0
 44
0.0
 50
0.0
 51
0.0
 71
     0
 72
   100
 73
     1
 74
     3
 75
     0
 76
     0
 77
     0
 78
     0
281
     0
 65
     1
110
0.0
120
0.0
130
0.0
111
1.0
121
0.0
131
0.0
112
0.0
122
1.0
132
0.0
 79
     0
146
0.0
  0
ENDTAB
  0
TABLE
  2
LTYPE
  5
5
330
0
100
AcDbSymbolTable
 70
     2
  0
LTYPE
  5
14
330
5
100
AcDbSymbolTableRecord
100
AcDbLinetypeTableRecord
  2
ByBlock
 70
     0
  3

 72
    65
 73
     0
 40
0.0
  0
LTYPE
  5
15
330
5
100
AcDbSymbolTableRecord
100
AcDbLinetypeTableRecord
  2
ByLayer
 70
     0
  3

 72
    65
 73
     0
 40
0.0
  0
LTYPE
  5
16
330
5
100
AcDbSymbolTableRecord
100
AcDbLinetypeTableRecord
  2
Continuous
 70
     0
  3
Solid line
 72
    65
 73
     0
 40
0.0
  0
LTYPE
  5
7D
330
5
100
AcDbSymbolTableRecord
100
AcDbLinetypeTableRecord
  2
DASHED1
 70
     0
  3

 72
    65
 73
     3
 40
1.0
 49
0.3
 74
     0
 49
-0.4
 74
     0
 49
0.3
 74
     0
  0
ENDTAB
  0
TABLE
  2
LAYER
  5
2
330
0
100
AcDbSymbolTable
 70
     6
  0
LAYER
  5
10
330
2
100
AcDbSymbolTableRecord
100
AcDbLayerTableRecord
  2
0
 70
     0
 62
     7
  6
Continuous
370
    -3
390
F
  0
LAYER
  5
3F
330
2
100
AcDbSymbolTableRecord
100
AcDbLayerTableRecord
  2
allgemein
 70
     0
 62
    18
420
        0
  6
Continuous
370
    25
390
F
  0
LAYER
  5
74
330
2
100
AcDbSymbolTableRecord
100
AcDbLayerTableRecord
  2
Beschriftung Allgemein
 70
     0
 62
    18
420
        0
  6
Continuous
370
    25
390
F
  0
LAYER
  5
75
330
2
100
AcDbSymbolTableRecord
100
AcDbLayerTableRecord
  2
Calm 820
 70
     0
 62
    18
420
        0
  6
Continuous
370
    25
390
F
  0
LAYER
  5
122
330
2
100
AcDbSymbolTableRecord
100
AcDbLayerTableRecord
  2
Defpoints
 70
     0
 62
     7
  6
Continuous
290
     0
370
    -3
390
F
  0
LAYER
  5
1F0
330
2
100
AcDbSymbolTableRecord
100
AcDbLayerTableRecord
  2
Calm 831
 70
     0
 62
    18
420
        0
  6
Continuous
370
    25
390
F
  0
ENDTAB
  0
TABLE
  2
STYLE
  5
3
330
0
100
AcDbSymbolTable
 70
     6
  0
STYLE
  5
11
330
3
100
AcDbSymbolTableRecord
100
AcDbTextStyleTableRecord
  2
Standard
 70
     0
 40
0.0
 41
1.0
 50
0.0
 71
     0
 42
2.5
  3
txt
  4

  0
STYLE
  5
106
330
3
100
AcDbSymbolTableRecord
100
AcDbTextStyleTableRecord
  2
CENTURY GOTHIC
 70
     0
 40
0.0
 41
1.0
 50
0.0
 71
     0
 42
0.2
  3
CENTURY GOTHIC
  4

  0
STYLE
  5
120
330
3
100
AcDbSymbolTableRecord
100
AcDbTextStyleTableRecord
  2
ARIAL
 70
     0
 40
0.0
 41
1.0
 50
0.0
 71
     0
 42
0.2
  3
ARIAL
  4

  0
STYLE
  5
135
330
3
100
AcDbSymbolTableRecord
100
AcDbTextStyleTableRecord
  2
ROMAN
 70
     0
 40
0.0
 41
1.0
 50
0.0
 71
     0
 42
0.2
  3
ROMAN
  4

  0
STYLE
  5
1E8
330
3
100
AcDbSymbolTableRecord
100
AcDbTextStyleTableRecord
  2
HLV-L
 70
     0
 40
0.0
 41
1.0
 50
0.0
 71
     0
 42
0.2
  3
HLV-L
  4

  0
STYLE
  5
1EE
330
3
100
AcDbSymbolTableRecord
100
AcDbTextStyleTableRecord
  2
HELV-HFT
 70
     0
 40
0.0
 41
1.0
 50
0.0
 71
     0
 42
0.2
  3
HELV-HFT
  4

  0
ENDTAB
  0
TABLE
  2
VIEW
  5
6
330
0
100
AcDbSymbolTable
 70
     0
  0
ENDTAB
  0
TABLE
  2
UCS
  5
7
330
0
100
AcDbSymbolTable
 70
     0
  0
ENDTAB
  0
TABLE
  2
APPID
  5
9
330
0
100
AcDbSymbolTable
 70
     3
  0
APPID
  5
12
330
9
100
AcDbSymbolTableRecord
100
AcDbRegAppTableRecord
  2
ACAD
 70
     0
  0
APPID
  5
257
330
9
100
AcDbSymbolTableRecord
100
AcDbRegAppTableRecord
  2
ACAD_DSTYLE_DIMEXT_ENABLED
 70
     0
  0
APPID
  5
258
330
9
100
AcDbSymbolTableRecord
100
AcDbRegAppTableRecord
  2
ACAD_DSTYLE_DIMEXT_LENGTH
 70
     0
  0
ENDTAB
  0
TABLE
  2
DIMSTYLE
  5
A
330
0
100
AcDbSymbolTable
 70
     1
100
AcDbDimStyleTable
  0
DIMSTYLE
105
27
102
{ACAD_REACTORS
330
121
330
136
330
143
330
150
330
15D
330
16C
330
18F
102
}
330
A
100
AcDbSymbolTableRecord
100
AcDbDimStyleTableRecord
  2
ISO-25
 70
     0
 41
2.5
 42
0.625
 43
3.75
 44
1.25
 73
     0
 74
     0
 77
     1
 78
     8
140
2.5
141
2.5
143
0.03937007874016
147
0.625
171
     3
172
     1
178
     0
271
     2
272
     2
274
     3
278
    44
283
     0
284
     8
340
11
  0
ENDTAB
  0
TABLE
  2
BLOCK_RECORD
  5
1
330
0
100
AcDbSymbolTable
 70
    49
  0
BLOCK_RECORD
  5
1F
330
1
100
AcDbSymbolTableRecord
100
AcDbBlockTableRecord
  2
*Model_Space
340
22
  0
BLOCK_RECORD
  5
1B
330
1
100
AcDbSymbolTableRecord
100
AcDbBlockTableRecord
  2
*Paper_Space
340
1E
  0
BLOCK_RECORD
  5
23
330
1
100
AcDbSymbolTableRecord
100
AcDbBlockTableRecord
  2
*Paper_Space0
340
26
  0
BLOCK_RECORD
  5
40
330
1
100
AcDbSymbolTableRecord
100
AcDbBlockTableRecord
  2
Dimension1
340
0
102
{BLKREFS
331
43
102
}
  0
BLOCK_RECORD
  5
44
330
1
100
AcDbSymbolTableRecord
100
AcDbBlockTableRecord
  2
Dimension2
340
0
102
{BLKREFS
331
47
102
}
  0
BLOCK_RECORD
  5
48
330
1
100
AcDbSymbolTableRecord
100
AcDbBlockTableRecord
  2
Dimension3
340
0
102
{BLKREFS
331
4B
102
}
  0
BLOCK_RECORD
  5
4C
330
1
100
AcDbSymbolTableRecord
100
AcDbBlockTableRecord
  2
Dimension4
340
0
102
{BLKREFS
331
4F
102
}
  0
BLOCK_RECORD
  5
50
330
1
100
AcDbSymbolTableRecord
100
AcDbBlockTableRecord
  2
Dimension5
340
0
102
{BLKREFS
331
53
102
}
  0
BLOCK_RECORD
  5
54
330
1
100
AcDbSymbolTableRecord
100
AcDbBlockTableRecord
  2
Dimension6
340
0
102
{BLKREFS
331
57
102
}
  0
BLOCK_RECORD
  5
58
330
1
100
AcDbSymbolTableRecord
100
AcDbBlockTableRecord
  2
Dimension7
340
0
102
{BLKREFS
331
5B
102
}
  0
BLOCK_RECORD
  5
5C
330
1
100
AcDbSymbolTableRecord
100
AcDbBlockTableRecord
  2
Dimension8
340
0
102
{BLKREFS
331
5F
102
}
  0
BLOCK_RECORD
  5
60
330
1
100
AcDbSymbolTableRecord
100
AcDbBlockTableRecord
  2
Dimension9
340
0
102
{BLKREFS
331
63
102
}
  0
BLOCK_RECORD
  5
64
330
1
100
AcDbSymbolTableRecord
100
AcDbBlockTableRecord
  2
Dimension10
340
0
102
{BLKREFS
331
67
102
}
  0
BLOCK_RECORD
  5
68
330
1
100
AcDbSymbolTableRecord
100
AcDbBlockTableRecord
  2
Dimension11
340
0
102
{BLKREFS
331
6B
102
}
  0
BLOCK_RECORD
  5
6C
330
1
100
AcDbSymbolTableRecord
100
AcDbBlockTableRecord
  2
Dimension12
340
0
102
{BLKREFS
331
6F
102
}
  0
BLOCK_RECORD
  5
70
330
1
100
AcDbSymbolTableRecord
100
AcDbBlockTableRecord
  2
Dimension13
340
0
102
{BLKREFS
331
73
102
}
  0
BLOCK_RECORD
  5
108
330
1
100
AcDbSymbolTableRecord
100
AcDbBlockTableRecord
  2
Dimension14
340
0
102
{BLKREFS
331
10B
102
}
  0
BLOCK_RECORD
  5
10C
330
1
100
AcDbSymbolTableRecord
100
AcDbBlockTableRecord
  2
Dimension15
340
0
102
{BLKREFS
331
10F
102
}
  0
BLOCK_RECORD
  5
110
330
1
100
AcDbSymbolTableRecord
100
AcDbBlockTableRecord
  2
Dimension16
340
0
102
{BLKREFS
331
113
102
}
  0
BLOCK_RECORD
  5
114
330
1
100
AcDbSymbolTableRecord
100
AcDbBlockTableRecord
  2
Dimension17
340
0
102
{BLKREFS
331
117
102
}
  0
BLOCK_RECORD
  5
118
330
1
100
AcDbSymbolTableRecord
100
AcDbBlockTableRecord
  2
Dimension18
340
0
102
{BLKREFS
331
11B
102
}
  0
BLOCK_RECORD
  5
11C
330
1
100
AcDbSymbolTableRecord
100
AcDbBlockTableRecord
  2
Dimension19
340
0
102
{BLKREFS
331
11F
102
}
  0
BLOCK_RECORD
  5
123
330
1
100
AcDbSymbolTableRecord
100
AcDbBlockTableRecord
  2
*D20
340
0
  0
BLOCK_RECORD
  5
12F
330
1
100
AcDbSymbolTableRecord
100
AcDbBlockTableRecord
  2
_OPEN30
340
0
102
{BLKREFS
331
127
331
128
331
13B
331
13C
331
148
331
149
331
155
331
156
331
0
331
0
331
165
331
164
331
0
331
0
331
174
331
173
331
0
331
0
331
197
331
196
102
}
  0
BLOCK_RECORD
  5
137
330
1
100
AcDbSymbolTableRecord
100
AcDbBlockTableRecord
  2
*D22
340
0
  0
BLOCK_RECORD
  5
144
330
1
100
AcDbSymbolTableRecord
100
AcDbBlockTableRecord
  2
*D23
340
0
  0
BLOCK_RECORD
  5
151
330
1
100
AcDbSymbolTableRecord
100
AcDbBlockTableRecord
  2
*D24
340
0
  0
BLOCK_RECORD
  5
15E
330
1
100
AcDbSymbolTableRecord
100
AcDbBlockTableRecord
  2
*D25
340
0
  0
BLOCK_RECORD
  5
16D
330
1
100
AcDbSymbolTableRecord
100
AcDbBlockTableRecord
  2
*D26
340
0
  0
BLOCK_RECORD
  5
17B
330
1
100
AcDbSymbolTableRecord
100
AcDbBlockTableRecord
  2
Dimension20
340
0
102
{BLKREFS
331
17E
102
}
  0
BLOCK_RECORD
  5
17F
330
1
100
AcDbSymbolTableRecord
100
AcDbBlockTableRecord
  2
Dimension21
340
0
102
{BLKREFS
331
182
102
}
  0
BLOCK_RECORD
  5
183
330
1
100
AcDbSymbolTableRecord
100
AcDbBlockTableRecord
  2
Dimension22
340
0
102
{BLKREFS
331
186
102
}
  0
BLOCK_RECORD
  5
190
330
1
100
AcDbSymbolTableRecord
100
AcDbBlockTableRecord
  2
*D30
340
0
  0
BLOCK_RECORD
  5
19E
330
1
100
AcDbSymbolTableRecord
100
AcDbBlockTableRecord
  2
Dimension23
340
0
102
{BLKREFS
331
1A1
102
}
  0
BLOCK_RECORD
  5
1F1
330
1
100
AcDbSymbolTableRecord
100
AcDbBlockTableRecord
  2
Dimension24
340
0
102
{BLKREFS
331
1F4
102
}
  0
BLOCK_RECORD
  5
1F5
330
1
100
AcDbSymbolTableRecord
100
AcDbBlockTableRecord
  2
Dimension25
340
0
102
{BLKREFS
331
1F8
102
}
  0
BLOCK_RECORD
  5
1F9
330
1
100
AcDbSymbolTableRecord
100
AcDbBlockTableRecord
  2
Dimension26
340
0
102
{BLKREFS
331
1FC
102
}
  0
BLOCK_RECORD
  5
1FD
330
1
100
AcDbSymbolTableRecord
100
AcDbBlockTableRecord
  2
Dimension27
340
0
102
{BLKREFS
331
200
102
}
  0
BLOCK_RECORD
  5
201
330
1
100
AcDbSymbolTableRecord
100
AcDbBlockTableRecord
  2
Dimension28
340
0
102
{BLKREFS
331
204
102
}
  0
BLOCK_RECORD
  5
205
330
1
100
AcDbSymbolTableRecord
100
AcDbBlockTableRecord
  2
Dimension29
340
0
102
{BLKREFS
331
208
102
}
  0
BLOCK_RECORD
  5
209
330
1
100
AcDbSymbolTableRecord
100
AcDbBlockTableRecord
  2
Dimension30
340
0
102
{BLKREFS
331
20C
102
}
  0
BLOCK_RECORD
  5
20D
330
1
100
AcDbSymbolTableRecord
100
AcDbBlockTableRecord
  2
Dimension31
340
0
102
{BLKREFS
331
210
102
}
  0
BLOCK_RECORD
  5
211
330
1
100
AcDbSymbolTableRecord
100
AcDbBlockTableRecord
  2
Dimension32
340
0
102
{BLKREFS
331
214
102
}
  0
BLOCK_RECORD
  5
215
330
1
100
AcDbSymbolTableRecord
100
AcDbBlockTableRecord
  2
Dimension33
340
0
102
{BLKREFS
331
218
102
}
  0
BLOCK_RECORD
  5
219
330
1
100
AcDbSymbolTableRecord
100
AcDbBlockTableRecord
  2
Dimension34
340
0
102
{BLKREFS
331
21C
102
}
  0
BLOCK_RECORD
  5
21D
330
1
100
AcDbSymbolTableRecord
100
AcDbBlockTableRecord
  2
Dimension35
340
0
102
{BLKREFS
331
220
102
}
  0
BLOCK_RECORD
  5
221
330
1
100
AcDbSymbolTableRecord
100
AcDbBlockTableRecord
  2
Dimension36
340
0
102
{BLKREFS
331
224
102
}
  0
BLOCK_RECORD
  5
225
330
1
100
AcDbSymbolTableRecord
100
AcDbBlockTableRecord
  2
Dimension37
340
0
102
{BLKREFS
331
228
102
}
  0
BLOCK_RECORD
  5
229
330
1
100
AcDbSymbolTableRecord
100
AcDbBlockTableRecord
  2
Dimension38
340
0
102
{BLKREFS
331
22C
102
}
  0
BLOCK_RECORD
  5
22D
330
1
100
AcDbSymbolTableRecord
100
AcDbBlockTableRecord
  2
Dimension39
340
0
102
{BLKREFS
331
230
102
}
  0
BLOCK_RECORD
  5
231
330
1
100
AcDbSymbolTableRecord
100
AcDbBlockTableRecord
  2
Dimension40
340
0
102
{BLKREFS
331
234
102
}
  0
ENDTAB
  0
ENDSEC
  0
SECTION
  2
BLOCKS
  0
BLOCK
  5
20
330
1F
100
AcDbEntity
  8
0
100
AcDbBlockBegin
  2
*Model_Space
 70
     0
 10
0.0
 20
0.0
 30
0.0
  3
*Model_Space
  1

  0
ENDBLK
  5
21
330
1F
100
AcDbEntity
  8
0
100
AcDbBlockEnd
  0
BLOCK
  5
1C
330
1B
100
AcDbEntity
 67
     1
  8
0
100
AcDbBlockBegin
  2
*Paper_Space
 70
     0
 10
0.0
 20
0.0
 30
0.0
  3
*Paper_Space
  1

  0
ENDBLK
  5
1D
330
1B
100
AcDbEntity
 67
     1
  8
0
100
AcDbBlockEnd
  0
BLOCK
  5
24
330
23
100
AcDbEntity
  8
0
100
AcDbBlockBegin
  2
*Paper_Space0
 70
     0
 10
0.0
 20
0.0
 30
0.0
  3
*Paper_Space0
  1

  0
ENDBLK
  5
25
330
23
100
AcDbEntity
  8
0
100
AcDbBlockEnd
  0
BLOCK
  5
41
330
40
100
AcDbEntity
  8
0
100
AcDbBlockBegin
  2
Dimension1
 70
     0
 10
0.0
 20
0.0
 30
0.0
  3
Dimension1
  1

  0
ENDBLK
  5
42
330
40
100
AcDbEntity
  8
0
100
AcDbBlockEnd
  0
BLOCK
  5
45
330
44
100
AcDbEntity
  8
0
100
AcDbBlockBegin
  2
Dimension2
 70
     0
 10
0.0
 20
0.0
 30
0.0
  3
Dimension2
  1

  0
ENDBLK
  5
46
330
44
100
AcDbEntity
  8
0
100
AcDbBlockEnd
  0
BLOCK
  5
49
330
48
100
AcDbEntity
  8
0
100
AcDbBlockBegin
  2
Dimension3
 70
     0
 10
0.0
 20
0.0
 30
0.0
  3
Dimension3
  1

  0
ENDBLK
  5
4A
330
48
100
AcDbEntity
  8
0
100
AcDbBlockEnd
  0
BLOCK
  5
4D
330
4C
100
AcDbEntity
  8
0
100
AcDbBlockBegin
  2
Dimension4
 70
     0
 10
0.0
 20
0.0
 30
0.0
  3
Dimension4
  1

  0
ENDBLK
  5
4E
330
4C
100
AcDbEntity
  8
0
100
AcDbBlockEnd
  0
BLOCK
  5
51
330
50
100
AcDbEntity
  8
0
100
AcDbBlockBegin
  2
Dimension5
 70
     0
 10
0.0
 20
0.0
 30
0.0
  3
Dimension5
  1

  0
ENDBLK
  5
52
330
50
100
AcDbEntity
  8
0
100
AcDbBlockEnd
  0
BLOCK
  5
55
330
54
100
AcDbEntity
  8
0
100
AcDbBlockBegin
  2
Dimension6
 70
     0
 10
0.0
 20
0.0
 30
0.0
  3
Dimension6
  1

  0
ENDBLK
  5
56
330
54
100
AcDbEntity
  8
0
100
AcDbBlockEnd
  0
BLOCK
  5
59
330
58
100
AcDbEntity
  8
0
100
AcDbBlockBegin
  2
Dimension7
 70
     0
 10
0.0
 20
0.0
 30
0.0
  3
Dimension7
  1

  0
ENDBLK
  5
5A
330
58
100
AcDbEntity
  8
0
100
AcDbBlockEnd
  0
BLOCK
  5
5D
330
5C
100
AcDbEntity
  8
0
100
AcDbBlockBegin
  2
Dimension8
 70
     0
 10
0.0
 20
0.0
 30
0.0
  3
Dimension8
  1

  0
ENDBLK
  5
5E
330
5C
100
AcDbEntity
  8
0
100
AcDbBlockEnd
  0
BLOCK
  5
61
330
60
100
AcDbEntity
  8
0
100
AcDbBlockBegin
  2
Dimension9
 70
     0
 10
0.0
 20
0.0
 30
0.0
  3
Dimension9
  1

  0
ENDBLK
  5
62
330
60
100
AcDbEntity
  8
0
100
AcDbBlockEnd
  0
BLOCK
  5
65
330
64
100
AcDbEntity
  8
0
100
AcDbBlockBegin
  2
Dimension10
 70
     0
 10
0.0
 20
0.0
 30
0.0
  3
Dimension10
  1

  0
ENDBLK
  5
66
330
64
100
AcDbEntity
  8
0
100
AcDbBlockEnd
  0
BLOCK
  5
69
330
68
100
AcDbEntity
  8
0
100
AcDbBlockBegin
  2
Dimension11
 70
     0
 10
0.0
 20
0.0
 30
0.0
  3
Dimension11
  1

  0
ENDBLK
  5
6A
330
68
100
AcDbEntity
  8
0
100
AcDbBlockEnd
  0
BLOCK
  5
6D
330
6C
100
AcDbEntity
  8
0
100
AcDbBlockBegin
  2
Dimension12
 70
     0
 10
0.0
 20
0.0
 30
0.0
  3
Dimension12
  1

  0
ENDBLK
  5
6E
330
6C
100
AcDbEntity
  8
0
100
AcDbBlockEnd
  0
BLOCK
  5
71
330
70
100
AcDbEntity
  8
0
100
AcDbBlockBegin
  2
Dimension13
 70
     0
 10
0.0
 20
0.0
 30
0.0
  3
Dimension13
  1

  0
ENDBLK
  5
72
330
70
100
AcDbEntity
  8
0
100
AcDbBlockEnd
  0
BLOCK
  5
109
330
108
100
AcDbEntity
  8
0
100
AcDbBlockBegin
  2
Dimension14
 70
     0
 10
0.0
 20
0.0
 30
0.0
  3
Dimension14
  1

  0
ENDBLK
  5
10A
330
108
100
AcDbEntity
  8
0
100
AcDbBlockEnd
  0
BLOCK
  5
10D
330
10C
100
AcDbEntity
  8
0
100
AcDbBlockBegin
  2
Dimension15
 70
     0
 10
0.0
 20
0.0
 30
0.0
  3
Dimension15
  1

  0
ENDBLK
  5
10E
330
10C
100
AcDbEntity
  8
0
100
AcDbBlockEnd
  0
BLOCK
  5
111
330
110
100
AcDbEntity
  8
0
100
AcDbBlockBegin
  2
Dimension16
 70
     0
 10
0.0
 20
0.0
 30
0.0
  3
Dimension16
  1

  0
ENDBLK
  5
112
330
110
100
AcDbEntity
  8
0
100
AcDbBlockEnd
  0
BLOCK
  5
115
330
114
100
AcDbEntity
  8
0
100
AcDbBlockBegin
  2
Dimension17
 70
     0
 10
0.0
 20
0.0
 30
0.0
  3
Dimension17
  1

  0
ENDBLK
  5
116
330
114
100
AcDbEntity
  8
0
100
AcDbBlockEnd
  0
BLOCK
  5
119
330
118
100
AcDbEntity
  8
0
100
AcDbBlockBegin
  2
Dimension18
 70
     0
 10
0.0
 20
0.0
 30
0.0
  3
Dimension18
  1

  0
ENDBLK
  5
11A
330
118
100
AcDbEntity
  8
0
100
AcDbBlockEnd
  0
BLOCK
  5
11D
330
11C
100
AcDbEntity
  8
0
100
AcDbBlockBegin
  2
Dimension19
 70
     0
 10
0.0
 20
0.0
 30
0.0
  3
Dimension19
  1

  0
ENDBLK
  5
11E
330
11C
100
AcDbEntity
  8
0
100
AcDbBlockEnd
  0
BLOCK
  5
12D
330
123
100
AcDbEntity
  8
0
100
AcDbBlockBegin
  2
*D20
 70
     1
 10
0.0
 20
0.0
 30
0.0
  3
*D20
  1

  0
LINE
  5
124
330
123
100
AcDbEntity
  8
Calm 820
  6
Continuous
 62
    18
 48
50.00000038146973
370
    -2
100
AcDbLine
 10
36632.60666738588
 20
-21029.56363788221
 30
0.0
 11
36592.60666829187
 21
-21029.56363788221
 31
0.0
  0
LINE
  5
125
330
123
100
AcDbEntity
  8
Calm 820
  6
Continuous
 62
    18
 48
50.00000038146973
370
    -2
100
AcDbLine
 10
36632.60666738588
 20
-21294.09019110531
 30
0.0
 11
36592.60666829187
 21
-21294.09019110531
 31
0.0
  0
LINE
  5
126
330
123
100
AcDbEntity
  8
Calm 820
  6
Continuous
 62
    18
 48
50.00000038146973
370
    -2
100
AcDbLine
 10
36612.60666783887
 20
-21044.56363847826
 30
0.0
 11
36612.60666783887
 21
-21279.09019050926
 31
0.0
  0
INSERT
  5
127
330
123
100
AcDbEntity
  8
Calm 820
 62
    18
370
    -2
100
AcDbBlockReference
  2
_OPEN30
 10
36612.60666783887
 20
-21029.56363788221
 30
0.0
 41
15.00000059604645
 42
15.00000059604645
 43
15.00000059604645
 50
90.0
  0
INSERT
  5
128
330
123
100
AcDbEntity
  8
Calm 820
 62
    18
370
    -2
100
AcDbBlockReference
  2
_OPEN30
 10
36612.60666783887
 20
-21294.09019110531
 30
0.0
 41
15.00000059604645
 42
15.00000059604645
 43
15.00000059604645
 50
270.0
  0
MTEXT
  5
129
330
123
100
AcDbEntity
  8
Calm 820
  6
Continuous
 62
     0
370
    25
100
AcDbMText
 10
36572.18666375
 20
-21161.82691449376
 30
0.0
 40
40.0
 41
0.0
 71
     5
 72
     1
  1
264.527
  7
ARIAL
 11
0.0
 21
1.0
 31
0.0
 73
     1
 44
1.0
  0
POINT
  5
12A
330
123
100
AcDbEntity
  8
Defpoints
 62
     0
100
AcDbPoint
 10
36883.12204011518
 20
-21029.56363788221
 30
0.0
  0
POINT
  5
12B
330
123
100
AcDbEntity
  8
Defpoints
 62
     0
100
AcDbPoint
 10
36884.79800270704
 20
-21294.09019110531
 30
0.0
  0
POINT
  5
12C
330
123
100
AcDbEntity
  8
Defpoints
 62
     0
100
AcDbPoint
 10
36612.60666783887
 20
-21294.09019110531
 30
0.0
  0
ENDBLK
  5
12E
330
123
100
AcDbEntity
  8
0
100
AcDbBlockEnd
  0
BLOCK
  5
130
330
12F
100
AcDbEntity
  8
0
100
AcDbBlockBegin
  2
_OPEN30
 70
     0
 10
0.0
 20
0.0
 30
0.0
  3
_OPEN30
  1

  0
LINE
  5
132
330
12F
100
AcDbEntity
  8
0
  6
ByBlock
 62
     0
370
    -2
100
AcDbLine
 10
-1.0
 20
0.267949
 30
0.0
 11
0.0
 21
0.0
 31
0.0
  0
LINE
  5
133
330
12F
100
AcDbEntity
  8
0
  6
ByBlock
 62
     0
370
    -2
100
AcDbLine
 10
0.0
 20
0.0
 30
0.0
 11
-1.0
 21
-0.267949
 31
0.0
  0
LINE
  5
134
330
12F
100
AcDbEntity
  8
0
  6
ByBlock
 62
     0
370
    -2
100
AcDbLine
 10
0.0
 20
0.0
 30
0.0
 11
-1.0
 21
0.0
 31
0.0
  0
ENDBLK
  5
131
330
12F
100
AcDbEntity
  8
0
100
AcDbBlockEnd
  0
BLOCK
  5
141
330
137
100
AcDbEntity
  8
0
100
AcDbBlockBegin
  2
*D22
 70
     1
 10
0.0
 20
0.0
 30
0.0
  3
*D22
  1

  0
LINE
  5
138
330
137
100
AcDbEntity
  8
Calm 820
  6
Continuous
 62
    18
 48
50.00000038146973
370
    -2
100
AcDbLine
 10
36578.60666738588
 20
-21004.06364398573
 30
0.0
 11
36538.60666829187
 21
-21004.06364398573
 31
0.0
  0
LINE
  5
139
330
137
100
AcDbEntity
  8
Calm 820
  6
Continuous
 62
    18
 48
50.00000038146973
370
    -2
100
AcDbLine
 10
36578.60666738588
 20
-21319.59184089277
 30
0.0
 11
36538.60666829187
 21
-21319.59184089277
 31
0.0
  0
LINE
  5
13A
330
137
100
AcDbEntity
  8
Calm 820
  6
Continuous
 62
    18
 48
50.00000038146973
370
    -2
100
AcDbLine
 10
36558.60666783887
 20
-21013.06364434335
 30
0.0
 11
36558.60666783887
 21
-21310.59184053514
 31
0.0
  0
INSERT
  5
13B
330
137
100
AcDbEntity
  8
Calm 820
 62
    18
370
    -2
100
AcDbBlockReference
  2
_OPEN30
 10
36558.60666783887
 20
-21004.06364398573
 30
0.0
 41
9.000000357627869
 42
9.000000357627869
 43
9.000000357627869
 50
90.0
  0
INSERT
  5
13C
330
137
100
AcDbEntity
  8
Calm 820
 62
    18
370
    -2
100
AcDbBlockReference
  2
_OPEN30
 10
36558.60666783887
 20
-21319.59184089277
 30
0.0
 41
9.000000357627869
 42
9.000000357627869
 43
9.000000357627869
 50
270.0
  0
MTEXT
  5
13D
330
137
100
AcDbEntity
  8
Calm 820
  6
Continuous
 62
    18
370
    25
100
AcDbMText
 10
36526.60666375
 20
-21161.82774243925
 30
0.0
 40
24.0
 41
0.0
 71
     5
 72
     1
  1
315.528
  7
ROMAN
 11
0.0
 21
1.0
 31
0.0
 73
     1
 44
1.0
  0
POINT
  5
13E
330
137
100
AcDbEntity
  8
Defpoints
 62
     0
100
AcDbPoint
 10
36883.12204011518
 20
-21004.06364398573
 30
0.0
  0
POINT
  5
13F
330
137
100
AcDbEntity
  8
Defpoints
 62
     0
100
AcDbPoint
 10
36885.89677384931
 20
-21319.59184089277
 30
0.0
  0
POINT
  5
140
330
137
100
AcDbEntity
  8
Defpoints
 62
     0
100
AcDbPoint
 10
36558.60666783887
 20
-21319.59184089277
 30
0.0
  0
ENDBLK
  5
142
330
137
100
AcDbEntity
  8
0
100
AcDbBlockEnd
  0
BLOCK
  5
14E
330
144
100
AcDbEntity
  8
0
100
AcDbBlockBegin
  2
*D23
 70
     1
 10
0.0
 20
0.0
 30
0.0
  3
*D23
  1

  0
LINE
  5
145
330
144
100
AcDbEntity
  8
Calm 820
  6
Continuous
 62
    18
 48
50.00000038146973
370
    -2
100
AcDbLine
 10
36697.10666173534
 20
-21358.58867490987
 30
0.0
 11
36697.10666173534
 21
-21398.58867400388
 31
0.0
  0
LINE
  5
146
330
144
100
AcDbEntity
  8
Calm 820
  6
Continuous
 62
    18
 48
50.00000038146973
370
    -2
100
AcDbLine
 10
37071.4697615965
 20
-21358.58867490987
 30
0.0
 11
37071.4697615965
 21
-21398.58867400388
 31
0.0
  0
LINE
  5
147
330
144
100
AcDbEntity
  8
Calm 820
  6
Continuous
 62
    18
 48
50.00000038146973
370
    -2
100
AcDbLine
 10
36712.10666233139
 20
-21378.58867445688
 30
0.0
 11
37056.46976100045
 21
-21378.58867445688
 31
0.0
  0
INSERT
  5
148
330
144
100
AcDbEntity
  8
Calm 820
 62
    18
370
    -2
100
AcDbBlockReference
  2
_OPEN30
 10
36697.10666173534
 20
-21378.58867445688
 30
0.0
 41
15.00000059604645
 42
15.00000059604645
 43
15.00000059604645
 50
180.0
  0
INSERT
  5
149
330
144
100
AcDbEntity
  8
Calm 820
 62
    18
370
    -2
100
AcDbBlockReference
  2
_OPEN30
 10
37071.4697615965
 20
-21378.58867445688
 30
0.0
 41
15.00000059604645
 42
15.00000059604645
 43
15.00000059604645
  0
MTEXT
  5
14A
330
144
100
AcDbEntity
  8
Calm 820
  6
Continuous
 62
     0
370
    25
100
AcDbMText
 10
36884.28821166592
 20
-21338.168670368
 30
0.0
 40
40.0
 41
0.0
 71
     5
 72
     1
  1
374.363
  7
ARIAL
 73
     1
 44
1.0
  0
POINT
  5
14B
330
144
100
AcDbEntity
  8
Defpoints
 62
     0
100
AcDbPoint
 10
36697.10666173534
 20
-21160.14861770247
 30
0.0
  0
POINT
  5
14C
330
144
100
AcDbEntity
  8
Defpoints
 62
     0
100
AcDbPoint
 10
37071.4697615965
 20
-21161.72507186506
 30
0.0
  0
POINT
  5
14D
330
144
100
AcDbEntity
  8
Defpoints
 62
     0
100
AcDbPoint
 10
37071.4697615965
 20
-21378.58867445688
 30
0.0
  0
ENDBLK
  5
14F
330
144
100
AcDbEntity
  8
0
100
AcDbBlockEnd
  0
BLOCK
  5
15B
330
151
100
AcDbEntity
  8
0
100
AcDbBlockBegin
  2
*D24
 70
     1
 10
0.0
 20
0.0
 30
0.0
  3
*D24
  1

  0
LINE
  5
152
330
151
100
AcDbEntity
  8
Calm 820
  6
Continuous
 62
    18
 48
50.00000038146973
370
    -2
100
AcDbLine
 10
36671.60666783886
 20
-21412.58867490987
 30
0.0
 11
36671.60666783886
 21
-21452.58867400388
 31
0.0
  0
LINE
  5
153
330
151
100
AcDbEntity
  8
Calm 820
  6
Continuous
 62
    18
 48
50.00000038146973
370
    -2
100
AcDbLine
 10
37096.96984027463
 20
-21412.58867490987
 30
0.0
 11
37096.96984027463
 21
-21452.58867400388
 31
0.0
  0
LINE
  5
154
330
151
100
AcDbEntity
  8
Calm 820
  6
Continuous
 62
    18
 48
50.00000038146973
370
    -2
100
AcDbLine
 10
36680.60666819649
 20
-21432.58867445688
 30
0.0
 11
37087.969839917
 21
-21432.58867445688
 31
0.0
  0
INSERT
  5
155
330
151
100
AcDbEntity
  8
Calm 820
 62
    18
370
    -2
100
AcDbBlockReference
  2
_OPEN30
 10
36671.60666783886
 20
-21432.58867445688
 30
0.0
 41
9.000000357627869
 42
9.000000357627869
 43
9.000000357627869
 50
180.0
  0
INSERT
  5
156
330
151
100
AcDbEntity
  8
Calm 820
 62
    18
370
    -2
100
AcDbBlockReference
  2
_OPEN30
 10
37096.96984027463
 20
-21432.58867445688
 30
0.0
 41
9.000000357627869
 42
9.000000357627869
 43
9.000000357627869
  0
MTEXT
  5
157
330
151
100
AcDbEntity
  8
Calm 820
  6
Continuous
 62
    18
370
    25
100
AcDbMText
 10
36884.28825405674
 20
-21400.588670368
 30
0.0
 40
24.0
 41
0.0
 71
     5
 72
     1
  1
425.363
  7
ROMAN
 73
     1
 44
1.0
  0
POINT
  5
158
330
151
100
AcDbEntity
  8
Defpoints
 62
     0
100
AcDbPoint
 10
36671.60666783886
 20
-21160.14861770247
 30
0.0
  0
POINT
  5
159
330
151
100
AcDbEntity
  8
Defpoints
 62
     0
100
AcDbPoint
 10
37096.96984027463
 20
-21161.72468429183
 30
0.0
  0
POINT
  5
15A
330
151
100
AcDbEntity
  8
Defpoints
 62
     0
100
AcDbPoint
 10
37096.96984027463
 20
-21432.58867445688
 30
0.0
  0
ENDBLK
  5
15C
330
151
100
AcDbEntity
  8
0
100
AcDbBlockEnd
  0
BLOCK
  5
168
330
15E
100
AcDbEntity
  8
0
100
AcDbBlockBegin
  2
*D25
 70
     1
 10
0.0
 20
0.0
 30
0.0
  3
*D25
  1

  0
LINE
  5
15F
330
15E
100
AcDbEntity
  8
Calm 820
  6
Continuous
 62
    18
 48
50.00000038146973
370
    -2
100
AcDbLine
 10
37296.85773476422
 20
-20965.06585195207
 30
0.0
 11
37296.85773476422
 21
-20925.06585285805
 31
0.0
  0
LINE
  5
160
330
15E
100
AcDbEntity
  8
Calm 820
  6
Continuous
 62
    18
 48
50.00000038146973
370
    -2
100
AcDbLine
 10
37435.17449931815
 20
-20965.06585195207
 30
0.0
 11
37435.17449931815
 21
-20925.06585285805
 31
0.0
  0
LINE
  5
161
330
15E
100
AcDbEntity
  8
Calm 820
  6
Continuous
 62
    18
 48
50.00000038146973
370
    -2
100
AcDbLine
 10
37296.85773476422
 20
-20945.06585240506
 30
0.0
 11
37435.17449931815
 21
-20945.06585240506
 31
0.0
  0
LINE
  5
162
330
15E
100
AcDbEntity
  8
Calm 820
  6
Continuous
 62
    18
 48
50.00000038146973
370
    -2
100
AcDbLine
 10
37281.85773416817
 20
-20945.06585240506
 30
0.0
 11
37266.85773357213
 21
-20945.06585240506
 31
0.0
  0
LINE
  5
163
330
15E
100
AcDbEntity
  8
Calm 820
  6
Continuous
 62
    18
 48
50.00000038146973
370
    -2
100
AcDbLine
 10
37450.1744999142
 20
-20945.06585240506
 30
0.0
 11
37465.17450051024
 21
-20945.06585240506
 31
0.0
  0
INSERT
  5
164
330
15E
100
AcDbEntity
  8
Calm 820
 62
    18
370
    -2
100
AcDbBlockReference
  2
_OPEN30
 10
37296.85773476422
 20
-20945.06585240506
 30
0.0
 41
15.00000059604645
 42
15.00000059604645
 43
15.00000059604645
  0
INSERT
  5
165
330
15E
100
AcDbEntity
  8
Calm 820
 62
    18
370
    -2
100
AcDbBlockReference
  2
_OPEN30
 10
37435.17449931815
 20
-20945.06585240506
 30
0.0
 41
15.00000059604645
 42
15.00000059604645
 43
15.00000059604645
 50
180.0
  0
MTEXT
  5
166
330
15E
100
AcDbEntity
  8
Calm 820
  6
Continuous
 62
     0
370
    25
100
AcDbMText
 10
37366.01611704119
 20
-20904.64584831618
 30
0.0
 40
40.0
 41
0.0
 71
     5
 72
     1
  1
138.317
  7
ARIAL
 73
     1
 44
1.0
  0
POINT
  5
167
330
15E
100
AcDbEntity
  8
Defpoints
 62
     0
100
AcDbPoint
 10
37296.85773476422
 20
-20970.56363788221
 30
0.0
  0
POINT
  5
16A
330
15E
100
AcDbEntity
  8
Defpoints
 62
     0
100
AcDbPoint
 10
37435.17449931815
 20
-21040.50382366894
 30
0.0
  0
POINT
  5
16B
330
15E
100
AcDbEntity
  8
Defpoints
 62
     0
100
AcDbPoint
 10
37435.17449931815
 20
-20945.06585240506
 30
0.0
  0
ENDBLK
  5
169
330
15E
100
AcDbEntity
  8
0
100
AcDbBlockEnd
  0
BLOCK
  5
177
330
16D
100
AcDbEntity
  8
0
100
AcDbBlockBegin
  2
*D26
 70
     1
 10
0.0
 20
0.0
 30
0.0
  3
*D26
  1

  0
LINE
  5
16E
330
16D
100
AcDbEntity
  8
Calm 820
  6
Continuous
 62
    18
 48
50.00000038146973
370
    -2
100
AcDbLine
 10
37135.85746122824
 20
-21099.56646285627
 30
0.0
 11
37175.85746032225
 21
-21099.56646285627
 31
0.0
  0
LINE
  5
16F
330
16D
100
AcDbEntity
  8
Calm 820
  6
Continuous
 62
    18
 48
50.00000038146973
370
    -2
100
AcDbLine
 10
37135.85746122824
 20
-21029.56732889024
 30
0.0
 11
37175.85746032225
 21
-21029.56732889024
 31
0.0
  0
LINE
  5
170
330
16D
100
AcDbEntity
  8
Calm 820
  6
Continuous
 62
    18
 48
50.00000038146973
370
    -2
100
AcDbLine
 10
37155.85746077525
 20
-21099.56646285627
 30
0.0
 11
37155.85746077525
 21
-21029.56732889024
 31
0.0
  0
LINE
  5
171
330
16D
100
AcDbEntity
  8
Calm 820
  6
Continuous
 62
    18
 48
50.00000038146973
370
    -2
100
AcDbLine
 10
37155.85746077525
 20
-21108.5664632139
 30
0.0
 11
37155.85746077525
 21
-21117.56646357153
 31
0.0
  0
LINE
  5
172
330
16D
100
AcDbEntity
  8
Calm 820
  6
Continuous
 62
    18
 48
50.00000038146973
370
    -2
100
AcDbLine
 10
37155.85746077525
 20
-21020.56732853261
 30
0.0
 11
37155.85746077525
 21
-21011.56732817498
 31
0.0
  0
INSERT
  5
173
330
16D
100
AcDbEntity
  8
Calm 820
 62
    18
370
    -2
100
AcDbBlockReference
  2
_OPEN30
 10
37155.85746077525
 20
-21099.56646285627
 30
0.0
 41
9.000000357627869
 42
9.000000357627869
 43
9.000000357627869
 50
90.0
  0
INSERT
  5
174
330
16D
100
AcDbEntity
  8
Calm 820
 62
    18
370
    -2
100
AcDbBlockReference
  2
_OPEN30
 10
37155.85746077525
 20
-21029.56732889024
 30
0.0
 41
9.000000357627869
 42
9.000000357627869
 43
9.000000357627869
 50
270.0
  0
MTEXT
  5
175
330
16D
100
AcDbEntity
  8
Calm 820
  6
Continuous
 62
    18
370
    25
100
AcDbMText
 10
37123.85745668637
 20
-21064.56689587326
 30
0.0
 40
24.0
 41
0.0
 71
     5
 72
     1
  1
69.999
  7
ROMAN
 11
0.0
 21
1.0
 31
0.0
 73
     1
 44
1.0
  0
POINT
  5
176
330
16D
100
AcDbEntity
  8
Defpoints
 62
     0
100
AcDbPoint
 10
36884.28519586163
 20
-21099.56646285627
 30
0.0
  0
POINT
  5
179
330
16D
100
AcDbEntity
  8
Defpoints
 62
     0
100
AcDbPoint
 10
36884.62408600972
 20
-21029.56732889024
 30
0.0
  0
POINT
  5
17A
330
16D
100
AcDbEntity
  8
Defpoints
 62
     0
100
AcDbPoint
 10
37155.85746077525
 20
-21029.56732889024
 30
0.0
  0
ENDBLK
  5
178
330
16D
100
AcDbEntity
  8
0
100
AcDbBlockEnd
  0
BLOCK
  5
17C
330
17B
100
AcDbEntity
  8
0
100
AcDbBlockBegin
  2
Dimension20
 70
     0
 10
0.0
 20
0.0
 30
0.0
  3
Dimension20
  1

  0
ENDBLK
  5
17D
330
17B
100
AcDbEntity
  8
0
100
AcDbBlockEnd
  0
BLOCK
  5
180
330
17F
100
AcDbEntity
  8
0
100
AcDbBlockBegin
  2
Dimension21
 70
     0
 10
0.0
 20
0.0
 30
0.0
  3
Dimension21
  1

  0
ENDBLK
  5
181
330
17F
100
AcDbEntity
  8
0
100
AcDbBlockEnd
  0
BLOCK
  5
184
330
183
100
AcDbEntity
  8
0
100
AcDbBlockBegin
  2
Dimension22
 70
     0
 10
0.0
 20
0.0
 30
0.0
  3
Dimension22
  1

  0
ENDBLK
  5
185
330
183
100
AcDbEntity
  8
0
100
AcDbBlockEnd
  0
BLOCK
  5
19A
330
190
100
AcDbEntity
  8
0
100
AcDbBlockBegin
  2
*D30
 70
     1
 10
0.0
 20
0.0
 30
0.0
  3
*D30
  1

  0
LINE
  5
191
330
190
100
AcDbEntity
  8
Calm 820
  6
Continuous
 62
    18
 48
50.00000038146973
370
    -2
100
AcDbLine
 10
37135.85746122824
 20
-21519.59184089277
 30
0.0
 11
37175.85746032225
 21
-21519.59184089277
 31
0.0
  0
LINE
  5
192
330
190
100
AcDbEntity
  8
Calm 820
  6
Continuous
 62
    18
 48
50.00000038146973
370
    -2
100
AcDbLine
 10
37135.85746122824
 20
-21677.96101673258
 30
0.0
 11
37175.85746032225
 21
-21677.96101673258
 31
0.0
  0
LINE
  5
193
330
190
100
AcDbEntity
  8
Calm 820
  6
Continuous
 62
    18
 48
50.00000038146973
370
    -2
100
AcDbLine
 10
37155.85746077525
 20
-21519.59184089277
 30
0.0
 11
37155.85746077525
 21
-21677.96101673258
 31
0.0
  0
LINE
  5
194
330
190
100
AcDbEntity
  8
Calm 820
  6
Continuous
 62
    18
 48
50.00000038146973
370
    -2
100
AcDbLine
 10
37155.85746077525
 20
-21510.59184053514
 30
0.0
 11
37155.85746077525
 21
-21501.59184017751
 31
0.0
  0
LINE
  5
195
330
190
100
AcDbEntity
  8
Calm 820
  6
Continuous
 62
    18
 48
50.00000038146973
370
    -2
100
AcDbLine
 10
37155.85746077525
 20
-21686.96101709021
 30
0.0
 11
37155.85746077525
 21
-21695.96101744784
 31
0.0
  0
INSERT
  5
196
330
190
100
AcDbEntity
  8
Calm 820
 62
    18
370
    -2
100
AcDbBlockReference
  2
_OPEN30
 10
37155.85746077525
 20
-21519.59184089277
 30
0.0
 41
9.000000357627869
 42
9.000000357627869
 43
9.000000357627869
 50
270.0
  0
INSERT
  5
197
330
190
100
AcDbEntity
  8
Calm 820
 62
    18
370
    -2
100
AcDbBlockReference
  2
_OPEN30
 10
37155.85746077525
 20
-21677.96101673258
 30
0.0
 41
9.000000357627869
 42
9.000000357627869
 43
9.000000357627869
 50
90.0
  0
MTEXT
  5
198
330
190
100
AcDbEntity
  8
Calm 820
  6
Continuous
 62
    18
370
    25
100
AcDbMText
 10
37123.85745668637
 20
-21598.77642881268
 30
0.0
 40
24.0
 41
0.0
 71
     5
 72
     1
  1
158.369
  7
ROMAN
 11
0.0
 21
1.0
 31
0.0
 73
     1
 44
1.0
  0
POINT
  5
199
330
190
100
AcDbEntity
  8
Defpoints
 62
     0
100
AcDbPoint
 10
37078.99699040884
 20
-21519.59184089277
 30
0.0
  0
POINT
  5
19C
330
190
100
AcDbEntity
  8
Defpoints
 62
     0
100
AcDbPoint
 10
36921.96033023176
 20
-21677.96101673258
 30
0.0
  0
POINT
  5
19D
330
190
100
AcDbEntity
  8
Defpoints
 62
     0
100
AcDbPoint
 10
37155.85746077525
 20
-21677.96101673258
 30
0.0
  0
ENDBLK
  5
19B
330
190
100
AcDbEntity
  8
0
100
AcDbBlockEnd
  0
BLOCK
  5
19F
330
19E
100
AcDbEntity
  8
0
100
AcDbBlockBegin
  2
Dimension23
 70
     0
 10
0.0
 20
0.0
 30
0.0
  3
Dimension23
  1

  0
ENDBLK
  5
1A0
330
19E
100
AcDbEntity
  8
0
100
AcDbBlockEnd
  0
BLOCK
  5
1F2
330
1F1
100
AcDbEntity
  8
0
100
AcDbBlockBegin
  2
Dimension24
 70
     0
 10
0.0
 20
0.0
 30
0.0
  3
Dimension24
  1

  0
ENDBLK
  5
1F3
330
1F1
100
AcDbEntity
  8
0
100
AcDbBlockEnd
  0
BLOCK
  5
1F6
330
1F5
100
AcDbEntity
  8
0
100
AcDbBlockBegin
  2
Dimension25
 70
     0
 10
0.0
 20
0.0
 30
0.0
  3
Dimension25
  1

  0
ENDBLK
  5
1F7
330
1F5
100
AcDbEntity
  8
0
100
AcDbBlockEnd
  0
BLOCK
  5
1FA
330
1F9
100
AcDbEntity
  8
0
100
AcDbBlockBegin
  2
Dimension26
 70
     0
 10
0.0
 20
0.0
 30
0.0
  3
Dimension26
  1

  0
ENDBLK
  5
1FB
330
1F9
100
AcDbEntity
  8
0
100
AcDbBlockEnd
  0
BLOCK
  5
1FE
330
1FD
100
AcDbEntity
  8
0
100
AcDbBlockBegin
  2
Dimension27
 70
     0
 10
0.0
 20
0.0
 30
0.0
  3
Dimension27
  1

  0
ENDBLK
  5
1FF
330
1FD
100
AcDbEntity
  8
0
100
AcDbBlockEnd
  0
BLOCK
  5
202
330
201
100
AcDbEntity
  8
0
100
AcDbBlockBegin
  2
Dimension28
 70
     0
 10
0.0
 20
0.0
 30
0.0
  3
Dimension28
  1

  0
ENDBLK
  5
203
330
201
100
AcDbEntity
  8
0
100
AcDbBlockEnd
  0
BLOCK
  5
206
330
205
100
AcDbEntity
  8
0
100
AcDbBlockBegin
  2
Dimension29
 70
     0
 10
0.0
 20
0.0
 30
0.0
  3
Dimension29
  1

  0
ENDBLK
  5
207
330
205
100
AcDbEntity
  8
0
100
AcDbBlockEnd
  0
BLOCK
  5
20A
330
209
100
AcDbEntity
  8
0
100
AcDbBlockBegin
  2
Dimension30
 70
     0
 10
0.0
 20
0.0
 30
0.0
  3
Dimension30
  1

  0
ENDBLK
  5
20B
330
209
100
AcDbEntity
  8
0
100
AcDbBlockEnd
  0
BLOCK
  5
20E
330
20D
100
AcDbEntity
  8
0
100
AcDbBlockBegin
  2
Dimension31
 70
     0
 10
0.0
 20
0.0
 30
0.0
  3
Dimension31
  1

  0
ENDBLK
  5
20F
330
20D
100
AcDbEntity
  8
0
100
AcDbBlockEnd
  0
BLOCK
  5
212
330
211
100
AcDbEntity
  8
0
100
AcDbBlockBegin
  2
Dimension32
 70
     0
 10
0.0
 20
0.0
 30
0.0
  3
Dimension32
  1

  0
ENDBLK
  5
213
330
211
100
AcDbEntity
  8
0
100
AcDbBlockEnd
  0
BLOCK
  5
216
330
215
100
AcDbEntity
  8
0
100
AcDbBlockBegin
  2
Dimension33
 70
     0
 10
0.0
 20
0.0
 30
0.0
  3
Dimension33
  1

  0
ENDBLK
  5
217
330
215
100
AcDbEntity
  8
0
100
AcDbBlockEnd
  0
BLOCK
  5
21A
330
219
100
AcDbEntity
  8
0
100
AcDbBlockBegin
  2
Dimension34
 70
     0
 10
0.0
 20
0.0
 30
0.0
  3
Dimension34
  1

  0
ENDBLK
  5
21B
330
219
100
AcDbEntity
  8
0
100
AcDbBlockEnd
  0
BLOCK
  5
21E
330
21D
100
AcDbEntity
  8
0
100
AcDbBlockBegin
  2
Dimension35
 70
     0
 10
0.0
 20
0.0
 30
0.0
  3
Dimension35
  1

  0
ENDBLK
  5
21F
330
21D
100
AcDbEntity
  8
0
100
AcDbBlockEnd
  0
BLOCK
  5
222
330
221
100
AcDbEntity
  8
0
100
AcDbBlockBegin
  2
Dimension36
 70
     0
 10
0.0
 20
0.0
 30
0.0
  3
Dimension36
  1

  0
ENDBLK
  5
223
330
221
100
AcDbEntity
  8
0
100
AcDbBlockEnd
  0
BLOCK
  5
226
330
225
100
AcDbEntity
  8
0
100
AcDbBlockBegin
  2
Dimension37
 70
     0
 10
0.0
 20
0.0
 30
0.0
  3
Dimension37
  1

  0
ENDBLK
  5
227
330
225
100
AcDbEntity
  8
0
100
AcDbBlockEnd
  0
BLOCK
  5
22A
330
229
100
AcDbEntity
  8
0
100
AcDbBlockBegin
  2
Dimension38
 70
     0
 10
0.0
 20
0.0
 30
0.0
  3
Dimension38
  1

  0
ENDBLK
  5
22B
330
229
100
AcDbEntity
  8
0
100
AcDbBlockEnd
  0
BLOCK
  5
22E
330
22D
100
AcDbEntity
  8
0
100
AcDbBlockBegin
  2
Dimension39
 70
     0
 10
0.0
 20
0.0
 30
0.0
  3
Dimension39
  1

  0
ENDBLK
  5
22F
330
22D
100
AcDbEntity
  8
0
100
AcDbBlockEnd
  0
BLOCK
  5
232
330
231
100
AcDbEntity
  8
0
100
AcDbBlockBegin
  2
Dimension40
 70
     0
 10
0.0
 20
0.0
 30
0.0
  3
Dimension40
  1

  0
ENDBLK
  5
233
330
231
100
AcDbEntity
  8
0
100
AcDbBlockEnd
  0
ENDSEC
  0
SECTION
  2
ENTITIES
  0
INSERT
  5
43
330
1F
100
AcDbEntity
  8
allgemein
  6
Continuous
 62
    18
420
        0
 48
50.00000038146973
370
    25
100
AcDbBlockReference
  2
Dimension1
 10
0.0
 20
0.0
 30
0.0
  0
INSERT
  5
47
330
1F
100
AcDbEntity
  8
allgemein
  6
Continuous
 62
    18
420
        0
 48
50.00000038146973
370
    25
100
AcDbBlockReference
  2
Dimension2
 10
0.0
 20
0.0
 30
0.0
  0
INSERT
  5
4B
330
1F
100
AcDbEntity
  8
allgemein
  6
Continuous
 62
    18
420
        0
 48
50.00000038146973
370
    25
100
AcDbBlockReference
  2
Dimension3
 10
0.0
 20
0.0
 30
0.0
  0
INSERT
  5
4F
330
1F
100
AcDbEntity
  8
allgemein
  6
Continuous
 62
    18
420
        0
 48
50.00000038146973
370
    25
100
AcDbBlockReference
  2
Dimension4
 10
0.0
 20
0.0
 30
0.0
  0
INSERT
  5
53
330
1F
100
AcDbEntity
  8
allgemein
  6
Continuous
 62
    18
420
        0
 48
50.00000038146973
370
    25
100
AcDbBlockReference
  2
Dimension5
 10
0.0
 20
0.0
 30
0.0
  0
INSERT
  5
57
330
1F
100
AcDbEntity
  8
allgemein
  6
Continuous
 62
    18
420
        0
 48
50.00000038146973
370
    25
100
AcDbBlockReference
  2
Dimension6
 10
0.0
 20
0.0
 30
0.0
  0
INSERT
  5
5B
330
1F
100
AcDbEntity
  8
allgemein
  6
Continuous
 62
    18
420
        0
 48
50.00000038146973
370
    25
100
AcDbBlockReference
  2
Dimension7
 10
0.0
 20
0.0
 30
0.0
  0
INSERT
  5
5F
330
1F
100
AcDbEntity
  8
allgemein
  6
Continuous
 62
    18
420
        0
 48
50.00000038146973
370
    25
100
AcDbBlockReference
  2
Dimension8
 10
0.0
 20
0.0
 30
0.0
  0
INSERT
  5
63
330
1F
100
AcDbEntity
  8
allgemein
  6
Continuous
 62
    18
420
        0
 48
50.00000038146973
370
    25
100
AcDbBlockReference
  2
Dimension9
 10
0.0
 20
0.0
 30
0.0
  0
INSERT
  5
67
330
1F
100
AcDbEntity
  8
allgemein
  6
Continuous
 62
    18
420
        0
 48
50.00000038146973
370
    25
100
AcDbBlockReference
  2
Dimension10
 10
0.0
 20
0.0
 30
0.0
  0
INSERT
  5
6B
330
1F
100
AcDbEntity
  8
allgemein
  6
Continuous
 62
    18
420
        0
 48
50.00000038146973
370
    25
100
AcDbBlockReference
  2
Dimension11
 10
0.0
 20
0.0
 30
0.0
  0
INSERT
  5
6F
330
1F
100
AcDbEntity
  8
allgemein
  6
Continuous
 62
    18
420
        0
 48
50.00000038146973
370
    25
100
AcDbBlockReference
  2
Dimension12
 10
0.0
 20
0.0
 30
0.0
  0
INSERT
  5
73
330
1F
100
AcDbEntity
  8
allgemein
  6
Continuous
 62
    18
420
        0
 48
50.00000038146973
370
    25
100
AcDbBlockReference
  2
Dimension13
 10
0.0
 20
0.0
 30
0.0
  0
ARC
  5
76
330
1F
100
AcDbEntity
  8
Calm 820
  6
Continuous
 62
    18
420
        0
 48
25.00000019073486
370
    25
100
AcDbCircle
 10
36845.40490144331
 20
-21201.45336394878
 30
0.0
 40
191.7662744521959
100
AcDbArc
 50
110.4407984260403
 51
121.5392820914206
  0
ARC
  5
77
330
1F
100
AcDbEntity
  8
Calm 820
  6
Continuous
 62
    18
420
        0
 48
25.00000019073486
370
    25
100
AcDbCircle
 10
36874.30510591107
 20
-21288.5071927339
 30
0.0
 40
283.4512007440169
100
AcDbArc
 50
104.4945956790576
 51
109.769250246735
  0
ARC
  5
78
330
1F
100
AcDbEntity
  8
Calm 820
  6
Continuous
 62
    18
420
        0
 48
25.00000019073486
370
    25
100
AcDbCircle
 10
36874.17559007244
 20
-21275.33160644147
 30
0.0
 40
270.6812007903983
100
AcDbArc
 50
97.50651700610418
 51
105.1661097074099
  0
ARC
  5
79
330
1F
100
AcDbEntity
  8
Calm 820
  6
Continuous
 62
    18
420
        0
 48
25.00000019073486
370
    25
100
AcDbCircle
 10
36883.12204011517
 20
-21343.22717147443
 30
0.0
 40
339.163527488701
100
AcDbArc
 50
90.96176827169626
 51
97.50651017591584
  0
ARC
  5
7A
330
1F
100
AcDbEntity
  8
Calm 820
  6
Continuous
 62
    18
420
        0
 48
25.00000019073486
370
    25
100
AcDbCircle
 10
36883.10929864484
 20
-21342.45280013655
 30
0.0
 40
338.3891319274978
100
AcDbArc
 50
80.95927725110538
 51
90.96179559245473
  0
ARC
  5
7B
330
1F
100
AcDbEntity
  8
Calm 820
  6
Continuous
 62
    18
420
        0
 48
25.00000019073486
370
    25
100
AcDbCircle
 10
36895.27037805156
 20
-21266.02190337751
 30
0.0
 40
260.9967386245727
100
AcDbArc
 50
75.85189401619795
 51
80.95928408129085
  0
ARC
  5
7C
330
1F
100
AcDbEntity
  8
Calm 820
  6
Continuous
 62
    18
420
        0
 48
25.00000019073486
370
    25
100
AcDbCircle
 10
36894.72586816388
 20
-21277.12510034957
 30
0.0
 40
271.9050196601684
100
AcDbArc
 50
68.09028031452534
 51
76.31248935814337
  0
ARC
  5
7E
330
1F
100
AcDbEntity
  8
Calm 820
  6
DASHED1
 62
    18
420
        0
 48
25.00000019073486
370
    25
100
AcDbCircle
 10
36929.22936433393
 20
-21187.5472360191
 30
0.0
 40
175.9279727935652
100
AcDbArc
 50
63.93486682030762
 51
67.62972595371771
  0
ARC
  5
7F
330
1F
100
AcDbEntity
  8
Calm 820
  6
Continuous
 62
    18
420
        0
 48
25.00000019073486
370
    25
100
AcDbCircle
 10
36919.44527162152
 20
-21207.54960036849
 30
0.0
 40
198.1950729370209
100
AcDbArc
 50
54.9009273598728
 51
63.93483949954968
  0
ARC
  5
80
330
1F
100
AcDbEntity
  8
Calm 820
  6
Continuous
 62
    18
420
        0
 48
25.00000019073486
370
    25
100
AcDbCircle
 10
36936.69785226423
 20
-21182.86302581403
 30
0.0
 40
168.0775677680908
100
AcDbArc
 50
40.6534020531342
 51
54.75309474548046
  0
ARC
  5
81
330
1F
100
AcDbEntity
  8
Calm 820
  6
DASHED1
 62
    18
420
        0
 48
25.00000019073486
370
    25
100
AcDbCircle
 10
36965.55461801127
 20
-21158.08333678813
 30
0.0
 40
130.0413356780943
100
AcDbArc
 50
33.6842287787784
 51
40.65348060029243
  0
ARC
  5
82
330
1F
100
AcDbEntity
  8
Calm 820
  6
Continuous
 62
    18
420
        0
 48
25.00000019073486
370
    25
100
AcDbCircle
 10
36956.31041482526
 20
-21164.2444917259
 30
0.0
 40
141.1506139755219
100
AcDbArc
 50
22.068269491326
 51
33.68412632595674
  0
ARC
  5
83
330
1F
100
AcDbEntity
  8
Calm 820
  6
Continuous
 62
    18
420
        0
 48
25.00000019073486
370
    25
100
AcDbCircle
 10
36962.52476419049
 20
-21161.72507186506
 30
0.0
 40
134.4450034141541
100
AcDbArc
 50
357.6601238120474
 51
22.06829658470802
  0
ARC
  5
84
330
1F
100
AcDbEntity
  8
Calm 820
  6
Continuous
 62
    18
420
        0
 48
25.00000019073486
370
    25
100
AcDbCircle
 10
36962.51488107281
 20
-21161.72468429183
 30
0.0
 40
134.4549592018102
100
AcDbArc
 50
337.1084124485641
 51
357.6601238120525
  0
ARC
  5
85
330
1F
100
AcDbEntity
  8
Calm 820
  6
Continuous
 62
    18
420
        0
 48
25.00000019073486
370
    25
100
AcDbCircle
 10
36946.12314904766
 20
-21154.80330443953
 30
0.0
 40
152.2480107307433
100
AcDbArc
 50
326.8225300491196
 51
337.108439769322
  0
ARC
  5
86
330
1F
100
AcDbEntity
  8
Calm 820
  6
Continuous
 62
    18
420
        0
 48
25.00000019073486
370
    25
100
AcDbCircle
 10
36946.55054544049
 20
-21155.08284164044
 30
0.0
 40
151.7372497558705
100
AcDbArc
 50
311.5191633646173
 51
326.8225027283544
  0
ARC
  5
87
330
1F
100
AcDbEntity
  8
Calm 820
  6
Continuous
 62
    18
420
        0
 48
0.79375
370
    25
100
AcDbCircle
 10
36932.5748965605
 20
-21139.29785552597
 30
0.0
 40
172.8200714111044
100
AcDbArc
 50
306.2793700824692
 51
311.519409251433
  0
ARC
  5
88
330
1F
100
AcDbEntity
  8
Calm 820
  6
Continuous
 62
    18
420
        0
 48
25.00000019073486
370
    25
100
AcDbCircle
 10
36933.80423043806
 20
-21140.97149367905
 30
0.0
 40
170.7434176444807
100
AcDbArc
 50
295.8621021641483
 51
306.2791241956583
  0
ARC
  5
89
330
1F
100
AcDbEntity
  8
Calm 820
  6
Continuous
 62
    18
420
        0
 48
25.00000019073486
370
    25
100
AcDbCircle
 10
36903.0191604002
 20
-21072.50058245331
 30
0.0
 40
245.7948354716457
100
AcDbArc
 50
285.8226335807977
 51
295.3572498130554
  0
ARC
  5
8A
330
1F
100
AcDbEntity
  8
Calm 820
  6
Continuous
 62
    18
420
        0
 48
25.00000019073486
370
    25
100
AcDbCircle
 10
36903.34159082012
 20
-21081.30372100444
 30
0.0
 40
237.2466621399131
100
AcDbArc
 50
276.8243978528423
 51
286.3274312903778
  0
ARC
  5
8B
330
1F
100
AcDbEntity
  8
Calm 820
  6
Continuous
 62
    18
420
        0
 48
25.00000019073486
370
    25
100
AcDbCircle
 10
36885.8783641203
 20
-20935.3878213463
 30
0.0
 40
384.203995323145
100
AcDbArc
 50
269.8274427840545
 51
276.8245344566257
  0
ARC
  5
8C
330
1F
100
AcDbEntity
  8
Calm 820
  6
Continuous
 62
    18
420
        0
 48
25.00000019073486
370
    25
100
AcDbCircle
 10
36885.8967738493
 20
-20929.54467025371
 30
0.0
 40
390.0471706390593
100
AcDbArc
 50
262.2901651104052
 51
269.827306180271
  0
ARC
  5
8D
330
1F
100
AcDbEntity
  8
Calm 820
  6
Continuous
 62
    18
420
        0
 48
25.00000019073486
370
    25
100
AcDbCircle
 10
36864.53223489362
 20
-21087.3544175682
 30
0.0
 40
230.7977582931382
100
AcDbArc
 50
255.0915555365612
 51
262.2902197519178
  0
ARC
  5
8E
330
1F
100
AcDbEntity
  8
Calm 820
  6
Continuous
 62
    18
420
        0
 48
25.00000019073486
370
    25
100
AcDbCircle
 10
36865.62879441815
 20
-21076.31913485983
 30
0.0
 40
241.7501586732517
100
AcDbArc
 50
244.1800242665522
 51
255.5133025148409
  0
ARC
  5
8F
330
1F
100
AcDbEntity
  8
Calm 820
  6
Continuous
 62
    18
420
        0
 48
25.00000019073486
370
    25
100
AcDbCircle
 10
36837.54884027081
 20
-21137.30514770125
 30
0.0
 40
174.6273133277809
100
AcDbArc
 50
235.5982776076141
 51
243.7582772882717
  0
ARC
  5
90
330
1F
100
AcDbEntity
  8
Calm 820
  6
Continuous
 62
    18
420
        0
 48
25.00000019073486
370
    25
100
AcDbCircle
 10
36838.64441293315
 20
-21135.70466399764
 30
0.0
 40
176.5668025016607
100
AcDbArc
 50
228.3012450078325
 51
235.598414211399
  0
ARC
  5
91
330
1F
100
AcDbEntity
  8
Calm 820
  6
Continuous
 62
    18
420
        0
 48
25.00000019073486
370
    25
100
AcDbCircle
 10
36821.02407373029
 20
-21155.48223586652
 30
0.0
 40
150.0786058425958
100
AcDbArc
 50
213.4787919427986
 51
228.30117670594
  0
ARC
  5
92
330
1F
100
AcDbEntity
  8
Calm 820
  6
Continuous
 62
    18
420
        0
 48
25.00000019073486
370
    25
100
AcDbCircle
 10
36822.22283776837
 20
-21154.68926101301
 30
0.0
 40
151.5158848762493
100
AcDbArc
 50
198.7144637876019
 51
213.4788056031764
  0
ARC
  5
93
330
1F
100
AcDbEntity
  8
Calm 820
  6
Continuous
 62
    18
420
        0
 48
25.00000019073486
370
    25
100
AcDbCircle
 10
36806.10797837812
 20
-21160.14861770247
 30
0.0
 40
134.5013105392502
100
AcDbArc
 50
182.9881581293194
 51
198.7144228064635
  0
ARC
  5
94
330
1F
100
AcDbEntity
  8
Calm 820
  6
Continuous
 62
    18
420
        0
 48
25.00000019073486
370
    25
100
AcDbCircle
 10
36804.86745332318
 20
-21160.2133424339
 30
0.0
 40
133.2591746330239
100
AcDbArc
 50
153.6730818342813
 51
182.9881717897061
  0
ARC
  5
95
330
1F
100
AcDbEntity
  8
Calm 820
  6
Continuous
 62
    18
420
        0
 48
25.00000019073486
370
    25
100
AcDbCircle
 10
36813.28573793011
 20
-21164.11010070418
 30
0.0
 40
142.5204794883734
100
AcDbArc
 50
130.5511566257331
 51
147.995268520649
  0
ARC
  5
96
330
1F
100
AcDbEntity
  8
Calm 820
  6
Continuous
 62
    18
420
        0
 48
25.00000019073486
370
    25
100
AcDbCircle
 10
36845.82973016339
 20
-21202.14566665264
 30
0.0
 40
192.5785068511801
100
AcDbArc
 50
121.5392547706618
 51
130.5510883238468
  0
ARC
  5
97
330
1F
100
AcDbEntity
  8
Calm 820
  6
DASHED1
 62
    18
420
        0
 48
25.00000019073486
370
    25
100
AcDbCircle
 10
36815.34932321147
 20
-21165.39994445417
 30
0.0
 40
144.9540155410628
100
AcDbArc
 50
147.9952275395142
 51
153.6731091550326
  0
ARC
  5
98
330
1F
100
AcDbEntity
  8
Calm 820
  6
Continuous
 62
    18
420
        0
 48
0.79375
370
    25
100
AcDbCircle
 10
36954.3622779229
 20
-21157.81281066494
 30
0.0
 40
137.4255627633602
100
AcDbArc
 50
54.74081748023501
 51
54.88862277387408
  0
ARC
  5
99
330
1F
100
AcDbEntity
  8
Calm 820
  6
Continuous
 62
    18
420
        0
 48
0.79375
370
    25
100
AcDbCircle
 10
36883.10929864483
 20
-21342.45280013654
 30
0.0
 40
312.889138030996
100
AcDbArc
 50
80.9592772511044
 51
90.96179559245371
  0
ARC
  5
9A
330
1F
100
AcDbEntity
  8
Calm 820
  6
Continuous
 62
    18
420
        0
 48
0.79375
370
    25
100
AcDbCircle
 10
36883.12204011517
 20
-21343.22717147443
 30
0.0
 40
313.6635335922163
100
AcDbArc
 50
90.9617682716957
 51
97.50651017591527
  0
ARC
  5
9B
330
1F
100
AcDbEntity
  8
Calm 820
  6
Continuous
 62
    18
420
        0
 48
0.79375
370
    25
100
AcDbCircle
 10
36874.17559007244
 20
-21275.33160644147
 30
0.0
 40
245.181206893913
100
AcDbArc
 50
97.5065170061036
 51
105.1661097074093
  0
ARC
  5
9C
330
1F
100
AcDbEntity
  8
Calm 820
  6
Continuous
 62
    18
420
        0
 48
0.79375
370
    25
100
AcDbCircle
 10
36874.30510591107
 20
-21288.50719273385
 30
0.0
 40
257.9531317784002
100
AcDbArc
 50
104.428206466359
 51
109.7028610340364
  0
ARC
  5
9D
330
1F
100
AcDbEntity
  8
Calm 820
  6
Continuous
 62
    18
420
        0
 48
0.79375
370
    25
100
AcDbCircle
 10
36845.4049014433
 20
-21201.45336394879
 30
0.0
 40
166.2662805557174
100
AcDbArc
 50
110.4407984260352
 51
121.5392820914155
  0
ARC
  5
9E
330
1F
100
AcDbEntity
  8
Calm 820
  6
Continuous
 62
    18
420
        0
 48
0.79375
370
    25
100
AcDbCircle
 10
36845.82973016339
 20
-21202.14566665265
 30
0.0
 40
167.0785129546961
100
AcDbArc
 50
121.5392547706598
 51
130.5510883238448
  0
ARC
  5
9F
330
1F
100
AcDbEntity
  8
Calm 820
  6
Continuous
 62
    18
420
        0
 48
0.79375
370
    25
100
AcDbCircle
 10
36813.28573793013
 20
-21164.11010070419
 30
0.0
 40
117.0204734802436
100
AcDbArc
 50
130.5511566257323
 51
147.9952685206484
  0
ARC
  5
A0
330
1F
100
AcDbEntity
  8
Calm 820
  6
Continuous
 62
    18
420
        0
 48
0.79375
370
    25
100
AcDbCircle
 10
36815.34932321149
 20
-21165.39994445419
 30
0.0
 40
119.4540216445996
100
AcDbArc
 50
147.9952275395095
 51
153.6731091550277
  0
ARC
  5
A1
330
1F
100
AcDbEntity
  8
Calm 820
  6
Continuous
 62
    18
420
        0
 48
0.79375
370
    25
100
AcDbCircle
 10
36804.86745332318
 20
-21160.21334243392
 30
0.0
 40
107.7591686248745
100
AcDbArc
 50
153.673081834272
 51
182.9881717896967
  0
ARC
  5
A2
330
1F
100
AcDbEntity
  8
Calm 820
  6
Continuous
 62
    18
420
        0
 48
0.79375
370
    25
100
AcDbCircle
 10
36806.1079783781
 20
-21160.14861770246
 30
0.0
 40
109.0013166427521
100
AcDbArc
 50
182.9881581293243
 51
198.7144228064689
  0
ARC
  5
A3
330
1F
100
AcDbEntity
  8
Calm 820
  6
Continuous
 62
    18
420
        0
 48
0.79375
370
    25
100
AcDbCircle
 10
36822.22283776836
 20
-21154.68926101301
 30
0.0
 40
126.0158788680934
100
AcDbArc
 50
198.7144637876034
 51
213.4788056031781
  0
ARC
  5
A4
330
1F
100
AcDbEntity
  8
Calm 820
  6
Continuous
 62
    18
420
        0
 48
0.79375
370
    25
100
AcDbCircle
 10
36821.02407373028
 20
-21155.48223586653
 30
0.0
 40
124.5786119461118
100
AcDbArc
 50
213.4787919427996
 51
228.3011767059415
  0
ARC
  5
A5
330
1F
100
AcDbEntity
  8
Calm 820
  6
Continuous
 62
    18
420
        0
 48
0.79375
370
    25
100
AcDbCircle
 10
36838.64441293316
 20
-21135.70466399761
 30
0.0
 40
151.066796493546
100
AcDbArc
 50
228.3012450078395
 51
235.5984142114061
  0
ARC
  5
A6
330
1F
100
AcDbEntity
  8
Calm 820
  6
Continuous
 62
    18
420
        0
 48
0.79375
370
    25
100
AcDbCircle
 10
36837.54884027082
 20
-21137.30514770124
 30
0.0
 40
149.1273073196458
100
AcDbArc
 50
235.598277607612
 51
243.7582772882696
  0
ARC
  5
A7
330
1F
100
AcDbEntity
  8
Calm 820
  6
Continuous
 62
    18
420
        0
 48
0.79375
370
    25
100
AcDbCircle
 10
36865.62879441814
 20
-21076.31913485984
 30
0.0
 40
216.2509371596072
100
AcDbArc
 50
244.2297588314363
 51
255.5630370797251
  0
ARC
  5
A8
330
1F
100
AcDbEntity
  8
Calm 820
  6
Continuous
 62
    18
420
        0
 48
0.79375
370
    25
100
AcDbCircle
 10
36864.5322348936
 20
-21087.35441756815
 30
0.0
 40
205.297764396706
100
AcDbArc
 50
255.0915555365672
 51
262.2902197519238
  0
ARC
  5
A9
330
1F
100
AcDbEntity
  8
Calm 820
  6
Continuous
 62
    18
420
        0
 48
0.79375
370
    25
100
AcDbCircle
 10
36885.89677384929
 20
-20929.54467025373
 30
0.0
 40
364.5471767425522
100
AcDbArc
 50
262.2901651104077
 51
269.8273061802735
  0
ARC
  5
AA
330
1F
100
AcDbEntity
  8
Calm 820
  6
Continuous
 62
    18
420
        0
 48
0.79375
370
    25
100
AcDbCircle
 10
36885.87836412028
 20
-20935.38782134628
 30
0.0
 40
358.7040014266785
100
AcDbArc
 50
269.8274427840573
 51
276.8245344566285
  0
ARC
  5
AB
330
1F
100
AcDbEntity
  8
Calm 820
  6
Continuous
 62
    18
420
        0
 48
0.79375
370
    25
100
AcDbCircle
 10
36903.34159082013
 20
-21081.30372100444
 30
0.0
 40
211.7466682434349
100
AcDbArc
 50
276.8243978528404
 51
286.327431290376
  0
ARC
  5
AC
330
1F
100
AcDbEntity
  8
Calm 820
  6
Continuous
 62
    18
420
        0
 48
0.79375
370
    25
100
AcDbCircle
 10
36903.01916040021
 20
-21072.50058245326
 30
0.0
 40
220.2959455777456
100
AcDbArc
 50
285.7642086248751
 51
295.2988248571327
  0
ARC
  5
AD
330
1F
100
AcDbEntity
  8
Calm 820
  6
Continuous
 62
    18
420
        0
 48
0.79375
370
    25
100
AcDbCircle
 10
36933.80423043805
 20
-21140.97149367902
 30
0.0
 40
145.243411636357
100
AcDbArc
 50
295.8621021641441
 51
306.2791241956541
  0
ARC
  5
AE
330
1F
100
AcDbEntity
  8
Calm 820
  6
Continuous
 62
    18
420
        0
 48
0.79375
370
    25
100
AcDbCircle
 10
36932.57489656049
 20
-21139.29785552591
 30
0.0
 40
147.3200775146711
100
AcDbArc
 50
306.2793700824579
 51
311.5194092514216
  0
ARC
  5
AF
330
1F
100
AcDbEntity
  8
Calm 820
  6
Continuous
 62
    18
420
        0
 48
0.79375
370
    25
100
AcDbCircle
 10
36946.55054544048
 20
-21155.08284164044
 30
0.0
 40
126.237255859393
100
AcDbArc
 50
311.5191633646196
 51
326.8225027283563
  0
ARC
  5
B0
330
1F
100
AcDbEntity
  8
Calm 820
  6
Continuous
 62
    18
420
        0
 48
0.79375
370
    25
100
AcDbCircle
 10
36946.12314904766
 20
-21154.80330443952
 30
0.0
 40
126.7480047226035
100
AcDbArc
 50
326.8225300491184
 51
337.108439769321
  0
ARC
  5
B1
330
1F
100
AcDbEntity
  8
Calm 820
  6
Continuous
 62
    18
420
        0
 48
0.79375
370
    25
100
AcDbCircle
 10
36962.51488107281
 20
-21161.72468429182
 30
0.0
 40
108.9549531936693
100
AcDbArc
 50
337.1084124485656
 51
357.6601238120533
  0
ARC
  5
B2
330
1F
100
AcDbEntity
  8
Calm 820
  6
Continuous
 62
    18
420
        0
 48
0.79375
370
    25
100
AcDbCircle
 10
36962.52476419049
 20
-21161.72507186506
 30
0.0
 40
108.9449974060014
100
AcDbArc
 50
357.6601238120498
 51
22.06829658471096
  0
ARC
  5
B3
330
1F
100
AcDbEntity
  8
Calm 820
  6
Continuous
 62
    18
420
        0
 48
0.79375
370
    25
100
AcDbCircle
 10
36956.31041482525
 20
-21164.24449172591
 30
0.0
 40
115.6506200790432
100
AcDbArc
 50
22.06826949132742
 51
33.68412632595802
  0
ARC
  5
B4
330
1F
100
AcDbEntity
  8
Calm 820
  6
Continuous
 62
    18
420
        0
 48
0.79375
370
    25
100
AcDbCircle
 10
36936.69785226422
 20
-21182.86302581404
 30
0.0
 40
142.577561759954
100
AcDbArc
 50
40.65340205313237
 51
54.75309474547816
  0
ARC
  5
B5
330
1F
100
AcDbEntity
  8
Calm 820
  6
Continuous
 62
    18
420
        0
 48
0.79375
370
    25
100
AcDbCircle
 10
36919.44527162152
 20
-21207.5496003685
 30
0.0
 40
172.695079040545
100
AcDbArc
 50
54.90092735987919
 51
63.93483949955601
  0
ARC
  5
B6
330
1F
100
AcDbEntity
  8
Calm 820
  6
Continuous
 62
    18
420
        0
 48
0.79375
370
    25
100
AcDbCircle
 10
36965.55461801129
 20
-21158.08333678814
 30
0.0
 40
104.5413417816129
100
AcDbArc
 50
33.68422877878404
 51
40.65348060029812
  0
ARC
  5
B7
330
1F
100
AcDbEntity
  8
Calm 820
  6
Continuous
 62
    18
420
        0
 48
0.79375
370
    25
100
AcDbCircle
 10
36894.72586816389
 20
-21277.12510034957
 30
0.0
 40
246.4059344702427
100
AcDbArc
 50
68.13793234922952
 51
76.3601413928476
  0
ARC
  5
B8
330
1F
100
AcDbEntity
  8
Calm 820
  6
Continuous
 62
    18
420
        0
 48
0.79375
370
    25
100
AcDbCircle
 10
36895.27037805158
 20
-21266.02190337748
 30
0.0
 40
235.4967447280567
100
AcDbArc
 50
75.85189401619992
 51
80.95928408129288
  0
ARC
  5
B9
330
1F
100
AcDbEntity
  8
Calm 820
  6
Continuous
 62
    18
420
        0
 48
0.79375
370
    25
100
AcDbCircle
 10
36929.22936433393
 20
-21187.54723601908
 30
0.0
 40
150.4279788970579
100
AcDbArc
 50
63.93486682030314
 51
67.62972595371323
  0
ARC
  5
BA
330
1F
100
AcDbEntity
  8
Calm 820
  6
Continuous
 62
    18
420
        0
 48
0.79375
370
    25
100
AcDbCircle
 10
36954.36227792304
 20
-21157.81281066518
 30
0.0
 40
111.9255567553324
100
AcDbArc
 50
54.74081748031141
 51
54.88862277395048
  0
ARC
  5
BB
330
1F
100
AcDbEntity
  8
Calm 820
  6
Continuous
 62
    18
420
        0
 48
0.9999999962747097
370
    25
100
AcDbCircle
 10
37313.21555196365
 20
-21305.81069871078
 30
0.0
 40
5.579443231493133
100
AcDbArc
 50
276.9999083333603
 51
0.0
  0
ARC
  5
BC
330
1F
100
AcDbEntity
  8
Calm 820
  6
Continuous
 62
    18
420
        0
 48
0.9999999962747097
370
    25
100
AcDbCircle
 10
37311.05990166176
 20
-21313.69503966911
 30
0.0
 40
1.775270862191779
100
AcDbArc
 50
109.0043916665833
 51
179.9999999999068
  0
ARC
  5
BD
330
1F
100
AcDbEntity
  8
Calm 820
  6
Continuous
 62
    18
420
        0
 48
0.9999999962747097
370
    25
100
AcDbCircle
 10
37320.31662243063
 20
-21304.88072697558
 30
0.0
 40
1.521667851288951
100
AcDbArc
 50
96.4286666665703
 51
180.0706638890039
  0
LINE
  5
BE
330
1F
100
AcDbEntity
  8
Calm 820
  6
Continuous
 62
    18
420
        0
 48
250.0000019073486
370
    25
100
AcDbLine
 10
36884.32492211895
 20
-21094.56831832502
 30
0.0
 11
36884.32492211895
 21
-21104.56383224103
 31
0.0
  0
LINE
  5
BF
330
1F
100
AcDbEntity
  8
Calm 820
  6
Continuous
 62
    18
420
        0
 48
250.0000019073486
370
    25
100
AcDbLine
 10
36884.32492211895
 20
-21114.56234984968
 30
0.0
 11
36884.32492211895
 21
-21134.56112914655
 31
0.0
  0
LINE
  5
C0
330
1F
100
AcDbEntity
  8
Calm 820
  6
Continuous
 62
    18
420
        0
 48
250.0000019073486
370
    25
100
AcDbLine
 10
36849.35883935529
 20
-21099.56646285627
 30
0.0
 11
36869.33358911114
 21
-21099.56646285627
 31
0.0
  0
LINE
  5
C1
330
1F
100
AcDbEntity
  8
Calm 820
  6
Continuous
 62
    18
420
        0
 48
250.0000019073486
370
    25
100
AcDbLine
 10
36879.33065332012
 20
-21099.56646285627
 30
0.0
 11
36889.23973840314
 21
-21099.56646285627
 31
0.0
  0
LINE
  5
C2
330
1F
100
AcDbEntity
  8
Calm 820
  6
Continuous
 62
    18
420
        0
 48
250.0000019073486
370
    25
100
AcDbLine
 10
36899.19688256818
 20
-21099.56646285627
 30
0.0
 11
36919.30844567853
 21
-21099.56646285627
 31
0.0
  0
LINE
  5
C3
330
1F
100
AcDbEntity
  8
Calm 820
  6
Continuous
 62
    18
420
        0
 48
250.0000019073486
370
    25
100
AcDbLine
 10
36884.32492211895
 20
-21094.56599288557
 30
0.0
 11
36884.32492211895
 21
-21104.56615768049
 31
0.0
  0
LINE
  5
C4
330
1F
100
AcDbEntity
  8
Calm 820
  6
Continuous
 62
    18
420
        0
 48
250.0000019073486
370
    25
100
AcDbLine
 10
36889.32500451642
 20
-21099.56646285627
 30
0.0
 11
36879.32522729474
 21
-21099.56646285627
 31
0.0
  0
LINE
  5
C5
330
1F
100
AcDbEntity
  8
Calm 820
  6
Continuous
 62
    18
420
        0
 48
250.0000019073486
370
    25
100
AcDbLine
 10
36884.32492211895
 20
-21084.56892867658
 30
0.0
 11
36884.32492211895
 21
-21064.57014937971
 31
0.0
  0
LINE
  5
C6
330
1F
100
AcDbEntity
  8
Calm 820
  6
Continuous
 62
    18
420
        0
 48
0.0
370
    25
100
AcDbLine
 10
36884.32492211895
 20
-21089.56552291487
 30
0.0
 11
36884.32492211895
 21
-21109.5657556114
 31
0.0
  0
LINE
  5
C7
330
1F
100
AcDbEntity
  8
Calm 820
  6
Continuous
 62
    18
420
        0
 48
0.0
370
    25
100
AcDbLine
 10
36894.32469934064
 20
-21099.56646285627
 30
0.0
 11
36874.32475732404
 21
-21099.56646285627
 31
0.0
  0
LINE
  5
C8
330
1F
100
AcDbEntity
  8
Calm 820
  6
Continuous
 62
    18
420
        0
 48
0.9999999962747097
370
    25
100
AcDbLine
 10
37444.95792513904
 20
-21055.94924832084
 30
0.0
 11
37444.95732513989
 21
-21055.94834832212
 31
0.0
  0
LINE
  5
C9
330
1F
100
AcDbEntity
  8
Calm 820
  6
Continuous
 62
    18
420
        0
 48
0.9999999962747097
370
    25
100
AcDbLine
 10
37311.07901463502
 20
-21007.95071625933
 30
0.0
 11
37311.0817146312
 21
-21007.95141625833
 31
0.0
  0
LINE
  5
CA
330
1F
100
AcDbEntity
  8
Calm 820
  6
Continuous
 62
    18
420
        0
 48
0.9999999962747097
370
    25
100
AcDbLine
 10
37443.76971576976
 20
-21123.78972617519
 30
0.0
 11
37443.76968587051
 21
-21075.00268408041
 31
0.0
  0
LINE
  5
CB
330
1F
100
AcDbEntity
  8
Calm 820
  6
Continuous
 62
    18
420
        0
 48
0.9999999962747097
370
    25
100
AcDbLine
 10
37444.73080832942
 20
-21055.86979721731
 30
0.0
 11
37444.73020925039
 21
-21055.86889859876
 31
0.0
  0
LINE
  5
CC
330
1F
100
AcDbEntity
  8
Calm 820
  6
Continuous
 62
    18
420
        0
 48
0.9999999962747097
370
    25
100
AcDbLine
 10
37311.05720580611
 20
-21007.94487257953
 30
0.0
 11
37311.05990166176
 21
-21007.94557150506
 31
0.0
  0
LINE
  5
CD
330
1F
100
AcDbEntity
  8
Calm 820
  6
Continuous
 62
    18
420
        0
 48
0.9999999962747097
370
    25
100
AcDbLine
 10
37296.85773476422
 20
-21321.67956577709
 30
0.0
 11
37311.05990166176
 21
-21317.87411592496
 31
0.0
  0
LINE
  5
CE
330
1F
100
AcDbEntity
  8
Calm 820
  6
Continuous
 62
    18
420
        0
 48
0.9999999962747097
370
    25
100
AcDbLine
 10
37311.05990166176
 20
-21317.87411592496
 30
0.0
 11
37311.05990166176
 21
-21311.81742692044
 31
0.0
  0
LINE
  5
CF
330
1F
100
AcDbEntity
  8
Calm 820
  6
Continuous
 62
    18
420
        0
 48
0.9999999962747097
370
    25
100
AcDbLine
 10
37311.05990166176
 20
-21311.81742692044
 30
0.0
 11
37311.60466419404
 21
-21311.62981533719
 31
0.0
  0
LINE
  5
D0
330
1F
100
AcDbEntity
  8
Calm 820
  6
Continuous
 62
    18
420
        0
 48
0.9999999962747097
370
    25
100
AcDbLine
 10
37311.60466419404
 20
-21311.62981533719
 30
0.0
 11
37313.89554240901
 21
-21311.34854773208
 31
0.0
  0
LINE
  5
D1
330
1F
100
AcDbEntity
  8
Calm 820
  6
Continuous
 62
    18
420
        0
 48
0.9999999962747097
370
    25
100
AcDbLine
 10
37435.17449931815
 20
-21132.92314250577
 30
0.0
 11
37435.17449931815
 21
-21066.08450483212
 31
0.0
  0
LINE
  5
D2
330
1F
100
AcDbEntity
  8
Calm 820
  6
Continuous
 62
    18
420
        0
 48
0.9999999962747097
370
    25
100
AcDbLine
 10
37296.85773476422
 20
-21321.67956577709
 30
0.0
 11
37296.85773476422
 21
-21296.26363788221
 31
0.0
  0
LINE
  5
D3
330
1F
100
AcDbEntity
  8
Calm 820
  6
Continuous
 62
    18
420
        0
 48
0.9999999962747097
370
    25
100
AcDbLine
 10
37296.85773476422
 20
-21296.26363788221
 30
0.0
 11
37296.85773476422
 21
-21029.56363788221
 31
0.0
  0
LINE
  5
D4
330
1F
100
AcDbEntity
  8
Calm 820
  6
Continuous
 62
    18
420
        0
 48
0.9999999962747097
370
    25
100
AcDbLine
 10
37296.85773476422
 20
-21029.56363788221
 30
0.0
 11
37296.85773476422
 21
-21004.14012165294
 31
0.0
  0
LINE
  5
D5
330
1F
100
AcDbEntity
  8
Calm 820
  6
Continuous
 62
    18
420
        0
 48
0.9999999962747097
370
    25
100
AcDbLine
 10
37309.28463079956
 20
-21313.69504045044
 30
0.0
 11
37309.28463079956
 21
-21318.35737301006
 31
0.0
  0
LINE
  5
D6
330
1F
100
AcDbEntity
  8
Calm 820
  6
Continuous
 62
    18
420
        0
 48
0.9999999962747097
370
    25
100
AcDbLine
 10
37310.48179039673
 20
-21312.01652085177
 30
0.0
 11
37311.05990166176
 21
-21311.81742692044
 31
0.0
  0
LINE
  5
D7
330
1F
100
AcDbEntity
  8
Calm 820
  6
Continuous
 62
    18
420
        0
 48
0.9999999962747097
370
    25
100
AcDbLine
 10
37455.08289398702
 20
-21125.51504055665
 30
0.0
 11
37455.08289398701
 21
-21073.27732696772
 31
0.0
  0
LINE
  5
D8
330
1F
100
AcDbEntity
  8
Calm 820
  6
Continuous
 62
    18
420
        0
 48
0.9999999962747097
370
    25
100
AcDbLine
 10
37318.79501041845
 20
-21305.81056132199
 30
0.0
 11
37318.79501041845
 21
-21304.88079066571
 31
0.0
  0
LINE
  5
D9
330
1F
100
AcDbEntity
  8
Calm 820
  6
Continuous
 62
    18
420
        0
 48
0.9999999962747097
370
    25
100
AcDbLine
 10
37320.42620277365
 20
-21293.32196014643
 30
0.0
 11
37320.9374168802
 21
-21296.95966786985
 31
0.0
  0
LINE
  5
DA
330
1F
100
AcDbEntity
  8
Calm 820
  6
Continuous
 62
    18
420
        0
 48
0.9999999962747097
370
    25
100
AcDbLine
 10
37319.05381255988
 20
-21297.2244608016
 30
0.0
 11
37319.92317608053
 21
-21303.41075056986
 31
0.0
  0
LINE
  5
DB
330
1F
100
AcDbEntity
  8
Calm 820
  6
Continuous
 62
    18
420
        0
 48
0.9999999962747097
370
    25
100
AcDbLine
 10
37319.05381255988
 20
-21297.2244608016
 30
0.0
 11
37339.77305610971
 21
-21294.31240483679
 31
0.0
  0
LINE
  5
DC
330
1F
100
AcDbEntity
  8
Calm 820
  6
Continuous
 62
    18
420
        0
 48
0.9999999962747097
370
    25
100
AcDbLine
 10
37320.1477308707
 20
-21303.36841565167
 30
0.0
 11
37320.14433608952
 21
-21303.36881503768
 31
0.0
  0
LINE
  5
DD
330
1F
100
AcDbEntity
  8
Calm 820
  6
Continuous
 62
    18
420
        0
 48
0.9999999962747097
370
    25
100
AcDbLine
 10
36908.84244879918
 20
-21666.72953262994
 30
0.0
 11
36859.98051795974
 21
-21666.72953262994
 31
0.0
  0
LINE
  5
DE
330
1F
100
AcDbEntity
  8
Calm 820
  6
Continuous
 62
    18
420
        0
 48
0.9999999962747097
370
    25
100
AcDbLine
 10
36850.29983166206
 20
-21657.98074501322
 30
0.0
 11
36918.29163542453
 21
-21658.0200449576
 31
0.0
  0
LINE
  5
DF
330
1F
100
AcDbEntity
  8
Calm 820
  6
Continuous
 62
    18
420
        0
 48
0.9999999962747097
370
    25
100
AcDbLine
 10
36918.52463509475
 20
-21657.96914502964
 30
0.0
 11
36918.52313509688
 21
-21657.98074501322
 31
0.0
  0
LINE
  5
E0
330
1F
100
AcDbEntity
  8
Calm 820
  6
Continuous
 62
    18
420
        0
 48
0.9999999962747097
370
    25
100
AcDbLine
 10
36846.84773654825
 20
-21677.91761679401
 30
0.0
 11
36910.57784948034
 21
-21677.9544399531
 31
0.0
  0
LINE
  5
E1
330
1F
100
AcDbEntity
  8
Calm 820
  6
Continuous
 62
    18
420
        0
 48
0.9999999962747097
370
    25
100
AcDbLine
 10
36687.92306149469
 20
-21519.59184089277
 30
0.0
 11
37071.4697615965
 21
-21519.59184089277
 31
0.0
  0
LINE
  5
E2
330
1F
100
AcDbEntity
  8
Calm 820
  6
Continuous
 62
    18
420
        0
 48
0.9999999962747097
370
    25
100
AcDbLine
 10
37044.427673163
 20
-21620.74359771973
 30
0.0
 11
37041.06047792903
 21
-21624.07279300749
 31
0.0
  0
LINE
  5
E3
330
1F
100
AcDbEntity
  8
Calm 820
  6
Continuous
 62
    18
420
        0
 48
0.9999999962747097
370
    25
100
AcDbLine
 10
37041.06047792903
 20
-21624.07279300749
 30
0.0
 11
37037.48888298436
 21
-21627.21398856136
 31
0.0
  0
LINE
  5
E4
330
1F
100
AcDbEntity
  8
Calm 820
  6
Continuous
 62
    18
420
        0
 48
0.9999999962747097
370
    25
100
AcDbLine
 10
37037.48888298436
 20
-21627.21398856136
 30
0.0
 11
37033.70288834316
 21
-21630.20698432498
 31
0.0
  0
LINE
  5
E5
330
1F
100
AcDbEntity
  8
Calm 820
  6
Continuous
 62
    18
420
        0
 48
0.9999999962747097
370
    25
100
AcDbLine
 10
37033.70288834316
 20
-21630.20698432498
 30
0.0
 11
37029.65309407535
 21
-21633.15038015882
 31
0.0
  0
LINE
  5
E6
330
1F
100
AcDbEntity
  8
Calm 820
  6
Continuous
 62
    18
420
        0
 48
0.9999999962747097
370
    25
100
AcDbLine
 10
37029.65309407535
 20
-21633.15038015882
 30
0.0
 11
37025.33680018477
 21
-21636.07277602238
 31
0.0
  0
LINE
  5
E7
330
1F
100
AcDbEntity
  8
Calm 820
  6
Continuous
 62
    18
420
        0
 48
0.9999999962747097
370
    25
100
AcDbLine
 10
37025.33680018477
 20
-21636.07277602238
 30
0.0
 11
37020.75670666755
 21
-21638.94547195628
 31
0.0
  0
LINE
  5
E8
330
1F
100
AcDbEntity
  8
Calm 820
  6
Continuous
 62
    18
420
        0
 48
0.9999999962747097
370
    25
100
AcDbLine
 10
37020.75670666755
 20
-21638.94547195628
 30
0.0
 11
37015.87171358192
 21
-21641.78196794143
 31
0.0
  0
LINE
  5
E9
330
1F
100
AcDbEntity
  8
Calm 820
  6
Continuous
 62
    18
420
        0
 48
0.9999999962747097
370
    25
100
AcDbLine
 10
37015.87171358192
 20
-21641.78196794143
 30
0.0
 11
37010.64272098317
 21
-21644.59886395431
 31
0.0
  0
LINE
  5
EA
330
1F
100
AcDbEntity
  8
Calm 820
  6
Continuous
 62
    18
420
        0
 48
0.9999999962747097
370
    25
100
AcDbLine
 10
37010.64272098317
 20
-21644.59886395431
 30
0.0
 11
37005.10882881601
 21
-21647.37946001858
 31
0.0
  0
LINE
  5
EB
330
1F
100
AcDbEntity
  8
Calm 820
  6
Continuous
 62
    18
420
        0
 48
0.9999999962747097
370
    25
100
AcDbLine
 10
37005.10882881601
 20
-21647.37946001858
 30
0.0
 11
36999.34573697325
 21
-21650.08725618589
 31
0.0
  0
LINE
  5
EC
330
1F
100
AcDbEntity
  8
Calm 820
  6
Continuous
 62
    18
420
        0
 48
0.9999999962747097
370
    25
100
AcDbLine
 10
36724.39609884518
 20
-21620.74359385154
 30
0.0
 11
36727.76329399868
 21
-21624.0727892207
 31
0.0
  0
LINE
  5
ED
330
1F
100
AcDbEntity
  8
Calm 820
  6
Continuous
 62
    18
420
        0
 48
0.9999999962747097
370
    25
100
AcDbLine
 10
36727.76329399868
 20
-21624.0727892207
 30
0.0
 11
36731.33488886741
 21
-21627.2139848609
 31
0.0
  0
LINE
  5
EE
330
1F
100
AcDbEntity
  8
Calm 820
  6
Continuous
 62
    18
420
        0
 48
0.9999999962747097
370
    25
100
AcDbLine
 10
36731.33488886741
 20
-21627.2139848609
 30
0.0
 11
36735.12088343626
 21
-21630.20698071606
 31
0.0
  0
LINE
  5
EF
330
1F
100
AcDbEntity
  8
Calm 820
  6
Continuous
 62
    18
420
        0
 48
0.9999999962747097
370
    25
100
AcDbLine
 10
36735.12088343626
 20
-21630.20698071606
 30
0.0
 11
36739.17067763292
 21
-21633.15037664779
 31
0.0
  0
LINE
  5
F0
330
1F
100
AcDbEntity
  8
Calm 820
  6
Continuous
 62
    18
420
        0
 48
0.9999999962747097
370
    25
100
AcDbLine
 10
36739.17067763292
 20
-21633.15037664779
 30
0.0
 11
36743.48697145285
 21
-21636.07277261569
 31
0.0
  0
LINE
  5
F1
330
1F
100
AcDbEntity
  8
Calm 820
  6
Continuous
 62
    18
420
        0
 48
0.9999999962747097
370
    25
100
AcDbLine
 10
36743.48697145285
 20
-21636.07277261569
 30
0.0
 11
36748.06706490063
 21
-21638.94546866031
 31
0.0
  0
LINE
  5
F2
330
1F
100
AcDbEntity
  8
Calm 820
  6
Continuous
 62
    18
420
        0
 48
0.9999999962747097
370
    25
100
AcDbLine
 10
36748.06706490063
 20
-21638.94546866031
 30
0.0
 11
36752.9520579177
 21
-21641.78196476354
 31
0.0
  0
LINE
  5
F3
330
1F
100
AcDbEntity
  8
Calm 820
  6
Continuous
 62
    18
420
        0
 48
0.9999999962747097
370
    25
100
AcDbLine
 10
36752.9520579177
 20
-21641.78196476354
 30
0.0
 11
36758.18105044834
 21
-21644.59886090283
 31
0.0
  0
LINE
  5
F4
330
1F
100
AcDbEntity
  8
Calm 820
  6
Continuous
 62
    18
420
        0
 48
0.9999999962747097
370
    25
100
AcDbLine
 10
36758.18105044834
 20
-21644.59886090283
 30
0.0
 11
36763.71494254829
 21
-21647.37945710087
 31
0.0
  0
LINE
  5
F5
330
1F
100
AcDbEntity
  8
Calm 820
  6
Continuous
 62
    18
420
        0
 48
0.9999999962747097
370
    25
100
AcDbLine
 10
36763.71494254829
 20
-21647.37945710087
 30
0.0
 11
36769.47803432559
 21
-21650.0872534075
 31
0.0
  0
LINE
  5
F6
330
1F
100
AcDbEntity
  8
Calm 820
  6
Continuous
 62
    18
420
        0
 48
0.9999999962747097
370
    25
100
AcDbLine
 10
36850.29913601356
 20
-21657.96914420501
 30
0.0
 11
36850.30063601115
 21
-21657.98074418863
 31
0.0
  0
LINE
  5
F7
330
1F
100
AcDbEntity
  8
Calm 820
  6
Continuous
 62
    18
420
        0
 48
60.00000166893005
370
    25
100
AcDbLine
 10
35987.536109776
 20
-20728.3352891696
 30
0.0
 11
35987.536109776
 21
-22163.33529527311
 31
0.0
  0
LINE
  5
F8
330
1F
100
AcDbEntity
  8
Calm 820
  6
Continuous
 62
    18
420
        0
 48
120.0000033378601
370
    25
100
AcDbLine
 10
35987.536109776
 20
-22163.33529527311
 30
0.0
 11
38037.53617386291
 21
-22163.33529527311
 31
0.0
  0
LINE
  5
F9
330
1F
100
AcDbEntity
  8
Calm 820
  6
Continuous
 62
    18
420
        0
 48
60.00000166893005
370
    25
100
AcDbLine
 10
38037.53617386291
 20
-22163.33529527311
 30
0.0
 11
38037.53617386291
 21
-20728.3352891696
 31
0.0
  0
LINE
  5
FA
330
1F
100
AcDbEntity
  8
Calm 820
  6
Continuous
 62
    18
420
        0
 48
60.00000166893005
370
    25
100
AcDbLine
 10
36072.53615402649
 20
-22131.33520455484
 30
0.0
 11
38017.53584427306
 21
-22131.33520455484
 31
0.0
  0
LINE
  5
FB
330
1F
100
AcDbEntity
  8
Calm 820
  6
Continuous
 62
    18
420
        0
 48
60.00000166893005
370
    25
100
AcDbLine
 10
38017.53584427306
 20
-22131.33520455484
 30
0.0
 11
38017.53584427306
 21
-20740.33533189421
 31
0.0
  0
LINE
  5
FC
330
1F
100
AcDbEntity
  8
Calm 820
  6
Continuous
 62
    18
420
        0
 48
60.00000166893005
370
    25
100
AcDbLine
 10
36072.53615402649
 20
-20740.33533189421
 30
0.0
 11
36072.53615402649
 21
-22131.33520455484
 31
0.0
  0
LINE
  5
FD
330
1F
100
AcDbEntity
  8
Calm 820
  6
Continuous
 62
    18
420
        0
 48
60.00000166893005
370
    25
100
AcDbLine
 10
37162.536109776
 20
-22131.33520455484
 30
0.0
 11
37162.536109776
 21
-22140.8588144586
 31
0.0
  0
LINE
  5
FE
330
1F
100
AcDbEntity
  8
Calm 820
  6
Continuous
 62
    18
420
        0
 48
60.00000166893005
370
    25
100
AcDbLine
 10
36637.536109776
 20
-22131.33520455484
 30
0.0
 11
36637.536109776
 21
-22140.8588144586
 31
0.0
  0
LINE
  5
FF
330
1F
100
AcDbEntity
  8
Calm 820
  6
Continuous
 62
    18
420
        0
 48
60.00000166893005
370
    25
100
AcDbLine
 10
35987.536109776
 20
-21445.83529222136
 30
0.0
 11
36047.536109776
 21
-21445.83529222136
 31
0.0
  0
LINE
  5
100
330
1F
100
AcDbEntity
  8
Calm 820
  6
Continuous
 62
    18
420
        0
 48
60.00000166893005
370
    25
100
AcDbLine
 10
38037.53617386291
 20
-20728.3352891696
 30
0.0
 11
35987.536109776
 21
-20728.3352891696
 31
0.0
  0
LINE
  5
101
330
1F
100
AcDbEntity
  8
Calm 820
  6
Continuous
 62
    18
420
        0
 48
60.00000166893005
370
    25
100
AcDbLine
 10
38017.53584427306
 20
-20740.33533189421
 30
0.0
 11
36072.53615402649
 21
-20740.33533189421
 31
0.0
  0
LINE
  5
102
330
1F
100
AcDbEntity
  8
Calm 820
  6
Continuous
 62
    18
420
        0
 48
60.00000166893005
370
    25
100
AcDbLine
 10
37162.536109776
 20
-20740.33533189421
 30
0.0
 11
37162.536109776
 21
-20728.3352891696
 31
0.0
  0
LINE
  5
103
330
1F
100
AcDbEntity
  8
Calm 820
  6
Continuous
 62
    18
420
        0
 48
60.00000166893005
370
    25
100
AcDbLine
 10
36637.536109776
 20
-20740.33533189421
 30
0.0
 11
36637.536109776
 21
-20728.3352891696
 31
0.0
  0
CIRCLE
  5
104
330
1F
100
AcDbEntity
  8
Calm 820
  6
Continuous
 62
    18
420
        0
 48
250.0000019073486
370
    25
100
AcDbCircle
 10
36884.32492211895
 20
-21099.56646285627
 30
0.0
 40
30.00000991821289
  0
CIRCLE
  5
105
330
1F
100
AcDbEntity
  8
Calm 820
  6
Continuous
 62
    18
420
        0
 48
250.0000019073486
370
    25
100
AcDbCircle
 10
36884.32492211895
 20
-21099.56646285627
 30
0.0
 40
19.99999046325684
  0
TEXT
  5
107
330
1F
100
AcDbEntity
  8
Calm 820
  6
Continuous
 62
    18
420
        0
 48
50.00000038146973
370
    25
100
AcDbText
 10
36873.75797310934
 20
-21288.47670376594
 30
0.0
 40
32.0
  1
ü
 41
0.8125
  7
CENTURY GOTHIC
100
AcDbText
  0
INSERT
  5
10B
330
1F
100
AcDbEntity
  8
Calm 820
  6
Continuous
 62
    18
420
        0
 48
50.00000038146973
370
    25
100
AcDbBlockReference
  2
Dimension14
 10
0.0
 20
0.0
 30
0.0
  0
INSERT
  5
10F
330
1F
100
AcDbEntity
  8
Calm 820
  6
Continuous
 62
    18
420
        0
 48
50.00000038146973
370
    25
100
AcDbBlockReference
  2
Dimension15
 10
0.0
 20
0.0
 30
0.0
  0
INSERT
  5
113
330
1F
100
AcDbEntity
  8
Calm 820
  6
Continuous
 62
    18
420
        0
 48
50.00000038146973
370
    25
100
AcDbBlockReference
  2
Dimension16
 10
0.0
 20
0.0
 30
0.0
  0
INSERT
  5
117
330
1F
100
AcDbEntity
  8
Calm 820
  6
Continuous
 62
    18
420
        0
 48
50.00000038146973
370
    25
100
AcDbBlockReference
  2
Dimension17
 10
0.0
 20
0.0
 30
0.0
  0
INSERT
  5
11B
330
1F
100
AcDbEntity
  8
Calm 820
  6
Continuous
 62
    18
420
        0
 48
50.00000038146973
370
    25
100
AcDbBlockReference
  2
Dimension18
 10
0.0
 20
0.0
 30
0.0
  0
INSERT
  5
11F
330
1F
100
AcDbEntity
  8
Calm 820
  6
Continuous
 62
    18
420
        0
 48
50.00000038146973
370
    25
100
AcDbBlockReference
  2
Dimension19
 10
0.0
 20
0.0
 30
0.0
  0
DIMENSION
  5
121
330
1F
100
AcDbEntity
  8
Calm 820
  6
Continuous
 62
    18
420
        0
 48
50.00000038146973
370
    25
100
AcDbDimension
  2
*D20
 10
36612.60666783887
 20
-21294.09019110531
 30
0.0
 11
36572.18666375
 21
-21161.82691449376
 31
0.0
 70
    32
 71
     5
 42
264.5265532230987
  3
ISO-25
100
AcDbAlignedDimension
 13
36883.12204011518
 23
-21029.56363788221
 33
0.0
 14
36884.79800270704
 24
-21294.09019110531
 34
0.0
 50
-90.0
100
AcDbRotatedDimension
1001
ACAD
1000
DSTYLE
1002
{
1070
   271
1070
     3
1070
   177
1070
    18
1070
   176
1070
    18
1070
   140
1040
40.0
1070
    76
1070
     0
1070
    75
1070
     0
1070
   282
1070
     0
1070
   281
1070
     0
1070
   174
1070
     1
1070
    42
1040
0.0
1070
    49
1040
19.9999995470047
1070
   290
1070
     1
1070
    44
1040
19.9999995470047
1070
    46
1040
0.0
1070
    41
1040
15.00000059604645
1070
   173
1070
     1
1070
   342
1005
0
1070
   344
1005
12F
1070
   343
1005
12F
1070
   147
1040
20.00000408887863
1070
    70
1070
    18
1070
    69
1070
     0
1070
   340
1005
120
1070
   278
1070
    46
1002
}
1001
ACAD_DSTYLE_DIMEXT_ENABLED
1070
   383
1070
     1
1001
ACAD_DSTYLE_DIMEXT_LENGTH
1070
   378
1040
19.9999995470047
  0
DIMENSION
  5
136
330
1F
100
AcDbEntity
  8
Calm 820
  6
Continuous
 62
    18
420
        0
 48
50.00000038146973
370
    25
100
AcDbDimension
  2
*D22
 10
36558.60666783887
 20
-21319.59184089277
 30
0.0
 11
36526.60666375
 21
-21161.82774243925
 31
0.0
 70
    32
 71
     5
 42
315.528196907042
  3
ISO-25
100
AcDbAlignedDimension
 13
36883.12204011518
 23
-21004.06364398573
 33
0.0
 14
36885.89677384931
 24
-21319.59184089277
 34
0.0
 50
-90.0
100
AcDbRotatedDimension
1001
ACAD
1000
DSTYLE
1002
{
1070
    69
1070
     0
1070
   271
1070
     3
1070
   177
1070
    18
1070
   176
1070
    18
1070
   140
1040
24.0
1070
    76
1070
     0
1070
    75
1070
     0
1070
   282
1070
     0
1070
   281
1070
     0
1070
   174
1070
     1
1070
    42
1040
0.0
1070
    49
1040
19.9999995470047
1070
   290
1070
     1
1070
    44
1040
19.9999995470047
1070
    46
1040
0.0
1070
    41
1040
9.000000357627869
1070
   173
1070
     1
1070
   342
1005
0
1070
   344
1005
12F
1070
   343
1005
12F
1070
   147
1040
20.00000408887863
1070
   178
1070
    18
1070
   340
1005
135
1070
   278
1070
    46
1002
}
1001
ACAD_DSTYLE_DIMEXT_ENABLED
1070
   383
1070
     1
1001
ACAD_DSTYLE_DIMEXT_LENGTH
1070
   378
1040
19.9999995470047
  0
DIMENSION
  5
143
330
1F
100
AcDbEntity
  8
Calm 820
  6
Continuous
 62
    18
420
        0
 48
50.00000038146973
370
    25
100
AcDbDimension
  2
*D23
 10
37071.4697615965
 20
-21378.58867445688
 30
0.0
 11
36884.28821166592
 21
-21338.168670368
 31
0.0
 70
    32
 71
     5
 42
374.3630998611551
  3
ISO-25
100
AcDbAlignedDimension
 13
36697.10666173534
 23
-21160.14861770247
 33
0.0
 14
37071.4697615965
 24
-21161.72507186506
 34
0.0
100
AcDbRotatedDimension
1001
ACAD
1000
DSTYLE
1002
{
1070
   271
1070
     3
1070
   177
1070
    18
1070
   176
1070
    18
1070
   140
1040
40.0
1070
    76
1070
     0
1070
    75
1070
     0
1070
   282
1070
     0
1070
   281
1070
     0
1070
   174
1070
     1
1070
    42
1040
0.0
1070
    49
1040
19.9999995470047
1070
   290
1070
     1
1070
    44
1040
19.9999995470047
1070
    46
1040
0.0
1070
    41
1040
15.00000059604645
1070
   173
1070
     1
1070
   342
1005
0
1070
   344
1005
12F
1070
   343
1005
12F
1070
   147
1040
20.00000408887863
1070
    70
1070
    18
1070
    69
1070
     0
1070
   340
1005
120
1070
   278
1070
    46
1002
}
1001
ACAD_DSTYLE_DIMEXT_ENABLED
1070
   383
1070
     1
1001
ACAD_DSTYLE_DIMEXT_LENGTH
1070
   378
1040
19.9999995470047
  0
DIMENSION
  5
150
330
1F
100
AcDbEntity
  8
Calm 820
  6
Continuous
 62
    18
420
        0
 48
50.00000038146973
370
    25
100
AcDbDimension
  2
*D24
 10
37096.96984027463
 20
-21432.58867445688
 30
0.0
 11
36884.28825405674
 21
-21400.588670368
 31
0.0
 70
    32
 71
     5
 42
425.3631724357692
  3
ISO-25
100
AcDbAlignedDimension
 13
36671.60666783886
 23
-21160.14861770247
 33
0.0
 14
37096.96984027463
 24
-21161.72468429183
 34
0.0
100
AcDbRotatedDimension
1001
ACAD
1000
DSTYLE
1002
{
1070
    69
1070
     0
1070
   271
1070
     3
1070
   177
1070
    18
1070
   176
1070
    18
1070
   140
1040
24.0
1070
    76
1070
     0
1070
    75
1070
     0
1070
   282
1070
     0
1070
   281
1070
     0
1070
   174
1070
     1
1070
    42
1040
0.0
1070
    49
1040
19.9999995470047
1070
   290
1070
     1
1070
    44
1040
19.9999995470047
1070
    46
1040
0.0
1070
    41
1040
9.000000357627869
1070
   173
1070
     1
1070
   342
1005
0
1070
   344
1005
12F
1070
   343
1005
12F
1070
   147
1040
20.00000408887863
1070
   178
1070
    18
1070
   340
1005
135
1070
   278
1070
    46
1002
}
1001
ACAD_DSTYLE_DIMEXT_ENABLED
1070
   383
1070
     1
1001
ACAD_DSTYLE_DIMEXT_LENGTH
1070
   378
1040
19.9999995470047
  0
DIMENSION
  5
15D
330
1F
100
AcDbEntity
  8
Calm 820
  6
Continuous
 62
    18
420
        0
 48
50.00000038146973
370
    25
100
AcDbDimension
  2
*D25
 10
37435.17449931815
 20
-20945.06585240506
 30
0.0
 11
37366.01611704119
 21
-20904.64584831618
 31
0.0
 70
    32
 71
     5
 42
138.3167645539288
  3
ISO-25
100
AcDbAlignedDimension
 13
37296.85773476422
 23
-20970.56363788221
 33
0.0
 14
37435.17449931815
 24
-21040.50382366894
 34
0.0
100
AcDbRotatedDimension
1001
ACAD
1000
DSTYLE
1002
{
1070
   271
1070
     3
1070
   177
1070
    18
1070
   176
1070
    18
1070
   140
1040
40.0
1070
    76
1070
     0
1070
    75
1070
     0
1070
   282
1070
     0
1070
   281
1070
     0
1070
   174
1070
     1
1070
    42
1040
0.0
1070
    49
1040
19.9999995470047
1070
   290
1070
     1
1070
    44
1040
19.9999995470047
1070
    46
1040
0.0
1070
    41
1040
15.00000059604645
1070
   173
1070
     1
1070
   342
1005
0
1070
   344
1005
12F
1070
   343
1005
12F
1070
   147
1040
20.00000408887863
1070
    70
1070
    18
1070
    69
1070
     0
1070
   340
1005
120
1070
   278
1070
    46
1002
}
1001
ACAD_DSTYLE_DIMEXT_ENABLED
1070
   383
1070
     1
1001
ACAD_DSTYLE_DIMEXT_LENGTH
1070
   378
1040
19.9999995470047
  0
DIMENSION
  5
16C
330
1F
100
AcDbEntity
  8
Calm 820
  6
Continuous
 62
    18
420
        0
 48
50.00000038146973
370
    25
100
AcDbDimension
  2
*D26
 10
37155.85746077525
 20
-21029.56732889024
 30
0.0
 11
37123.85745668637
 21
-21064.56689587326
 31
0.0
 70
    32
 71
     5
 42
69.99913396603006
  3
ISO-25
100
AcDbAlignedDimension
 13
36884.28519586163
 23
-21099.56646285627
 33
0.0
 14
36884.62408600972
 24
-21029.56732889024
 34
0.0
 50
90.0
100
AcDbRotatedDimension
1001
ACAD
1000
DSTYLE
1002
{
1070
    69
1070
     0
1070
   271
1070
     3
1070
   177
1070
    18
1070
   176
1070
    18
1070
   140
1040
24.0
1070
    76
1070
     0
1070
    75
1070
     0
1070
   282
1070
     0
1070
   281
1070
     0
1070
   174
1070
     1
1070
    42
1040
0.0
1070
    49
1040
19.9999995470047
1070
   290
1070
     1
1070
    44
1040
19.9999995470047
1070
    46
1040
0.0
1070
    41
1040
9.000000357627869
1070
   173
1070
     1
1070
   342
1005
0
1070
   344
1005
12F
1070
   343
1005
12F
1070
   147
1040
20.00000408887863
1070
   178
1070
    18
1070
   340
1005
135
1070
   278
1070
    46
1002
}
1001
ACAD_DSTYLE_DIMEXT_ENABLED
1070
   383
1070
     1
1001
ACAD_DSTYLE_DIMEXT_LENGTH
1070
   378
1040
19.9999995470047
  0
INSERT
  5
17E
330
1F
100
AcDbEntity
  8
Calm 820
  6
Continuous
 62
    18
420
        0
 48
50.00000038146973
370
    25
100
AcDbBlockReference
  2
Dimension20
 10
0.0
 20
0.0
 30
0.0
  0
INSERT
  5
182
330
1F
100
AcDbEntity
  8
Calm 820
  6
Continuous
 62
    18
420
        0
 48
50.00000038146973
370
    25
100
AcDbBlockReference
  2
Dimension21
 10
0.0
 20
0.0
 30
0.0
  0
INSERT
  5
186
330
1F
100
AcDbEntity
  8
Calm 820
  6
Continuous
 62
    18
420
        0
 48
50.00000038146973
370
    25
100
AcDbBlockReference
  2
Dimension22
 10
0.0
 20
0.0
 30
0.0
  0
LWPOLYLINE
  5
187
330
1F
100
AcDbEntity
  8
Calm 820
  6
Continuous
 62
    18
420
        0
 48
0.9999999962747097
370
    25
100
AcDbPolyline
 90
       86
 70
     0
 43
0.0
 10
37309.28463079956
 20
-21007.46990275435
 10
37309.28463075886
 20
-21014.0462468118
 42
0.1701465925063369
 10
37311.05990166176
 20
-21019.11210510545
 42
0.1837755155795564
 10
37316.23294909539
 20
-21021.97160916744
 10
37316.23294909539
 20
-21021.97160916744
 10
37405.68293692813
 20
-21032.95542366334
 10
37410.94944069062
 20
-21033.55420315494
 10
37413.54045750017
 20
-21033.93461833969
 10
37415.28896949897
 20
-21034.24643897539
 10
37416.1404604952
 20
-21034.40729169523
 10
37418.72338973782
 20
-21034.96343672913
 10
37421.23163379458
 20
-21035.66186303288
 10
37421.45219472454
 20
-21035.731456047
 10
37421.84938412216
 20
-21035.86115665724
 10
37422.25046753349
 20
-21035.99664836478
 10
37422.65534511202
 20
-21036.13823070913
 10
37423.06371731823
 20
-21036.2859036903
 10
37423.47498507308
 20
-21036.43976715479
 10
37423.88834960455
 20
-21036.59972125609
 10
37424.30391075913
 20
-21036.76616538023
 10
37424.7210694578
 20
-21036.93889983421
 10
37425.13972585404
 20
-21037.11802446451
 10
37425.56097825941
 20
-21037.30393865717
 10
37425.98402790188
 20
-21037.49664241218
 10
37426.40907447445
 20
-21037.69623557603
 10
37426.8375158282
 20
-21037.90361676731
 10
37427.26895257711
 20
-21038.11868613948
 10
37427.70308518165
 20
-21038.34174323206
 10
37428.14211026495
 20
-21038.57398620312
 10
37428.39192622092
 20
-21038.70937806415
 10
37430.62868763008
 20
-21040.01696789606
 10
37432.78916630927
 20
-21041.47263009516
 10
37434.85269403194
 20
-21043.08575023292
 10
37436.82825698353
 20
-21044.86751111795
 10
37438.70696882509
 20
-21046.80663009515
 10
37440.44120277365
 20
-21048.87884446376
 10
37442.0152829279
 20
-21051.07586696386
 10
37443.44488518914
 20
-21053.40588500886
 10
37444.73020925039
 20
-21055.86889859876
 10
37445.0654938148
 20
-21056.4953355723
 10
37445.44740669713
 20
-21057.08123486472
 10
37445.87594789739
 20
-21057.62669632254
 10
37446.35591004782
 20
-21058.13541426647
 10
37446.88250051616
 20
-21058.60379422229
 10
37447.44134140568
 20
-21059.02015414892
 10
37448.02773993064
 20
-21059.38089957214
 10
37448.64638887676
 20
-21059.68982465919
 10
37449.28680436101
 20
-21059.94323508935
 10
37455.08289398702
 20
-21061.93896703499
 10
37455.08289398701
 20
-21073.27732696772
 42
-0.4391575683465979
 10
37451.64550377626
 20
-21076.43616732572
 10
37451.64550377626
 20
-21076.43616732572
 10
37445.73503170787
 20
-21075.91912000687
 42
-0.1763272806407579
 10
37443.76970660389
 20
-21075.00266168009
 10
37443.76970660389
 20
-21075.00266168009
 10
37435.84327120988
 20
-21067.07626941977
 10
37435.64976868283
 20
-21066.86359636373
 10
37435.47813254042
 20
-21066.63834264804
 10
37435.32846262914
 20
-21066.40040842617
 10
37435.20075894901
 20
-21066.14989354466
 10
37435.09502150003
 20
-21065.88659831049
 10
37435.01125028217
 20
-21065.61072241666
 10
37434.40028951695
 20
-21063.5103513336
 10
37433.65154057456
 20
-21061.48306789231
 10
37432.76500345502
 20
-21059.52887209284
 10
37431.73748307017
 20
-21057.63688066608
 10
37430.57217450815
 20
-21055.81807672762
 10
37429.27876287998
 20
-21054.10491039166
 10
37427.86064296684
 20
-21052.50716661569
 10
37426.31441998754
 20
-21051.01526013521
 10
37424.6403934816
 20
-21049.6323860384
 10
37422.84095976516
 20
-21048.35155506988
 10
37420.91372252208
 20
-21047.17975648503
 10
37418.85059418543
 20
-21046.14175221712
 10
37416.63839501655
 20
-21045.24872507474
 10
37414.29040460062
 20
-21044.48929255631
 10
37411.83847397278
 20
-21043.85486786237
 10
37410.45390248539
 20
-21043.5724020992
 10
37409.28649714676
 20
-21043.37999788369
 10
37406.63058010883
 20
-21043.02993603652
 10
37403.8916906251
 20
-21042.69195561648
 10
37401.07721733695
 20
-21042.33650205801
 10
37392.12687676564
 20
-21041.26215366222
 10
37296.85773476422
 20
-21029.56363788221
 10
37296.85773476422
 20
-21004.14012165294
 10
37309.28463079956
 20
-21007.46989027355
  0
LWPOLYLINE
  5
188
330
1F
100
AcDbEntity
  8
Calm 820
  6
Continuous
 62
    18
420
        0
 48
0.9999999962747097
370
    25
100
AcDbPolyline
 90
        3
 70
     0
 43
0.0
 10
37311.05990166176
 20
-21019.11210510545
 10
37311.05990166176
 20
-21007.94557150506
 10
37296.85773476422
 20
-21004.14012165294
  0
LWPOLYLINE
  5
189
330
1F
100
AcDbEntity
  8
Calm 820
  6
Continuous
 62
    18
420
        0
 48
0.9999999962747097
370
    25
100
AcDbPolyline
 90
        8
 70
     0
 43
0.0
 10
37296.85773476422
 20
-21296.26363788221
 10
37303.70670578739
 20
-21295.52177834868
 10
37310.80908724073
 20
-21294.6556099162
 10
37317.65755903138
 20
-21293.71984846961
 10
37324.25262039187
 20
-21292.77200559588
 10
37330.59387193617
 20
-21291.75466955455
 10
37336.6795164272
 20
-21290.49580481718
 10
37339.14353271756
 20
-21289.83335339
  0
LWPOLYLINE
  5
18A
330
1F
100
AcDbEntity
  8
Calm 820
  6
Continuous
 62
    18
420
        0
 48
0.9999999962747097
370
    25
100
AcDbPolyline
 90
        5
 70
     0
 43
0.0
 10
37342.21670406526
 20
-21299.67279695525
 10
37339.49129385973
 20
-21300.3552478182
 10
37333.2807413907
 20
-21301.59643972415
 10
37326.8317554673
 20
-21302.60099541281
 10
37320.1477308707
 20
-21303.36841565167
  0
LWPOLYLINE
  5
18B
330
1F
100
AcDbEntity
  8
Calm 820
  6
Continuous
 62
    18
420
        0
 48
0.9999999962747097
370
    25
100
AcDbPolyline
 90
       76
 70
     0
 43
0.0
 10
37435.97027596448
 20
-21131.58909335
 10
37443.76971576976
 20
-21123.78972617519
 42
-0.176327280640756
 10
37445.73503297738
 20
-21122.87327164659
 10
37445.73503297738
 20
-21122.87327164659
 10
37451.636468121
 20
-21122.35697770745
 42
-0.4400109649004854
 10
37455.08289398701
 20
-21125.51504055665
 10
37455.08289398701
 20
-21125.51504055665
 10
37455.08289398702
 20
-21136.85340048937
 10
37451.75710669517
 20
-21137.99857941437
 42
0.2819745940499191
 10
37446.50579302492
 20
-21144.38387544265
 10
37446.50579302492
 20
-21144.38387544265
 10
37444.87538606892
 20
-21154.28919630383
 10
37443.12986946528
 20
-21163.78519802597
 10
37441.26873060863
 20
-21172.87432523948
 10
37439.28957318285
 20
-21181.53690818283
 10
37437.19479350407
 20
-21189.79261661756
 10
37434.9925789857
 20
-21197.69976090268
 10
37432.68402793931
 20
-21205.26662829813
 10
37430.26784236034
 20
-21212.485131237
 10
37427.74821580199
 20
-21219.38861845201
 10
37425.14112370511
 20
-21225.98318057997
 10
37422.43049078235
 20
-21232.26272698407
 10
37419.57128625987
 20
-21238.24363249117
 10
37416.56540722126
 20
-21243.92130416201
 10
37413.41095658295
 20
-21249.30023508935
 10
37410.0576117063
 20
-21254.40958045269
 10
37406.47861372794
 20
-21259.26371814877
 10
37402.70062166475
 20
-21263.84827028084
 10
37398.75279069624
 20
-21268.14816002664
 10
37394.627532488
 20
-21272.14381747114
 10
37390.33243537446
 20
-21275.85471268285
 10
37385.91882045925
 20
-21279.32557689609
 10
37381.41694123347
 20
-21282.57058831461
 10
37376.79644435952
 20
-21285.57556873467
 10
37372.01779062136
 20
-21288.34191600732
 10
37367.08437480016
 20
-21290.85475300332
 10
37361.99280211475
 20
-21293.12905669842
 10
37356.69274992651
 20
-21295.21155525708
 10
37351.1773288266
 20
-21297.13290155635
 10
37345.45352807035
 20
-21298.86234287266
 10
37342.4393695165
 20
-21299.61713771318
 10
37341.65665732057
 20
-21294.04768962332
 10
37339.77305610971
 20
-21294.31240483679
 10
37339.14352848216
 20
-21289.83332325527
 10
37342.49277965209
 20
-21288.93290747151
 10
37348.05043582371
 20
-21287.12848142981
 10
37353.4015095761
 20
-21285.09840228638
 10
37358.56397328019
 20
-21282.83897572055
 10
37363.51965487204
 20
-21280.35389605299
 10
37368.26376171941
 20
-21277.66942291459
 10
37372.78441208817
 20
-21274.79524141633
 10
37377.09338786594
 20
-21271.72156660072
 10
37381.22084269728
 20
-21268.44600215161
 10
37385.17136952143
 20
-21264.99071399317
 10
37388.94037539916
 20
-21261.33343635475
 10
37392.54463454334
 20
-21257.40497560823
 10
37395.9850455725
 20
-21253.19315048001
 10
37399.26061002161
 20
-21248.7100423972
 10
37402.38530640138
 20
-21243.92280185959
 10
37405.34905021478
 20
-21238.82733516048
 10
37408.16172626585
 20
-21233.42783585308
 10
37410.86776624938
 20
-21227.70393525033
 10
37413.47705496939
 20
-21221.65353657562
 10
37415.97950792883
 20
-21215.27883645208
 10
37418.38960287099
 20
-21208.56545698296
 10
37420.71652567434
 20
-21201.50091735508
 10
37422.95089076737
 20
-21194.09759853512
 10
37425.07901917888
 20
-21186.37876475877
 10
37427.11588788466
 20
-21178.35100589538
 10
37429.04651990892
 20
-21170.00763222911
 10
37430.8118061206
 20
-21161.35213838762
 10
37432.39227645117
 20
-21152.38562268248
 10
37433.80750081567
 20
-21143.10688695561
 10
37435.05756052358
 20
-21133.51487873319
 42
-0.1729785314322567
 10
37435.96926792975
 20
-21131.59015590088
 10
37435.96926792975
 20
-21131.59015590088
  0
LWPOLYLINE
  5
18C
330
1F
100
AcDbEntity
  8
Calm 820
  6
Continuous
 62
    18
420
        0
 48
0.9999999962747097
370
    25
100
AcDbPolyline
 90
        2
 70
     0
 43
0.0
 10
37342.4393695165
 20
-21299.61713771318
 10
37342.21670406526
 20
-21299.67289680175
  0
LWPOLYLINE
  5
18D
330
1F
100
AcDbEntity
  8
Calm 820
  6
Continuous
 62
    18
420
        0
 48
0.9999999962747097
370
    25
100
AcDbPolyline
 90
      117
 70
     0
 43
0.0
 10
36999.34573697325
 20
-21650.08725618589
 10
36993.31714550628
 20
-21652.73205244237
 10
36987.05935436373
 20
-21655.3040488019
 10
36980.75706328417
 20
-21657.73714535802
 10
36974.39317229181
 20
-21660.02254212321
 10
36967.98488136227
 20
-21662.16903908499
 10
36961.76879016071
 20
-21664.13693629958
 10
36956.50586962078
 20
-21665.70923502811
 42
-0.0323219399957579
 10
36943.96657912146
 20
-21667.87763188181
 42
-0.0088140406839996
 10
36929.04832019922
 20
-21668.92922951643
 10
36929.04832019922
 20
-21668.92922951643
 10
36928.39822111939
 20
-21669.10492926774
 10
36927.77182200601
 20
-21669.33222894601
 10
36927.16922285895
 20
-21669.61102855139
 10
36926.58532368541
 20
-21669.94422807977
 10
36926.0252244782
 20
-21670.32902753511
 10
36925.5033252169
 20
-21670.75662692988
 10
36925.02072589999
 20
-21671.22872626166
 10
36924.57632652901
 20
-21671.74362553285
 10
36924.18062708909
 20
-21672.28762476286
 10
36923.83712757529
 20
-21672.85632395791
 10
36923.54232799257
 20
-21673.45422311162
 10
36923.29622834089
 20
-21674.08132222401
 10
36921.96259481916
 20
-21677.95443995309
 10
36910.57784948034
 20
-21677.9544399531
 42
-0.4398390070803697
 10
36907.41677112444
 20
-21674.50271653164
 10
36907.41677112444
 20
-21674.50271653164
 10
36907.92464200628
 20
-21668.69787148969
 42
-0.1763278805054543
 10
36908.84249219912
 20
-21666.72952642995
 10
36908.84249219912
 20
-21666.72952642995
 10
36916.68813769417
 20
-21658.88384373495
 10
36916.85963745142
 20
-21658.72504395972
 10
36917.03993719622
 20
-21658.58054416425
 10
36917.22893692871
 20
-21658.45024434868
 10
36917.4275366476
 20
-21658.33384451344
 10
36917.63493635404
 20
-21658.23174465795
 10
36917.848336052
 20
-21658.14524478038
 10
36918.06693574257
 20
-21658.07484488003
 10
36918.29163542453
 20
-21658.0200449576
 10
36922.5454294036
 20
-21657.31214595958
 42
0.0147652041334438
 10
36935.67716753714
 20
-21656.10620187364
 42
0.0221962502650692
 10
36947.00576275581
 20
-21655.0591316438
 42
0.0620689807376207
 10
36960.38419084091
 20
-21652.62048799173
 10
36960.38419084091
 20
-21652.62048799173
 10
36964.03561366181
 20
-21651.48705420458
 10
36968.84840684964
 20
-21649.95455637371
 10
36973.77799987217
 20
-21648.31715869133
 10
36978.78559278428
 20
-21646.55036119211
 10
36983.89438555313
 20
-21644.64206389317
 10
36989.08107821174
 20
-21642.60436677738
 10
36994.23697091396
 20
-21640.45006982663
 10
36999.38706362437
 20
-21638.16017306782
 10
37004.50625637853
 20
-21635.75357647418
 10
37009.41024943727
 20
-21633.30027994664
 10
37014.0360428898
 20
-21630.83118344148
 10
37018.44673664677
 20
-21628.31528700254
 10
37022.64733070113
 20
-21625.72969066227
 10
37026.62222507496
 20
-21623.10689437465
 10
37030.38701974616
 20
-21620.41429818583
 10
37033.99341464157
 20
-21617.53160226607
 10
37037.47060971984
 20
-21614.43330665149
 10
37040.78930502248
 20
-21611.14481130612
 10
37043.91270060153
 20
-21607.62251629167
 10
37046.80129651292
 20
-21603.81612167936
 10
37049.49459270076
 20
-21599.7758273981
 10
37052.07398904982
 20
-21595.60803329731
 10
37054.60768546355
 20
-21591.35163932193
 10
37057.02758203836
 20
-21586.96774552702
 10
37059.21127894748
 20
-21582.44585192744
 10
37061.12187624318
 20
-21577.75805856267
 10
37062.79627387319
 20
-21572.93216539338
 10
37064.22287185393
 20
-21568.04097231651
 10
37065.33757027616
 20
-21563.12477927503
 10
37066.20446904914
 20
-21558.14318632612
 10
37067.00446791681
 20
-21553.04849353728
 10
37067.76946683399
 20
-21547.85900088264
 10
37071.4697615965
 20
-21519.59184089277
 10
37096.36169965412
 20
-21519.59184089277
 10
37092.59130499083
 20
-21532.03782327638
 10
37086.00511431313
 20
-21532.03802327609
 10
37085.21401543286
 20
-21532.07072322981
 10
37084.44271652458
 20
-21532.15702310766
 10
37083.69111758841
 20
-21532.29692290965
 10
37082.95361863229
 20
-21532.49412263052
 10
37082.23581964828
 20
-21532.74492227553
 10
37081.55542061134
 20
-21533.0384218601
 10
37080.91792151368
 20
-21533.37202138792
 10
37080.31782236308
 20
-21533.74832085529
 10
37079.75662315742
 20
-21534.16372026733
 10
37079.23082390163
 20
-21534.6204196209
 10
37078.74382459095
 20
-21535.11611891928
 10
37078.30742520865
 20
-21535.64101817631
 10
37077.9224257536
 20
-21536.19921738623
 10
37077.58792622705
 20
-21536.78651655494
 10
37077.31272661658
 20
-21537.37981571517
 10
37077.09962691821
 20
-21537.97171487738
 10
37076.94572713602
 20
-21538.56951403124
 10
37076.85102727007
 20
-21539.17351317632
 10
37076.29532805662
 20
-21544.24420599912
 10
37075.68462892102
 20
-21549.12199909496
 10
37075.01832986413
 20
-21553.80689246382
 10
37074.29893088238
 20
-21558.26138615881
 10
37073.52393197934
 20
-21562.52298012683
 10
37071.84263435909
 20
-21570.82626837412
 10
37070.93613564219
 20
-21574.86796265339
 10
37069.79033726396
 20
-21578.87245698532
 10
37068.31953934579
 20
-21582.85825134371
 10
37066.60934176645
 20
-21586.80684575476
 10
37064.73974441272
 20
-21590.70674023474
 10
37062.73024725702
 20
-21594.53193482045
 10
37060.56135032693
 20
-21598.30852947495
 10
37058.2553535909
 20
-21602.10322410384
 10
37055.83935701058
 20
-21605.98641860746
 10
37053.28616062446
 20
-21609.88771308546
 10
37050.53756451488
 20
-21613.66150774392
 10
37047.58036870059
 20
-21617.26630264159
 10
37044.427673163
 20
-21620.74359771973
  0
LWPOLYLINE
  5
18E
330
1F
100
AcDbEntity
  8
Calm 820
  6
Continuous
 62
    18
420
        0
 48
0.9999999962747097
370
    25
100
AcDbPolyline
 90
      117
 70
     0
 43
0.0
 10
36769.47803432559
 20
-21650.0872534075
 10
36775.50662572862
 20
-21652.73204980971
 10
36781.764416809
 20
-21655.30404632051
 10
36788.06670782973
 20
-21657.73714302899
 10
36794.43059876686
 20
-21660.02253994801
 10
36800.8388896445
 20
-21662.16903706472
 10
36807.05498079849
 20
-21664.13693442957
 10
36812.31790130042
 20
-21665.70923328532
 42
0.0323219399957578
 10
36824.85719174732
 20
-21667.87763044215
 42
0.0088140406839996
 10
36839.77545064413
 20
-21668.9292284374
 10
36839.77545064413
 20
-21668.9292284374
 10
36840.42554971972
 20
-21669.10492820442
 10
36841.0519488276
 20
-21669.33222789784
 10
36841.65454796793
 20
-21669.61102751779
 10
36842.23844713341
 20
-21669.94422706028
 10
36842.79854633132
 20
-21670.32902652916
 10
36843.32044558228
 20
-21670.75662593654
 10
36843.80304488777
 20
-21671.22872527999
 10
36844.24744424631
 20
-21671.74362456192
 10
36844.64314367308
 20
-21672.2876238015
 10
36844.98664317313
 20
-21672.85632300485
 10
36845.28144274141
 20
-21673.4542221657
 10
36845.52754237792
 20
-21674.08132128403
 10
36846.86117580602
 20
-21677.95443904535
 10
36858.24592114484
 20
-21677.95443932057
 42
0.4398390070803593
 10
36861.40699958418
 20
-21674.50271597552
 10
36861.40699958418
 20
-21674.50271597552
 10
36860.89912884267
 20
-21668.6978709213
 42
0.1763278805054515
 10
36859.98127869741
 20
-21666.72952583937
 10
36859.98127869741
 20
-21666.72952583937
 10
36852.13563339202
 20
-21658.88384295471
 10
36851.96413363861
 20
-21658.72504317534
 10
36851.7838338973
 20
-21658.5805433755
 10
36851.59483416796
 20
-21658.45024355536
 10
36851.39623445189
 20
-21658.33384371532
 10
36851.18883474791
 20
-21658.23174385482
 10
36850.97543505205
 20
-21658.1452439721
 10
36850.75683536318
 20
-21658.07484406646
 10
36850.53213568254
 20
-21658.02004413859
 10
36846.27834172059
 20
-21657.31214503774
 42
-0.0147652041334438
 10
36833.14660361619
 20
-21656.10620063436
 42
-0.0221962502650693
 10
36821.81800842284
 20
-21655.05913013067
 42
-0.0620689807376202
 10
36808.43958039668
 20
-21652.62048615519
 10
36808.43958039668
 20
-21652.62048615519
 10
36804.78815760318
 20
-21651.48705227977
 10
36799.9753644524
 20
-21649.95455433256
 10
36795.04577146946
 20
-21648.31715653102
 10
36790.03817860007
 20
-21646.55035891074
 10
36784.92938587733
 20
-21644.6420614883
 10
36779.74269326798
 20
-21642.60436424713
 10
36774.58680061785
 20
-21640.45006717174
 10
36769.43670796278
 20
-21638.16017028843
 10
36764.31751526681
 20
-21635.75357357105
 10
36759.41352226736
 20
-21633.30027692496
 10
36754.78772887454
 20
-21630.83118030797
 10
36750.37703517838
 20
-21628.31528376242
 10
36746.17644118652
 20
-21625.7296873206
 10
36742.2015468761
 20
-21623.10689093689
 10
36738.43675226998
 20
-21620.41429465705
 10
36734.83035744426
 20
-21617.53159865013
 10
36731.35316244088
 20
-21614.43330295148
 10
36728.03446721775
 20
-21611.14480752588
 10
36724.91107172384
 20
-21607.62251243593
 10
36722.02247590446
 20
-21603.81611775379
 10
36719.3291798143
 20
-21599.77582340742
 10
36716.74978356599
 20
-21595.60802924428
 10
36714.21608725516
 20
-21591.35163520765
 10
36711.79619078631
 20
-21586.96774135424
 10
36709.6124939865
 20
-21582.44584770187
 10
36707.70189680414
 20
-21577.75805429092
 10
36706.02749929077
 20
-21572.93216108115
 10
36704.60090142828
 20
-21568.0409679698
 10
36703.48620312488
 20
-21563.12477490136
 10
36702.61930447233
 20
-21558.14318193149
 10
36701.81930572783
 20
-21553.04848912333
 10
36701.05430693609
 20
-21547.85899645019
 10
36697.35401285691
 20
-21519.59183637087
 10
36672.46207479929
 20
-21519.59183576914
 10
36676.2324691617
 20
-21532.03781824389
 10
36682.81865983942
 20
-21532.03801840283
 10
36683.60975871888
 20
-21532.07071837566
 10
36684.38105762508
 20
-21532.15701827215
 10
36685.13265655786
 20
-21532.29691809231
 10
36685.87015550922
 20
-21532.49411783101
 10
36686.58795448717
 20
-21532.74491749337
 10
36687.26835351701
 20
-21533.0384170944
 10
36687.90585260661
 20
-21533.37201663762
 10
36688.50595174811
 20
-21533.74831611951
 10
36689.06715094374
 20
-21534.1637155451
 10
36689.59295018847
 20
-21534.62041491138
 10
36690.07994948717
 20
-21535.11611422153
 10
36690.51634885679
 20
-21535.64101348912
 10
36690.90134829836
 20
-21536.19921270834
 10
36691.23584781071
 20
-21536.78651188514
 10
36691.51104740683
 20
-21537.37981105203
 10
36691.72414709089
 20
-21537.97171021939
 10
36691.87804685862
 20
-21538.56950937696
 10
36691.97274670998
 20
-21539.17350852434
 10
36692.52844580084
 20
-21544.24420136057
 10
36693.13914481854
 20
-21549.12199447117
 10
36693.80544376217
 20
-21553.80688785615
 10
36694.52484263624
 20
-21558.26138156852
 10
36695.29984143626
 20
-21562.52297555527
 10
36696.98113885579
 20
-21570.82626384321
 10
36697.88763747499
 20
-21574.86795814439
 10
36699.03343575641
 20
-21578.87245250402
 10
36700.50423357823
 20
-21582.85824689797
 10
36702.21443106212
 20
-21586.80684135036
 10
36704.08402832157
 20
-21590.70673587553
 10
36706.09352538481
 20
-21594.53193050982
 10
36708.26242222359
 20
-21598.30852521675
 10
36710.56841886789
 20
-21602.10321990138
 10
36712.98441535435
 20
-21605.9864144634
 10
36715.53761164616
 20
-21609.88770900312
 10
36718.2862076645
 20
-21613.66150372803
 10
36721.24340339165
 20
-21617.26629869719
 10
36724.39609884518
 20
-21620.74359385154
  0
DIMENSION
  5
18F
330
1F
100
AcDbEntity
  8
Calm 820
  6
Continuous
 62
    18
420
        0
 48
50.00000038146973
370
    25
100
AcDbDimension
  2
*D30
 10
37155.85746077525
 20
-21677.96101673258
 30
0.0
 11
37123.85745668637
 21
-21598.77642881268
 31
0.0
 70
    32
 71
     5
 42
158.3691758398163
  3
ISO-25
100
AcDbAlignedDimension
 13
37078.99699040884
 23
-21519.59184089277
 33
0.0
 14
36921.96033023176
 24
-21677.96101673258
 34
0.0
 50
-90.0
100
AcDbRotatedDimension
1001
ACAD
1000
DSTYLE
1002
{
1070
    69
1070
     0
1070
   271
1070
     3
1070
   177
1070
    18
1070
   176
1070
    18
1070
   140
1040
24.0
1070
    76
1070
     0
1070
    75
1070
     0
1070
   282
1070
     0
1070
   281
1070
     0
1070
   174
1070
     1
1070
    42
1040
0.0
1070
    49
1040
19.9999995470047
1070
   290
1070
     1
1070
    44
1040
19.9999995470047
1070
    46
1040
0.0
1070
    41
1040
9.000000357627869
1070
   173
1070
     1
1070
   342
1005
0
1070
   344
1005
12F
1070
   343
1005
12F
1070
   147
1040
20.00000408887863
1070
   178
1070
    18
1070
   340
1005
135
1070
   278
1070
    46
1002
}
1001
ACAD_DSTYLE_DIMEXT_ENABLED
1070
   383
1070
     1
1001
ACAD_DSTYLE_DIMEXT_LENGTH
1070
   378
1040
19.9999995470047
  0
INSERT
  5
1A1
330
1F
100
AcDbEntity
  8
Calm 820
  6
Continuous
 62
    18
420
        0
 48
50.00000038146973
370
    25
100
AcDbBlockReference
  2
Dimension23
 10
0.0
 20
0.0
 30
0.0
  0
LINE
  5
1A2
330
1F
100
AcDbEntity
  8
Calm 820
  6
Continuous
 62
    18
420
        0
 48
755.9999786376953
370
    25
100
AcDbLine
 10
38017.53584427306
 20
-22131.33520455484
 30
0.0
 11
38017.53584427306
 21
-21685.83520455485
 31
0.0
  0
LINE
  5
1A3
330
1F
100
AcDbEntity
  8
Calm 820
  6
Continuous
 62
    18
420
        0
 48
755.9999786376953
370
    25
100
AcDbLine
 10
37269.53584427306
 20
-22131.33520455484
 30
0.0
 11
37269.53584427306
 21
-21905.83520455485
 31
0.0
  0
LINE
  5
1A4
330
1F
100
AcDbEntity
  8
Calm 820
  6
Continuous
 62
    18
420
        0
 48
50.00000038146973
370
    25
100
AcDbLine
 10
37269.53584427306
 20
-21905.83520455485
 30
0.0
 11
38017.53584427306
 21
-21905.83520455485
 31
0.0
  0
LINE
  5
1A5
330
1F
100
AcDbEntity
  8
Calm 820
  6
Continuous
 62
    18
420
        0
 48
134.9999961853027
370
    25
100
AcDbLine
 10
37400.55753496068
 20
-21965.61777105831
 30
0.0
 11
37459.80853130149
 21
-21965.61393514153
 31
0.0
  0
LINE
  5
1A6
330
1F
100
AcDbEntity
  8
Calm 820
  6
Continuous
 62
    18
420
        0
 48
134.9999961853027
370
    25
100
AcDbLine
 10
37392.90207606292
 20
-21984.13240237542
 30
0.0
 11
37467.46047209221
 21
-21984.13016527914
 31
0.0
  0
LINE
  5
1A7
330
1F
100
AcDbEntity
  8
Calm 820
  6
Continuous
 62
    18
420
        0
 48
134.9999961853027
370
    25
100
AcDbLine
 10
37465.10342452638
 20
-21974.87588987808
 30
0.0
 11
37395.26194903778
 21
-21974.87369821977
 31
0.0
  0
LINE
  5
1A8
330
1F
100
AcDbEntity
  8
Calm 820
  6
Continuous
 62
    18
420
        0
 48
134.9999961853027
370
    25
100
AcDbLine
 10
37395.26578525515
 20
-22002.52294058952
 30
0.0
 11
37465.10256935925
 21
-22002.51703297948
 31
0.0
  0
LINE
  5
1A9
330
1F
100
AcDbEntity
  8
Calm 820
  6
Continuous
 62
    18
420
        0
 48
134.9999961853027
370
    25
100
AcDbLine
 10
37467.46244182799
 20
-21993.25598400576
 30
0.0
 11
37392.90404630481
 21
-21993.26056592011
 31
0.0
  0
LINE
  5
1AA
330
1F
100
AcDbEntity
  8
Calm 820
  6
Continuous
 62
    18
420
        0
 48
134.9999961853027
370
    25
100
AcDbLine
 10
37459.81167385464
 20
-22011.77658293845
 30
0.0
 11
37400.55577388425
 21
-22011.77658293845
 31
0.0
  0
LINE
  5
1AB
330
1F
100
AcDbEntity
  8
Calm 820
  6
Continuous
 62
    18
420
        0
 48
134.9999961853027
370
    25
100
AcDbLine
 10
37473.33937467105
 20
-22011.86212668582
 30
0.0
 11
37510.09141548172
 21
-22011.86357332121
 31
0.0
  0
LINE
  5
1AC
330
1F
100
AcDbEntity
  8
Calm 820
  6
Continuous
 62
    18
420
        0
 48
134.9999961853027
370
    25
100
AcDbLine
 10
37510.08773749364
 20
-21983.95981156323
 30
0.0
 11
37487.08890754564
 21
-21983.9566753978
 31
0.0
  0
LINE
  5
1AD
330
1F
100
AcDbEntity
  8
Calm 820
  6
Continuous
 62
    18
420
        0
 48
134.9999961853027
370
    25
100
AcDbLine
 10
37486.87984054109
 20
-21975.29133839392
 30
0.0
 11
37523.83694556726
 21
-21975.28911695791
 31
0.0
  0
LINE
  5
1AE
330
1F
100
AcDbEntity
  8
Calm 820
  6
Continuous
 62
    18
420
        0
 48
134.9999961853027
370
    25
100
AcDbLine
 10
37523.83694556726
 20
-21975.28911695791
 30
0.0
 11
37523.83934845767
 21
-21965.68218323208
 31
0.0
  0
LINE
  5
1AF
330
1F
100
AcDbEntity
  8
Calm 820
  6
Continuous
 62
    18
420
        0
 48
134.9999961853027
370
    25
100
AcDbLine
 10
37523.83934845767
 20
-21965.68218323208
 30
0.0
 11
37486.88011150264
 21
-21965.68312613652
 31
0.0
  0
LINE
  5
1B0
330
1F
100
AcDbEntity
  8
Calm 820
  6
Continuous
 62
    18
420
        0
 48
134.9999961853027
370
    25
100
AcDbLine
 10
37486.88378548786
 20
-21993.56834251529
 30
0.0
 11
37509.88261842651
 21
-21993.58533442381
 31
0.0
  0
LINE
  5
1B1
330
1F
100
AcDbEntity
  8
Calm 820
  6
Continuous
 62
    18
420
        0
 48
134.9999961853027
370
    25
100
AcDbLine
 10
37510.08934134916
 20
-22002.25408257825
 30
0.0
 11
37473.33964613872
 21
-22002.25625924649
 31
0.0
  0
LINE
  5
1B2
330
1F
100
AcDbEntity
  8
Calm 820
  6
Continuous
 62
    18
420
        0
 48
134.9999961853027
370
    25
100
AcDbLine
 10
37473.33964613872
 20
-22002.25625924649
 30
0.0
 11
37473.33937467105
 21
-22011.86212668582
 31
0.0
  0
LINE
  5
1B3
330
1F
100
AcDbEntity
  8
Calm 820
  6
Continuous
 62
    18
420
        0
 48
134.9999961853027
370
    25
100
AcDbLine
 10
37550.37751939142
 20
-22011.84549861166
 30
0.0
 11
37580.4231671074
 21
-22011.84711377721
 31
0.0
  0
LINE
  5
1B4
330
1F
100
AcDbEntity
  8
Calm 820
  6
Continuous
 62
    18
420
        0
 48
134.9999961853027
370
    25
100
AcDbLine
 10
37580.4231671074
 20
-22011.84711377721
 30
0.0
 11
37580.42343783891
 21
-22002.23783569343
 31
0.0
  0
LINE
  5
1B5
330
1F
100
AcDbEntity
  8
Calm 820
  6
Continuous
 62
    18
420
        0
 48
134.9999961853027
370
    25
100
AcDbLine
 10
37580.42343783891
 20
-22002.23783569343
 30
0.0
 11
37550.37544581098
 21
-22002.23856585205
 31
0.0
  0
LINE
  5
1B6
330
1F
100
AcDbEntity
  8
Calm 820
  6
Continuous
 62
    18
420
        0
 48
134.9999961853027
370
    25
100
AcDbLine
 10
37539.24695885647
 20
-21993.44321007463
 30
0.0
 11
37580.42388396068
 21
-21993.44114365029
 31
0.0
  0
LINE
  5
1B7
330
1F
100
AcDbEntity
  8
Calm 820
  6
Continuous
 62
    18
420
        0
 48
134.9999961853027
370
    25
100
AcDbLine
 10
37580.42388396068
 20
-21993.44114365029
 30
0.0
 11
37580.42181088635
 21
-21983.83655570873
 31
0.0
  0
LINE
  5
1B8
330
1F
100
AcDbEntity
  8
Calm 820
  6
Continuous
 62
    18
420
        0
 48
134.9999961853027
370
    25
100
AcDbLine
 10
37580.42181088635
 20
-21983.83655570873
 30
0.0
 11
37539.24723055418
 21
-21983.83840846168
 31
0.0
  0
LINE
  5
1B9
330
1F
100
AcDbEntity
  8
Calm 820
  6
Continuous
 62
    18
420
        0
 48
134.9999961853027
370
    25
100
AcDbLine
 10
37550.37170649074
 20
-21975.03824955827
 30
0.0
 11
37580.42460109002
 21
-21975.03645251503
 31
0.0
  0
LINE
  5
1BA
330
1F
100
AcDbEntity
  8
Calm 820
  6
Continuous
 62
    18
420
        0
 48
134.9999961853027
370
    25
100
AcDbLine
 10
37580.42460109002
 20
-21975.03645251503
 30
0.0
 11
37580.42465939241
 21
-21965.4305851217
 31
0.0
  0
LINE
  5
1BB
330
1F
100
AcDbEntity
  8
Calm 820
  6
Continuous
 62
    18
420
        0
 48
134.9999961853027
370
    25
100
AcDbLine
 10
37580.42465939241
 20
-21965.4305851217
 30
0.0
 11
37550.37645392314
 21
-21965.43003633466
 31
0.0
  0
LINE
  5
1BC
330
1F
100
AcDbEntity
  8
Calm 820
  6
Continuous
 62
    18
420
        0
 48
134.9999961853027
370
    25
100
AcDbLine
 10
37587.3435664549
 20
-22011.79275507229
 30
0.0
 11
37597.55375718198
 21
-22011.79161710982
 31
0.0
  0
LINE
  5
1BD
330
1F
100
AcDbEntity
  8
Calm 820
  6
Continuous
 62
    18
420
        0
 48
134.9999961853027
370
    25
100
AcDbLine
 10
37597.55375718198
 20
-22011.79161710982
 30
0.0
 11
37597.55503836449
 21
-21975.26062873869
 31
0.0
  0
LINE
  5
1BE
330
1F
100
AcDbEntity
  8
Calm 820
  6
Continuous
 62
    18
420
        0
 48
134.9999961853027
370
    25
100
AcDbLine
 10
37597.55503836449
 20
-21975.26062873869
 30
0.0
 11
37622.45572864887
 21
-21975.26207541088
 31
0.0
  0
LINE
  5
1BF
330
1F
100
AcDbEntity
  8
Calm 820
  6
Continuous
 62
    18
420
        0
 48
134.9999961853027
370
    25
100
AcDbLine
 10
37622.66479519332
 20
-21983.92528076198
 30
0.0
 11
37600.49219561215
 21
-21983.93006654221
 31
0.0
  0
LINE
  5
1C0
330
1F
100
AcDbEntity
  8
Calm 820
  6
Continuous
 62
    18
420
        0
 48
134.9999961853027
370
    25
100
AcDbLine
 10
37600.49219561215
 20
-21983.93006654221
 30
0.0
 11
37600.49214697187
 21
-21993.58069864396
 31
0.0
  0
LINE
  5
1C1
330
1F
100
AcDbEntity
  8
Calm 820
  6
Continuous
 62
    18
420
        0
 48
134.9999961853027
370
    25
100
AcDbLine
 10
37600.49214697187
 20
-21993.58069864396
 30
0.0
 11
37612.77195966141
 21
-21993.58039296171
 31
0.0
  0
LINE
  5
1C2
330
1F
100
AcDbEntity
  8
Calm 820
  6
Continuous
 62
    18
420
        0
 48
134.9999961853027
370
    25
100
AcDbLine
 10
37612.77195966141
 20
-21993.58039296171
 30
0.0
 11
37625.27910061429
 21
-22011.79266726827
 31
0.0
  0
LINE
  5
1C3
330
1F
100
AcDbEntity
  8
Calm 820
  6
Continuous
 62
    18
420
        0
 48
134.9999961853027
370
    25
100
AcDbLine
 10
37625.27910061429
 20
-22011.79266726827
 30
0.0
 11
37637.78678620411
 21
-22011.78868859154
 31
0.0
  0
LINE
  5
1C4
330
1F
100
AcDbEntity
  8
Calm 820
  6
Continuous
 62
    18
420
        0
 48
134.9999961853027
370
    25
100
AcDbLine
 10
37637.78678620411
 20
-22011.78868859154
 30
0.0
 11
37624.9643484992
 21
-21993.4592414308
 31
0.0
  0
LINE
  5
1C5
330
1F
100
AcDbEntity
  8
Calm 820
  6
Continuous
 62
    18
420
        0
 48
134.9999961853027
370
    25
100
AcDbLine
 10
37622.66298286554
 20
-21965.65275265134
 30
0.0
 11
37587.34511859898
 21
-21965.65355444376
 31
0.0
  0
LINE
  5
1C6
330
1F
100
AcDbEntity
  8
Calm 820
  6
Continuous
 62
    18
420
        0
 48
134.9999961853027
370
    25
100
AcDbLine
 10
37587.34511859898
 20
-21965.65355444376
 30
0.0
 11
37587.3435664549
 21
-22011.79275507229
 31
0.0
  0
LINE
  5
1C7
330
1F
100
AcDbEntity
  8
Calm 820
  6
Continuous
 62
    18
420
        0
 48
134.9999961853027
370
    25
100
AcDbLine
 10
37328.41234394776
 20
-22011.85546461772
 30
0.0
 11
37328.40817945718
 21
-21971.82174540681
 31
0.0
  0
LINE
  5
1C8
330
1F
100
AcDbEntity
  8
Calm 820
  6
Continuous
 62
    18
420
        0
 48
134.9999961853027
370
    25
100
AcDbLine
 10
37340.63661154127
 20
-21968.82264154069
 30
0.0
 11
37357.02960381366
 21
-21996.20721896274
 31
0.0
  0
LINE
  5
1C9
330
1F
100
AcDbEntity
  8
Calm 820
  6
Continuous
 62
    18
420
        0
 48
134.9999961853027
370
    25
100
AcDbLine
 10
37357.02960381366
 20
-21996.20721896274
 30
0.0
 11
37373.41972753034
 21
-21968.82260001892
 31
0.0
  0
LINE
  5
1CA
330
1F
100
AcDbEntity
  8
Calm 820
  6
Continuous
 62
    18
420
        0
 48
134.9999961853027
370
    25
100
AcDbLine
 10
37385.64497735999
 20
-21971.81962323056
 30
0.0
 11
37385.64914189657
 21
-22011.85355560675
 31
0.0
  0
LINE
  5
1CB
330
1F
100
AcDbEntity
  8
Calm 820
  6
Continuous
 62
    18
420
        0
 48
134.9999961853027
370
    25
100
AcDbLine
 10
37385.64914189657
 20
-22011.85355560675
 30
0.0
 11
37375.63229180079
 21
-22011.85337284644
 31
0.0
  0
LINE
  5
1CC
330
1F
100
AcDbEntity
  8
Calm 820
  6
Continuous
 62
    18
420
        0
 48
134.9999961853027
370
    25
100
AcDbLine
 10
37375.63229180079
 20
-22011.85337284644
 30
0.0
 11
37375.6311544495
 21
-21984.85684200653
 31
0.0
  0
LINE
  5
1CD
330
1F
100
AcDbEntity
  8
Calm 820
  6
Continuous
 62
    18
420
        0
 48
134.9999961853027
370
    25
100
AcDbLine
 10
37375.6311544495
 20
-21984.85684200653
 30
0.0
 11
37362.25090601534
 21
-22007.21735811159
 31
0.0
  0
LINE
  5
1CE
330
1F
100
AcDbEntity
  8
Calm 820
  6
Continuous
 62
    18
420
        0
 48
134.9999961853027
370
    25
100
AcDbLine
 10
37351.80836559508
 20
-22007.22067787778
 30
0.0
 11
37338.42784403307
 21
-21984.8614614022
 31
0.0
  0
LINE
  5
1CF
330
1F
100
AcDbEntity
  8
Calm 820
  6
Continuous
 62
    18
420
        0
 48
134.9999961853027
370
    25
100
AcDbLine
 10
37338.42784403307
 20
-21984.8614614022
 30
0.0
 11
37338.42684945552
 21
-22011.85671371053
 31
0.0
  0
LINE
  5
1D0
330
1F
100
AcDbEntity
  8
Calm 820
  6
Continuous
 62
    18
420
        0
 48
134.9999961853027
370
    25
100
AcDbLine
 10
37338.42684945552
 20
-22011.85671371053
 30
0.0
 11
37328.41234394776
 21
-22011.85546461772
 31
0.0
  0
LINE
  5
1D1
330
1F
100
AcDbEntity
  8
Calm 820
  6
Continuous
 62
    18
420
        0
 48
50.00000038146973
370
    25
100
AcDbLine
 10
37269.53584427306
 20
-22131.33520455484
 30
0.0
 11
38017.53584427306
 21
-22131.33520455484
 31
0.0
  0
ARC
  5
1D2
330
1F
100
AcDbEntity
  8
Calm 820
  6
Continuous
 62
    18
420
        0
 48
134.9999961853027
370
    25
100
AcDbCircle
 10
37430.18452725624
 20
-21988.69466579076
 30
0.0
 40
37.55398438214829
100
AcDbArc
 50
37.92296160428415
 51
142.0844570672982
  0
ARC
  5
1D3
330
1F
100
AcDbEntity
  8
Calm 820
  6
Continuous
 62
    18
420
        0
 48
134.9999961853027
370
    25
100
AcDbCircle
 10
37430.17896603475
 20
-21988.70349817565
 30
0.0
 40
37.55611059183879
100
AcDbArc
 50
158.3926594912004
 51
173.0089805633589
  0
ARC
  5
1D4
330
1F
100
AcDbEntity
  8
Calm 820
  6
Continuous
 62
    18
420
        0
 48
134.9999961853027
370
    25
100
AcDbCircle
 10
37430.20232913128
 20
-21988.69244272719
 30
0.0
 40
37.53643020333413
100
AcDbArc
 50
6.981142041194704
 51
21.59749032313708
  0
ARC
  5
1D5
330
1F
100
AcDbEntity
  8
Calm 820
  6
Continuous
 62
    18
420
        0
 48
134.9999961853027
370
    25
100
AcDbCircle
 10
37430.1963833934
 20
-21988.68397850371
 30
0.0
 40
37.57211143798643
100
AcDbArc
 50
186.9964645332833
 51
201.6127039760886
  0
ARC
  5
1D6
330
1F
100
AcDbEntity
  8
Calm 820
  6
Continuous
 62
    18
420
        0
 48
134.9999961853027
370
    25
100
AcDbCircle
 10
37430.17641035601
 20
-21988.68606258777
 30
0.0
 40
37.56504125774832
100
AcDbArc
 50
338.3961344461862
 51
353.012455518345
  0
ARC
  5
1D7
330
1F
100
AcDbEntity
  8
Calm 820
  6
Continuous
 62
    18
420
        0
 48
134.9999961853027
370
    25
100
AcDbCircle
 10
37430.18372386945
 20
-21988.69604350034
 30
0.0
 40
37.55697965863395
100
AcDbArc
 50
217.9190317150191
 51
322.080968284981
  0
ARC
  5
1D8
330
1F
100
AcDbEntity
  8
Calm 820
  6
Continuous
 62
    18
420
        0
 48
134.9999961853027
370
    25
100
AcDbCircle
 10
37510.47246154557
 20
-21997.91164197423
 30
0.0
 40
13.95713381799846
100
AcDbArc
 50
268.4355638780455
 51
91.57954040753705
  0
ARC
  5
1D9
330
1F
100
AcDbEntity
  8
Calm 820
  6
Continuous
 62
    18
420
        0
 48
134.9999961853027
370
    25
100
AcDbCircle
 10
37487.57056377169
 20
-21979.60986400325
 30
0.0
 40
4.37341537243076
100
AcDbArc
 50
99.08716097409676
 51
263.677032393072
  0
ARC
  5
1DA
330
1F
100
AcDbEntity
  8
Calm 820
  6
Continuous
 62
    18
420
        0
 48
134.9999961853027
370
    25
100
AcDbCircle
 10
37486.49935349983
 20
-21979.62578473428
 30
0.0
 40
13.94785666080328
100
AcDbArc
 50
88.43570681812272
 51
271.5793910633276
  0
ARC
  5
1DB
330
1F
100
AcDbEntity
  8
Calm 820
  6
Continuous
 62
    18
420
        0
 48
134.9999961853027
370
    25
100
AcDbCircle
 10
37509.39950808669
 20
-21997.93369404572
 30
0.0
 40
4.375114513013975
100
AcDbArc
 50
279.0717992649418
 51
83.6603383757033
  0
ARC
  5
1DC
330
1F
100
AcDbEntity
  8
Calm 820
  6
Continuous
 62
    18
420
        0
 48
134.9999961853027
370
    25
100
AcDbCircle
 10
37551.05761754222
 20
-21989.93749531847
 30
0.0
 40
12.31997136940636
100
AcDbArc
 50
196.5322763668841
 51
266.8258399252975
  0
ARC
  5
1DD
330
1F
100
AcDbEntity
  8
Calm 820
  6
Continuous
 62
    18
420
        0
 48
134.9999961853027
370
    25
100
AcDbCircle
 10
37551.05929128946
 20
-21987.33886850503
 30
0.0
 40
12.31982140004576
100
AcDbArc
 50
93.19941229080888
 51
163.4930068869733
  0
ARC
  5
1DE
330
1F
100
AcDbEntity
  8
Calm 820
  6
Continuous
 62
    18
420
        0
 48
134.9999961853027
370
    25
100
AcDbCircle
 10
37550.04251567698
 20
-21987.04449928698
 30
0.0
 40
21.61704243114156
100
AcDbArc
 50
89.11486442916684
 51
136.5283713875557
  0
ARC
  5
1DF
330
1F
100
AcDbEntity
  8
Calm 820
  6
Continuous
 62
    18
420
        0
 48
134.9999961853027
370
    25
100
AcDbCircle
 10
37551.78733146616
 20
-21987.24101023758
 30
0.0
 40
23.04277337332523
100
AcDbArc
 50
139.1595473476376
 51
183.4766818662686
  0
ARC
  5
1E0
330
1F
100
AcDbEntity
  8
Calm 820
  6
Continuous
 62
    18
420
        0
 48
134.9999961853027
370
    25
100
AcDbCircle
 10
37551.7877459423
 20
-21990.03544183682
 30
0.0
 40
23.04316873492309
100
AcDbArc
 50
176.52413179769
 51
220.8411051562291
  0
ARC
  5
1E1
330
1F
100
AcDbEntity
  8
Calm 820
  6
Continuous
 62
    18
420
        0
 48
134.9999961853027
370
    25
100
AcDbCircle
 10
37550.04165213531
 20
-21990.23077691464
 30
0.0
 40
21.6173310298274
100
AcDbArc
 50
223.4768675460017
 51
270.8902371222274
  0
ARC
  5
1E2
330
1F
100
AcDbEntity
  8
Calm 820
  6
Continuous
 62
    18
420
        0
 48
134.9999961853027
370
    25
100
AcDbCircle
 10
37621.97405985746
 20
-21979.60782472556
 30
0.0
 40
4.372361139089873
100
AcDbArc
 50
279.0895312175861
 51
83.67533595583488
  0
ARC
  5
1E3
330
1F
100
AcDbEntity
  8
Calm 820
  6
Continuous
 62
    18
420
        0
 48
134.9999961853027
370
    25
100
AcDbCircle
 10
37623.18974578632
 20
-21980.8439623585
 30
0.0
 40
12.7394851097
100
AcDbArc
 50
278.0073079506257
 51
5.572465930763843
  0
ARC
  5
1E4
330
1F
100
AcDbEntity
  8
Calm 820
  6
Continuous
 62
    18
420
        0
 48
134.9999961853027
370
    25
100
AcDbCircle
 10
37623.19289310978
 20
-21978.37734870822
 30
0.0
 40
12.73562521738147
100
AcDbArc
 50
354.4597953776586
 51
92.38467978670954
  0
ARC
  5
1E5
330
1F
100
AcDbEntity
  8
Calm 820
  6
Continuous
 62
    18
420
        0
 48
134.9999961853027
370
    25
100
AcDbCircle
 10
37334.85508051312
 20
-21971.67867070139
 30
0.0
 40
6.448488473775121
100
AcDbArc
 50
26.28899618673575
 51
181.2713443682091
  0
ARC
  5
1E6
330
1F
100
AcDbEntity
  8
Calm 820
  6
Continuous
 62
    18
420
        0
 48
134.9999961853027
370
    25
100
AcDbCircle
 10
37379.19984339337
 20
-21971.67745955456
 30
0.0
 40
6.446701665065165
100
AcDbArc
 50
358.7364020576953
 51
153.7147532945604
  0
ARC
  5
1E7
330
1F
100
AcDbEntity
  8
Calm 820
  6
Continuous
 62
    18
420
        0
 48
134.9999961853027
370
    25
100
AcDbCircle
 10
37357.02888097124
 20
-22004.84463865855
 30
0.0
 40
5.735794902544429
100
AcDbArc
 50
204.4719426219853
 51
335.5644869397248
  0
TEXT
  5
1E9
330
1F
100
AcDbEntity
  8
Calm 820
  6
Continuous
 62
    18
420
        0
 48
755.9999786376953
370
    25
100
AcDbText
 10
37732.96145123569
 20
-21986.47886520526
 30
0.0
 40
38.4
  1
Moser GmbH
 41
0.8125
  7
HLV-L
100
AcDbText
  0
TEXT
  5
1EA
330
1F
100
AcDbEntity
  8
Calm 820
  6
Continuous
 62
    18
420
        0
 48
755.9999786376953
370
    25
100
AcDbText
 10
37732.96145123569
 20
-22027.72882395526
 30
0.0
 40
38.4
  1
Im Mühlegrün 13
 41
0.8125
  7
HLV-L
100
AcDbText
  0
TEXT
  5
1EB
330
1F
100
AcDbEntity
  8
Calm 820
  6
Continuous
 62
    18
420
        0
 48
755.9999786376953
370
    25
100
AcDbText
 10
37732.96145123569
 20
-22068.97878270526
 30
0.0
 40
38.4
  1
77716 Haslach
 41
0.8125
  7
HLV-L
100
AcDbText
  0
TEXT
  5
1EC
330
1F
100
AcDbEntity
  8
Calm 820
  6
Continuous
 62
    18
420
        0
 48
755.9999786376953
370
    25
100
AcDbText
 10
37732.96145123569
 20
-22110.22874145526
 30
0.0
 40
38.4
  1
www.moser.gmbh
 41
0.8125
  7
HLV-L
100
AcDbText
  0
TEXT
  5
1ED
330
1F
100
AcDbEntity
  8
Calm 820
  6
Continuous
 62
    18
420
        0
 48
34.72222046852112
370
    25
100
AcDbText
 10
37272.14625794149
 20
-21824.3836516203
 30
0.0
 40
40.0
  1
Calm 820
 41
0.8125
  7
ARIAL
100
AcDbText
  0
TEXT
  5
1EF
330
1F
100
AcDbEntity
  8
Calm 820
  6
Continuous
 62
    18
420
        0
 48
14.12239682674408
370
    25
100
AcDbText
 10
37326.00751724903
 20
-22089.60974808712
 30
0.0
 40
21.72839828681946
  1
Mineralwerkstoffe
 41
0.8125
  7
HELV-HFT
100
AcDbText
  0
INSERT
  5
1F4
330
1F
100
AcDbEntity
  8
Calm 831
  6
Continuous
 62
    18
420
        0
 48
50.00000038146973
370
    25
100
AcDbBlockReference
  2
Dimension24
 10
0.0
 20
0.0
 30
0.0
  0
INSERT
  5
1F8
330
1F
100
AcDbEntity
  8
Calm 831
  6
Continuous
 62
    18
420
        0
 48
50.00000038146973
370
    25
100
AcDbBlockReference
  2
Dimension25
 10
0.0
 20
0.0
 30
0.0
  0
INSERT
  5
1FC
330
1F
100
AcDbEntity
  8
Calm 831
  6
Continuous
 62
    18
420
        0
 48
50.00000038146973
370
    25
100
AcDbBlockReference
  2
Dimension26
 10
0.0
 20
0.0
 30
0.0
  0
INSERT
  5
200
330
1F
100
AcDbEntity
  8
Calm 831
  6
Continuous
 62
    18
420
        0
 48
50.00000038146973
370
    25
100
AcDbBlockReference
  2
Dimension27
 10
0.0
 20
0.0
 30
0.0
  0
INSERT
  5
204
330
1F
100
AcDbEntity
  8
Calm 831
  6
Continuous
 62
    18
420
        0
 48
50.00000038146973
370
    25
100
AcDbBlockReference
  2
Dimension28
 10
0.0
 20
0.0
 30
0.0
  0
INSERT
  5
208
330
1F
100
AcDbEntity
  8
Calm 831
  6
Continuous
 62
    18
420
        0
 48
50.00000038146973
370
    25
100
AcDbBlockReference
  2
Dimension29
 10
0.0
 20
0.0
 30
0.0
  0
INSERT
  5
20C
330
1F
100
AcDbEntity
  8
Calm 831
  6
Continuous
 62
    18
420
        0
 48
50.00000038146973
370
    25
100
AcDbBlockReference
  2
Dimension30
 10
0.0
 20
0.0
 30
0.0
  0
INSERT
  5
210
330
1F
100
AcDbEntity
  8
Calm 831
  6
Continuous
 62
    18
420
        0
 48
50.00000038146973
370
    25
100
AcDbBlockReference
  2
Dimension31
 10
0.0
 20
0.0
 30
0.0
  0
INSERT
  5
214
330
1F
100
AcDbEntity
  8
Calm 831
  6
Continuous
 62
    18
420
        0
 48
50.00000038146973
370
    25
100
AcDbBlockReference
  2
Dimension32
 10
0.0
 20
0.0
 30
0.0
  0
INSERT
  5
218
330
1F
100
AcDbEntity
  8
Calm 831
  6
Continuous
 62
    18
420
        0
 48
50.00000038146973
370
    25
100
AcDbBlockReference
  2
Dimension33
 10
0.0
 20
0.0
 30
0.0
  0
INSERT
  5
21C
330
1F
100
AcDbEntity
  8
Calm 831
  6
Continuous
 62
    18
420
        0
 48
50.00000038146973
370
    25
100
AcDbBlockReference
  2
Dimension34
 10
0.0
 20
0.0
 30
0.0
  0
INSERT
  5
220
330
1F
100
AcDbEntity
  8
Calm 831
  6
Continuous
 62
    18
420
        0
 48
50.00000038146973
370
    25
100
AcDbBlockReference
  2
Dimension35
 10
0.0
 20
0.0
 30
0.0
  0
INSERT
  5
224
330
1F
100
AcDbEntity
  8
Calm 831
  6
Continuous
 62
    18
420
        0
 48
50.00000038146973
370
    25
100
AcDbBlockReference
  2
Dimension36
 10
0.0
 20
0.0
 30
0.0
  0
INSERT
  5
228
330
1F
100
AcDbEntity
  8
Calm 831
  6
Continuous
 62
    18
420
        0
 48
50.00000038146973
370
    25
100
AcDbBlockReference
  2
Dimension37
 10
0.0
 20
0.0
 30
0.0
  0
INSERT
  5
22C
330
1F
100
AcDbEntity
  8
Calm 831
  6
Continuous
 62
    18
420
        0
 48
50.00000038146973
370
    25
100
AcDbBlockReference
  2
Dimension38
 10
0.0
 20
0.0
 30
0.0
  0
INSERT
  5
230
330
1F
100
AcDbEntity
  8
Calm 831
  6
Continuous
 62
    18
420
        0
 48
50.00000038146973
370
    25
100
AcDbBlockReference
  2
Dimension39
 10
0.0
 20
0.0
 30
0.0
  0
INSERT
  5
234
330
1F
100
AcDbEntity
  8
Calm 831
  6
Continuous
 62
    18
420
        0
 48
50.00000038146973
370
    25
100
AcDbBlockReference
  2
Dimension40
 10
0.0
 20
0.0
 30
0.0
  0
ENDSEC
  0
SECTION
  2
OBJECTS
  0
DICTIONARY
  5
C
330
0
100
AcDbDictionary
281
     1
  3
ACAD_GROUP
350
D
  3
ACAD_LAYOUT
350
1A
  3
ACAD_MATERIAL
350
3B
  3
ACAD_MLEADERSTYLE
350
282
  3
ACAD_MLINESTYLE
350
17
  3
ACAD_PLOTSETTINGS
350
19
  3
ACAD_PLOTSTYLENAME
350
E
  3
ACAD_SCALELIST
350
235
  3
ACAD_TABLESTYLE
350
281
  3
ACAD_VISUALSTYLE
350
2A
  3
AcDbVariableDictionary
350
259
  0
DICTIONARY
  5
D
102
{ACAD_REACTORS
330
C
102
}
330
C
100
AcDbDictionary
281
     1
  0
DICTIONARY
  5
1A
102
{ACAD_REACTORS
330
C
102
}
330
C
100
AcDbDictionary
281
     1
  3
Layout1
350
1E
  3
Layout2
350
26
  3
Model
350
22
  0
DICTIONARY
  5
3B
102
{ACAD_REACTORS
330
C
102
}
330
C
100
AcDbDictionary
281
     1
  3
ByBlock
350
3D
  3
ByLayer
350
3C
  3
Global
350
3E
  0
DICTIONARY
  5
282
102
{ACAD_REACTORS
330
C
102
}
330
C
100
AcDbDictionary
281
     1
  0
DICTIONARY
  5
17
102
{ACAD_REACTORS
330
C
102
}
330
C
100
AcDbDictionary
281
     1
  3
Standard
350
18
  0
DICTIONARY
  5
19
102
{ACAD_REACTORS
330
C
102
}
330
C
100
AcDbDictionary
281
     1
  0
ACDBDICTIONARYWDFLT
  5
E
102
{ACAD_REACTORS
330
C
102
}
330
C
100
AcDbDictionary
281
     1
  3
Normal
350
F
100
AcDbDictionaryWithDefault
340
F
  0
DICTIONARY
  5
235
102
{ACAD_REACTORS
330
C
102
}
330
C
100
AcDbDictionary
281
     1
  3
A0
350
236
  3
A1
350
237
  3
A2
350
238
  3
A3
350
239
  3
A4
350
23A
  3
A5
350
23B
  3
A6
350
23C
  3
A7
350
23D
  3
A8
350
23E
  3
A9
350
23F
  3
B0
350
240
  3
B1
350
241
  3
B2
350
242
  3
B3
350
243
  3
B4
350
244
  3
B5
350
245
  3
B6
350
246
  3
B7
350
247
  3
B8
350
248
  3
B9
350
249
  3
C0
350
24A
  3
C1
350
24B
  3
C2
350
24C
  3
C3
350
24D
  3
C4
350
24E
  3
C5
350
24F
  3
C6
350
250
  3
C7
350
251
  3
C8
350
252
  3
C9
350
253
  3
D0
350
254
  3
D1
350
255
  3
D2
350
256
  0
DICTIONARY
  5
281
102
{ACAD_REACTORS
330
C
102
}
330
C
100
AcDbDictionary
281
     1
  0
DICTIONARY
  5
2A
102
{ACAD_REACTORS
330
C
102
}
330
C
100
AcDbDictionary
281
     1
  3
2dWireframe
350
2F
  3
3D Hidden
350
31
  3
3dWireframe
350
30
  3
Basic
350
32
  3
Brighten
350
36
  3
ColorChange
350
3A
  3
Conceptual
350
34
  3
Dim
350
35
  3
Facepattern
350
39
  3
Flat
350
2B
  3
FlatWithEdges
350
2C
  3
Gouraud
350
2D
  3
GouraudWithEdges
350
2E
  3
Linepattern
350
38
  3
Realistic
350
33
  3
Thicken
350
37
  0
DICTIONARY
  5
259
102
{ACAD_REACTORS
330
C
102
}
330
C
100
AcDbDictionary
281
     1
  3
CANNOSCALE
350
25A
  0
LAYOUT
  5
1E
102
{ACAD_REACTORS
330
1A
102
}
330
1A
100
AcDbPlotSettings
  1

  2
none_device
  4

  6

 40
0.0
 41
0.0
 42
0.0
 43
0.0
 44
0.0
 45
0.0
 46
0.0
 47
0.0
 48
0.0
 49
0.0
140
0.0
141
0.0
142
1.0
143
1.0
 70
   688
 72
     0
 73
     0
 74
     5
  7

 75
    16
 76
     0
 77
     2
 78
   300
147
1.0
148
0.0
149
0.0
100
AcDbLayout
  1
Layout1
 70
     1
 71
     1
 10
0.0
 20
0.0
 11
420.0
 21
297.0
 12
0.0
 22
0.0
 32
0.0
 14
1.000000000000000E+20
 24
1.000000000000000E+20
 34
1.000000000000000E+20
 15
-1.000000000000000E+20
 25
-1.000000000000000E+20
 35
-1.000000000000000E+20
146
0.0
 13
0.0
 23
0.0
 33
0.0
 16
1.0
 26
0.0
 36
0.0
 17
0.0
 27
1.0
 37
0.0
 76
     0
330
1B
  0
LAYOUT
  5
26
102
{ACAD_REACTORS
330
1A
102
}
330
1A
100
AcDbPlotSettings
  1

  2
none_device
  4

  6

 40
0.0
 41
0.0
 42
0.0
 43
0.0
 44
0.0
 45
0.0
 46
0.0
 47
0.0
 48
0.0
 49
0.0
140
0.0
141
0.0
142
1.0
143
1.0
 70
   688
 72
     0
 73
     0
 74
     5
  7

 75
    16
 76
     0
 77
     2
 78
   300
147
1.0
148
0.0
149
0.0
100
AcDbLayout
  1
Layout2
 70
     1
 71
     2
 10
0.0
 20
0.0
 11
0.0
 21
0.0
 12
0.0
 22
0.0
 32
0.0
 14
0.0
 24
0.0
 34
0.0
 15
0.0
 25
0.0
 35
0.0
146
0.0
 13
0.0
 23
0.0
 33
0.0
 16
1.0
 26
0.0
 36
0.0
 17
0.0
 27
1.0
 37
0.0
 76
     0
330
23
  0
LAYOUT
  5
22
102
{ACAD_REACTORS
330
1A
102
}
330
1A
100
AcDbPlotSettings
  1

  2
none_device
  4

  6

 40
0.0
 41
0.0
 42
0.0
 43
0.0
 44
0.0
 45
0.0
 46
0.0
 47
0.0
 48
0.0
 49
0.0
140
0.0
141
0.0
142
1.0
143
1.0
 70
  1712
 72
     0
 73
     0
 74
     0
  7

 75
     0
 76
     0
 77
     2
 78
   300
147
1.0
148
0.0
149
0.0
100
AcDbLayout
  1
Model
 70
     1
 71
     0
 10
0.0
 20
0.0
 11
420.0
 21
297.0
 12
0.0
 22
0.0
 32
0.0
 14
72706.39797439399
 24
-43757.67058749446
 34
0.0
 15
74857.42331585368
 25
-42322.67058139095
 35
0.0
146
0.0
 13
0.0
 23
0.0
 33
0.0
 16
1.0
 26
0.0
 36
0.0
 17
0.0
 27
1.0
 37
0.0
 76
     0
330
1F
331
29
  0
MATERIAL
  5
3D
102
{ACAD_REACTORS
330
3B
102
}
102
{ACAD_XDICTIONARY
360
27D
102
}
330
3B
100
AcDbMaterial
  1
ByBlock
  0
MATERIAL
  5
3C
102
{ACAD_REACTORS
330
3B
102
}
102
{ACAD_XDICTIONARY
360
27B
102
}
330
3B
100
AcDbMaterial
  1
ByLayer
  0
MATERIAL
  5
3E
102
{ACAD_REACTORS
330
3B
102
}
102
{ACAD_XDICTIONARY
360
27F
102
}
330
3B
100
AcDbMaterial
  1
Global
  0
MLINESTYLE
  5
18
102
{ACAD_REACTORS
330
17
102
}
330
17
100
AcDbMlineStyle
  2
Standard
 70
     0
  3

 62
   256
 51
90.0
 52
90.0
 71
     2
 49
0.5
 62
   256
  6
BYLAYER
 49
-0.5
 62
   256
  6
BYLAYER
  0
ACDBPLACEHOLDER
  5
F
102
{ACAD_REACTORS
330
E
102
}
330
E
  0
SCALE
  5
236
102
{ACAD_REACTORS
330
235
102
}
330
235
100
AcDbScale
 70
     0
300
1:1
140
1.0
141
1.0
290
     1
  0
SCALE
  5
237
102
{ACAD_REACTORS
330
235
102
}
330
235
100
AcDbScale
 70
     0
300
1:2
140
1.0
141
2.0
290
     0
  0
SCALE
  5
238
102
{ACAD_REACTORS
330
235
102
}
330
235
100
AcDbScale
 70
     0
300
1:4
140
1.0
141
4.0
290
     0
  0
SCALE
  5
239
102
{ACAD_REACTORS
330
235
102
}
330
235
100
AcDbScale
 70
     0
300
1:5
140
1.0
141
5.0
290
     0
  0
SCALE
  5
23A
102
{ACAD_REACTORS
330
235
102
}
330
235
100
AcDbScale
 70
     0
300
1:8
140
1.0
141
8.0
290
     0
  0
SCALE
  5
23B
102
{ACAD_REACTORS
330
235
102
}
330
235
100
AcDbScale
 70
     0
300
1:10
140
1.0
141
10.0
290
     0
  0
SCALE
  5
23C
102
{ACAD_REACTORS
330
235
102
}
330
235
100
AcDbScale
 70
     0
300
1:16
140
1.0
141
16.0
290
     0
  0
SCALE
  5
23D
102
{ACAD_REACTORS
330
235
102
}
330
235
100
AcDbScale
 70
     0
300
1:20
140
1.0
141
20.0
290
     0
  0
SCALE
  5
23E
102
{ACAD_REACTORS
330
235
102
}
330
235
100
AcDbScale
 70
     0
300
1:30
140
1.0
141
30.0
290
     0
  0
SCALE
  5
23F
102
{ACAD_REACTORS
330
235
102
}
330
235
100
AcDbScale
 70
     0
300
1:40
140
1.0
141
40.0
290
     0
  0
SCALE
  5
240
102
{ACAD_REACTORS
330
235
102
}
330
235
100
AcDbScale
 70
     0
300
1:50
140
1.0
141
50.0
290
     0
  0
SCALE
  5
241
102
{ACAD_REACTORS
330
235
102
}
330
235
100
AcDbScale
 70
     0
300
1:100
140
1.0
141
100.0
290
     0
  0
SCALE
  5
242
102
{ACAD_REACTORS
330
235
102
}
330
235
100
AcDbScale
 70
     0
300
2:1
140
2.0
141
1.0
290
     0
  0
SCALE
  5
243
102
{ACAD_REACTORS
330
235
102
}
330
235
100
AcDbScale
 70
     0
300
4:1
140
4.0
141
1.0
290
     0
  0
SCALE
  5
244
102
{ACAD_REACTORS
330
235
102
}
330
235
100
AcDbScale
 70
     0
300
8:1
140
8.0
141
1.0
290
     0
  0
SCALE
  5
245
102
{ACAD_REACTORS
330
235
102
}
330
235
100
AcDbScale
 70
     0
300
10:1
140
10.0
141
1.0
290
     0
  0
SCALE
  5
246
102
{ACAD_REACTORS
330
235
102
}
330
235
100
AcDbScale
 70
     0
300
100:1
140
100.0
141
1.0
290
     0
  0
SCALE
  5
247
102
{ACAD_REACTORS
330
235
102
}
330
235
100
AcDbScale
 70
     0
300
1/128" = 1'-0"
140
0.0078125
141
12.0
290
     0
  0
SCALE
  5
248
102
{ACAD_REACTORS
330
235
102
}
330
235
100
AcDbScale
 70
     0
300
1/64" = 1'-0"
140
0.015625
141
12.0
290
     0
  0
SCALE
  5
249
102
{ACAD_REACTORS
330
235
102
}
330
235
100
AcDbScale
 70
     0
300
1/32" = 1'-0"
140
0.03125
141
12.0
290
     0
  0
SCALE
  5
24A
102
{ACAD_REACTORS
330
235
102
}
330
235
100
AcDbScale
 70
     0
300
1/16" = 1'-0"
140
0.0625
141
12.0
290
     0
  0
SCALE
  5
24B
102
{ACAD_REACTORS
330
235
102
}
330
235
100
AcDbScale
 70
     0
300
3/32" = 1'-0"
140
0.09375
141
12.0
290
     0
  0
SCALE
  5
24C
102
{ACAD_REACTORS
330
235
102
}
330
235
100
AcDbScale
 70
     0
300
1/8" = 1'-0"
140
0.125
141
12.0
290
     0
  0
SCALE
  5
24D
102
{ACAD_REACTORS
330
235
102
}
330
235
100
AcDbScale
 70
     0
300
3/16" = 1'-0"
140
0.1875
141
12.0
290
     0
  0
SCALE
  5
24E
102
{ACAD_REACTORS
330
235
102
}
330
235
100
AcDbScale
 70
     0
300
1/4" = 1'-0"
140
0.25
141
12.0
290
     0
  0
SCALE
  5
24F
102
{ACAD_REACTORS
330
235
102
}
330
235
100
AcDbScale
 70
     0
300
3/8" = 1'-0"
140
0.375
141
12.0
290
     0
  0
SCALE
  5
250
102
{ACAD_REACTORS
330
235
102
}
330
235
100
AcDbScale
 70
     0
300
1/2" = 1'-0"
140
0.5
141
12.0
290
     0
  0
SCALE
  5
251
102
{ACAD_REACTORS
330
235
102
}
330
235
100
AcDbScale
 70
     0
300
3/4" = 1'-0"
140
0.75
141
12.0
290
     0
  0
SCALE
  5
252
102
{ACAD_REACTORS
330
235
102
}
330
235
100
AcDbScale
 70
     0
300
1" = 1'-0"
140
1.0
141
12.0
290
     0
  0
SCALE
  5
253
102
{ACAD_REACTORS
330
235
102
}
330
235
100
AcDbScale
 70
     0
300
1-1/2" = 1'-0"
140
1.5
141
12.0
290
     0
  0
SCALE
  5
254
102
{ACAD_REACTORS
330
235
102
}
330
235
100
AcDbScale
 70
     0
300
3" = 1'-0"
140
3.0
141
12.0
290
     0
  0
SCALE
  5
255
102
{ACAD_REACTORS
330
235
102
}
330
235
100
AcDbScale
 70
     0
300
6" = 1'-0"
140
6.0
141
12.0
290
     0
  0
SCALE
  5
256
102
{ACAD_REACTORS
330
235
102
}
330
235
100
AcDbScale
 70
     0
300
1'-0" = 1'-0"
140
12.0
141
12.0
290
     0
  0
VISUALSTYLE
  5
2F
102
{ACAD_REACTORS
330
2A
102
}
102
{ACAD_XDICTIONARY
360
263
102
}
330
2A
100
AcDbVisualStyle
  2
2dWireframe
 70
     4
 71
     0
 72
     2
 73
     0
 90
        0
 40
-0.6
 41
-30.0
 62
     5
 63
     7
421
 16777215
 74
     1
 91
        4
 64
     7
 65
   257
 75
     1
175
     1
 42
1.0
 92
        0
 66
   257
 43
1.0
 76
     1
 77
     6
 78
     2
 67
     7
 79
     5
170
     0
171
     0
290
     0
174
     0
 93
        1
 44
0.0
173
     0
291
     0
 45
0.0
1001
ACAD
1000
AcDbSavedByObjectVersion
1070
     0
  0
VISUALSTYLE
  5
31
102
{ACAD_REACTORS
330
2A
102
}
102
{ACAD_XDICTIONARY
360
267
102
}
330
2A
100
AcDbVisualStyle
  2
3D Hidden
 70
     6
 71
     1
 72
     2
 73
     2
 90
        0
 40
-0.6
 41
-30.0
 62
     5
 63
     7
421
 16777215
 74
     2
 91
        2
 64
     7
 65
   257
 75
     2
175
     1
 42
40.0
 92
        0
 66
   257
 43
1.0
 76
     1
 77
     6
 78
     2
 67
     7
 79
     3
170
     0
171
     0
290
     0
174
     0
 93
        1
 44
0.0
173
     0
291
     0
 45
0.0
1001
ACAD
1000
AcDbSavedByObjectVersion
1070
     0
  0
VISUALSTYLE
  5
30
102
{ACAD_REACTORS
330
2A
102
}
102
{ACAD_XDICTIONARY
360
265
102
}
330
2A
100
AcDbVisualStyle
  2
3dWireframe
 70
     5
 71
     0
 72
     2
 73
     0
 90
        0
 40
-0.6
 41
-30.0
 62
     5
 63
     7
421
 16777215
 74
     1
 91
        4
 64
     7
 65
   257
 75
     1
175
     1
 42
1.0
 92
        0
 66
   257
 43
1.0
 76
     1
 77
     6
 78
     2
 67
     7
 79
     5
170
     0
171
     0
290
     0
174
     0
 93
        1
 44
0.0
173
     0
291
     0
 45
0.0
1001
ACAD
1000
AcDbSavedByObjectVersion
1070
     0
  0
VISUALSTYLE
  5
32
102
{ACAD_REACTORS
330
2A
102
}
102
{ACAD_XDICTIONARY
360
269
102
}
330
2A
100
AcDbVisualStyle
  2
Basic
 70
     7
 71
     1
 72
     0
 73
     1
 90
        0
 40
-0.6
 41
-30.0
 62
     5
 63
     7
421
 16777215
 74
     0
 91
        4
 64
     7
 65
   257
 75
     1
175
     1
 42
1.0
 92
        8
 66
     7
 43
1.0
 76
     1
 77
     6
 78
     2
 67
     7
 79
     5
170
     0
171
     0
290
     0
174
     0
 93
        1
 44
0.0
173
     0
291
     1
 45
0.0
1001
ACAD
1000
AcDbSavedByObjectVersion
1070
     0
  0
VISUALSTYLE
  5
36
102
{ACAD_REACTORS
330
2A
102
}
102
{ACAD_XDICTIONARY
360
271
102
}
330
2A
100
AcDbVisualStyle
  2
Brighten
 70
    12
 71
     2
 72
     2
 73
     0
 90
        0
 40
-0.6
 41
-30.0
 62
     5
 63
     7
421
 16777215
 74
     1
 91
        4
 64
     7
 65
   257
 75
     1
175
     1
 42
1.0
 92
        8
 66
     7
 43
1.0
 76
     1
 77
     6
 78
     2
 67
     7
 79
     5
170
     0
171
     0
290
     0
174
     0
 93
        1
 44
50.0
173
     0
291
     1
 45
0.0
1001
ACAD
1000
AcDbSavedByObjectVersion
1070
     0
  0
VISUALSTYLE
  5
3A
102
{ACAD_REACTORS
330
2A
102
}
102
{ACAD_XDICTIONARY
360
279
102
}
330
2A
100
AcDbVisualStyle
  2
ColorChange
 70
    16
 71
     2
 72
     2
 73
     3
 90
        0
 40
-0.6
 41
-30.0
 62
     5
 63
     8
421
  8421504
 74
     1
 91
        4
 64
     7
 65
   257
 75
     1
175
     1
 42
1.0
 92
        8
 66
     8
424
  8421504
 43
1.0
 76
     1
 77
     6
 78
     2
 67
     7
 79
     5
170
     0
171
     0
290
     0
174
     0
 93
        1
 44
0.0
173
     0
291
     1
 45
0.0
1001
ACAD
1000
AcDbSavedByObjectVersion
1070
     0
  0
VISUALSTYLE
  5
34
102
{ACAD_REACTORS
330
2A
102
}
102
{ACAD_XDICTIONARY
360
26D
102
}
330
2A
100
AcDbVisualStyle
  2
Conceptual
 70
     9
 71
     3
 72
     2
 73
     0
 90
        0
 40
-0.6
 41
-30.0
 62
     5
 63
     7
421
 16777215
 74
     2
 91
        2
 64
     7
 65
   257
 75
     1
175
     1
 42
40.0
 92
        8
 66
     7
 43
1.0
 76
     1
 77
     6
 78
     2
 67
     7
 79
     3
170
     0
171
     0
290
     0
174
     0
 93
        1
 44
0.0
173
     0
291
     0
 45
0.0
1001
ACAD
1000
AcDbSavedByObjectVersion
1070
     0
  0
VISUALSTYLE
  5
35
102
{ACAD_REACTORS
330
2A
102
}
102
{ACAD_XDICTIONARY
360
26F
102
}
330
2A
100
AcDbVisualStyle
  2
Dim
 70
    11
 71
     2
 72
     2
 73
     0
 90
        0
 40
-0.6
 41
-30.0
 62
     5
 63
     7
421
 16777215
 74
     1
 91
        4
 64
     7
 65
   257
 75
     1
175
     1
 42
1.0
 92
        8
 66
     7
 43
1.0
 76
     1
 77
     6
 78
     2
 67
     7
 79
     5
170
     0
171
     0
290
     0
174
     0
 93
        1
 44
-50.0
173
     0
291
     1
 45
0.0
1001
ACAD
1000
AcDbSavedByObjectVersion
1070
     0
  0
VISUALSTYLE
  5
39
102
{ACAD_REACTORS
330
2A
102
}
102
{ACAD_XDICTIONARY
360
277
102
}
330
2A
100
AcDbVisualStyle
  2
Facepattern
 70
    15
 71
     2
 72
     2
 73
     0
 90
        0
 40
-0.6
 41
-30.0
 62
     5
 63
     7
421
 16777215
 74
     1
 91
        4
 64
     7
 65
   257
 75
     1
175
     1
 42
1.0
 92
        8
 66
     7
 43
1.0
 76
     1
 77
     6
 78
     2
 67
     7
 79
     5
170
     0
171
     0
290
     0
174
     0
 93
        1
 44
0.0
173
     0
291
     1
 45
0.0
1001
ACAD
1000
AcDbSavedByObjectVersion
1070
     0
  0
VISUALSTYLE
  5
2B
102
{ACAD_REACTORS
330
2A
102
}
102
{ACAD_XDICTIONARY
360
25B
102
}
330
2A
100
AcDbVisualStyle
  2
Flat
 70
     0
 71
     2
 72
     1
 73
     1
 90
        2
 40
-0.6
 41
30.0
 62
     5
 63
     7
421
 16777215
 74
     0
 91
        4
 64
     7
 65
   257
 75
     1
175
     1
 42
1.0
 92
        8
 66
     7
 43
1.0
 76
     1
 77
     6
 78
     2
 67
     7
 79
     5
170
     0
171
     0
290
     0
174
     0
 93
       13
 44
0.0
173
     0
291
     1
 45
0.0
1001
ACAD
1000
AcDbSavedByObjectVersion
1070
     0
  0
VISUALSTYLE
  5
2C
102
{ACAD_REACTORS
330
2A
102
}
102
{ACAD_XDICTIONARY
360
25D
102
}
330
2A
100
AcDbVisualStyle
  2
FlatWithEdges
 70
     1
 71
     2
 72
     1
 73
     1
 90
        2
 40
-0.6
 41
30.0
 62
     5
 63
     7
421
 16777215
 74
     1
 91
        4
 64
     7
 65
   257
 75
     1
175
     1
 42
1.0
 92
        0
 66
   257
 43
1.0
 76
     1
 77
     6
 78
     2
 67
     7
 79
     5
170
     0
171
     0
290
     0
174
     0
 93
       13
 44
0.0
173
     0
291
     1
 45
0.0
1001
ACAD
1000
AcDbSavedByObjectVersion
1070
     0
  0
VISUALSTYLE
  5
2D
102
{ACAD_REACTORS
330
2A
102
}
102
{ACAD_XDICTIONARY
360
25F
102
}
330
2A
100
AcDbVisualStyle
  2
Gouraud
 70
     2
 71
     2
 72
     2
 73
     1
 90
        2
 40
-0.6
 41
30.0
 62
     5
 63
     7
421
 16777215
 74
     0
 91
        4
 64
     7
 65
   257
 75
     1
175
     1
 42
1.0
 92
        0
 66
     7
 43
1.0
 76
     1
 77
     6
 78
     2
 67
     7
 79
     5
170
     0
171
     0
290
     0
174
     0
 93
       13
 44
0.0
173
     0
291
     1
 45
0.0
1001
ACAD
1000
AcDbSavedByObjectVersion
1070
     0
  0
VISUALSTYLE
  5
2E
102
{ACAD_REACTORS
330
2A
102
}
102
{ACAD_XDICTIONARY
360
261
102
}
330
2A
100
AcDbVisualStyle
  2
GouraudWithEdges
 70
     3
 71
     2
 72
     2
 73
     1
 90
        2
 40
-0.6
 41
30.0
 62
     5
 63
     7
421
 16777215
 74
     1
 91
        4
 64
     7
 65
   257
 75
     1
175
     1
 42
1.0
 92
        0
 66
   257
 43
1.0
 76
     1
 77
     6
 78
     2
 67
     7
 79
     5
170
     0
171
     0
290
     0
174
     0
 93
       13
 44
0.0
173
     0
291
     1
 45
0.0
1001
ACAD
1000
AcDbSavedByObjectVersion
1070
     0
  0
VISUALSTYLE
  5
38
102
{ACAD_REACTORS
330
2A
102
}
102
{ACAD_XDICTIONARY
360
275
102
}
330
2A
100
AcDbVisualStyle
  2
Linepattern
 70
    14
 71
     2
 72
     2
 73
     0
 90
        0
 40
-0.6
 41
-30.0
 62
     5
 63
     7
421
 16777215
 74
     1
 91
        4
 64
     7
 65
   257
 75
     7
175
     7
 42
1.0
 92
        8
 66
     7
 43
1.0
 76
     1
 77
     6
 78
     2
 67
     7
 79
     5
170
     0
171
     0
290
     0
174
     0
 93
        1
 44
0.0
173
     0
291
     1
 45
0.0
1001
ACAD
1000
AcDbSavedByObjectVersion
1070
     0
  0
VISUALSTYLE
  5
33
102
{ACAD_REACTORS
330
2A
102
}
102
{ACAD_XDICTIONARY
360
26B
102
}
330
2A
100
AcDbVisualStyle
  2
Realistic
 70
     8
 71
     2
 72
     2
 73
     0
 90
        0
 40
-0.6
 41
-30.0
 62
     5
 63
     7
421
 16777215
 74
     1
 91
        0
 64
     7
 65
   257
 75
     1
175
     1
 42
1.0
 92
        8
 66
     8
424
  7895160
 43
1.0
 76
     1
 77
     6
 78
     2
 67
     7
 79
     5
170
     0
171
     0
290
     0
174
     0
 93
       13
 44
0.0
173
     0
291
     0
 45
0.0
1001
ACAD
1000
AcDbSavedByObjectVersion
1070
     0
  0
VISUALSTYLE
  5
37
102
{ACAD_REACTORS
330
2A
102
}
102
{ACAD_XDICTIONARY
360
273
102
}
330
2A
100
AcDbVisualStyle
  2
Thicken
 70
    13
 71
     2
 72
     2
 73
     0
 90
        0
 40
-0.6
 41
-30.0
 62
     5
 63
     7
421
 16777215
 74
     1
 91
        4
 64
     7
 65
   257
 75
     1
175
     1
 42
1.0
 92
       12
 66
     7
 43
1.0
 76
     1
 77
     6
 78
     2
 67
     7
 79
     5
170
     0
171
     0
290
     0
174
     0
 93
        1
 44
0.0
173
     0
291
     1
 45
0.0
1001
ACAD
1000
AcDbSavedByObjectVersion
1070
     0
  0
DICTIONARYVAR
  5
25A
102
{ACAD_REACTORS
330
259
102
}
330
259
100
DictionaryVariables
280
     0
  1
1:1
  0
DICTIONARY
  5
27D
330
3D
100
AcDbDictionary
280
     1
281
     1
  3
ACAD_XREC_ROUNDTRIP
360
27E
  0
DICTIONARY
  5
27B
330
3C
100
AcDbDictionary
280
     1
281
     1
  3
ACAD_XREC_ROUNDTRIP
360
27C
  0
DICTIONARY
  5
27F
330
3E
100
AcDbDictionary
280
     1
281
     1
  3
ACAD_XREC_ROUNDTRIP
360
280
  0
DICTIONARY
  5
263
330
2F
100
AcDbDictionary
280
     1
281
     1
  3
ACAD_XREC_ROUNDTRIP
360
264
  0
DICTIONARY
  5
267
330
31
100
AcDbDictionary
280
     1
281
     1
  3
ACAD_XREC_ROUNDTRIP
360
268
  0
DICTIONARY
  5
265
330
30
100
AcDbDictionary
280
     1
281
     1
  3
ACAD_XREC_ROUNDTRIP
360
266
  0
DICTIONARY
  5
269
330
32
100
AcDbDictionary
280
     1
281
     1
  3
ACAD_XREC_ROUNDTRIP
360
26A
  0
DICTIONARY
  5
271
330
36
100
AcDbDictionary
280
     1
281
     1
  3
ACAD_XREC_ROUNDTRIP
360
272
  0
DICTIONARY
  5
279
330
3A
100
AcDbDictionary
280
     1
281
     1
  3
ACAD_XREC_ROUNDTRIP
360
27A
  0
DICTIONARY
  5
26D
330
34
100
AcDbDictionary
280
     1
281
     1
  3
ACAD_XREC_ROUNDTRIP
360
26E
  0
DICTIONARY
  5
26F
330
35
100
AcDbDictionary
280
     1
281
     1
  3
ACAD_XREC_ROUNDTRIP
360
270
  0
DICTIONARY
  5
277
330
39
100
AcDbDictionary
280
     1
281
     1
  3
ACAD_XREC_ROUNDTRIP
360
278
  0
DICTIONARY
  5
25B
330
2B
100
AcDbDictionary
280
     1
281
     1
  3
ACAD_XREC_ROUNDTRIP
360
25C
  0
DICTIONARY
  5
25D
330
2C
100
AcDbDictionary
280
     1
281
     1
  3
ACAD_XREC_ROUNDTRIP
360
25E
  0
DICTIONARY
  5
25F
330
2D
100
AcDbDictionary
280
     1
281
     1
  3
ACAD_XREC_ROUNDTRIP
360
260
  0
DICTIONARY
  5
261
330
2E
100
AcDbDictionary
280
     1
281
     1
  3
ACAD_XREC_ROUNDTRIP
360
262
  0
DICTIONARY
  5
275
330
38
100
AcDbDictionary
280
     1
281
     1
  3
ACAD_XREC_ROUNDTRIP
360
276
  0
DICTIONARY
  5
26B
330
33
100
AcDbDictionary
280
     1
281
     1
  3
ACAD_XREC_ROUNDTRIP
360
26C
  0
DICTIONARY
  5
273
330
37
100
AcDbDictionary
280
     1
281
     1
  3
ACAD_XREC_ROUNDTRIP
360
274
  0
XRECORD
  5
27E
102
{ACAD_REACTORS
330
27D
102
}
330
27D
100
AcDbXrecord
280
     1
102
MATERIAL
148
0.0
149
0.0
149
0.0
 93
        0
 94
      127
282
     0
 72
     1
 77
     1
171
     1
175
     1
179
     1
273
     0
  0
XRECORD
  5
27C
102
{ACAD_REACTORS
330
27B
102
}
330
27B
100
AcDbXrecord
280
     1
102
MATERIAL
148
0.0
149
0.0
149
0.0
 93
        0
 94
      127
282
     0
 72
     1
 77
     1
171
     1
175
     1
179
     1
273
     0
  0
XRECORD
  5
280
102
{ACAD_REACTORS
330
27F
102
}
330
27F
100
AcDbXrecord
280
     1
102
MATERIAL
148
0.0
149
0.0
149
0.0
 93
        0
 94
      127
282
     0
 72
     1
 77
     1
171
     1
175
     1
179
     1
273
     0
  0
XRECORD
  5
264
102
{ACAD_REACTORS
330
263
102
}
330
263
100
AcDbXrecord
280
     1
102
RTVSPropertyOp0
 70
     1
102
RTVSPropertyOp1
 70
     1
102
RTVSPropertyOp2
 70
     1
102
RTVSPropertyOp3
 70
     1
102
RTVSPropertyOp4
 70
     1
102
RTVSPropertyOp5
 70
     1
102
RTVSPropertyOp6
 70
     1
102
RTVSPropertyOp7
 70
     1
102
RTVSPropertyOp8
 70
     1
102
RTVSPropertyOp9
 70
     1
102
RTVSPropertyOp10
 70
     1
102
RTVSPropertyOp11
 70
     1
102
RTVSPropertyOp12
 70
     1
102
RTVSPropertyOp13
 70
     1
102
RTVSPropertyOp14
 70
     1
102
RTVSPropertyOp15
 70
     1
102
RTVSPropertyOp16
 70
     1
102
RTVSPropertyOp17
 70
     1
102
RTVSPropertyOp18
 70
     1
102
RTVSPropertyOp19
 70
     1
102
RTVSPropertyOp20
 70
     1
102
RTVSPropertyOp21
 70
     1
102
RTVSPropertyOp22
 70
     1
102
RTVSPropertyOp23
 70
     1
102
RTVSPropertyOp24
 70
     1
102
RTVSPropertyOp25
 70
     1
102
RTVSPropertyOp26
 70
     1
102
RTVSPropertyOp27
 70
     1
  0
XRECORD
  5
268
102
{ACAD_REACTORS
330
267
102
}
330
267
100
AcDbXrecord
280
     1
102
RTVSPropertyOp0
 70
     1
102
RTVSPropertyOp1
 70
     1
102
RTVSPropertyOp2
 70
     1
102
RTVSPropertyOp3
 70
     1
102
RTVSPropertyOp4
 70
     1
102
RTVSPropertyOp5
 70
     1
102
RTVSPropertyOp6
 70
     1
102
RTVSPropertyOp7
 70
     1
102
RTVSPropertyOp8
 70
     1
102
RTVSPropertyOp9
 70
     1
102
RTVSPropertyOp10
 70
     1
102
RTVSPropertyOp11
 70
     1
102
RTVSPropertyOp12
 70
     1
102
RTVSPropertyOp13
 70
     1
102
RTVSPropertyOp14
 70
     1
102
RTVSPropertyOp15
 70
     1
102
RTVSPropertyOp16
 70
     1
102
RTVSPropertyOp17
 70
     1
102
RTVSPropertyOp18
 70
     1
102
RTVSPropertyOp19
 70
     1
102
RTVSPropertyOp20
 70
     1
102
RTVSPropertyOp21
 70
     1
102
RTVSPropertyOp22
 70
     1
102
RTVSPropertyOp23
 70
     1
102
RTVSPropertyOp24
 70
     1
102
RTVSPropertyOp25
 70
     1
102
RTVSPropertyOp26
 70
     1
102
RTVSPropertyOp27
 70
     1
  0
XRECORD
  5
266
102
{ACAD_REACTORS
330
265
102
}
330
265
100
AcDbXrecord
280
     1
102
RTVSPropertyOp0
 70
     1
102
RTVSPropertyOp1
 70
     1
102
RTVSPropertyOp2
 70
     1
102
RTVSPropertyOp3
 70
     1
102
RTVSPropertyOp4
 70
     1
102
RTVSPropertyOp5
 70
     1
102
RTVSPropertyOp6
 70
     1
102
RTVSPropertyOp7
 70
     1
102
RTVSPropertyOp8
 70
     1
102
RTVSPropertyOp9
 70
     1
102
RTVSPropertyOp10
 70
     1
102
RTVSPropertyOp11
 70
     1
102
RTVSPropertyOp12
 70
     1
102
RTVSPropertyOp13
 70
     1
102
RTVSPropertyOp14
 70
     1
102
RTVSPropertyOp15
 70
     1
102
RTVSPropertyOp16
 70
     1
102
RTVSPropertyOp17
 70
     1
102
RTVSPropertyOp18
 70
     1
102
RTVSPropertyOp19
 70
     1
102
RTVSPropertyOp20
 70
     1
102
RTVSPropertyOp21
 70
     1
102
RTVSPropertyOp22
 70
     1
102
RTVSPropertyOp23
 70
     1
102
RTVSPropertyOp24
 70
     1
102
RTVSPropertyOp25
 70
     1
102
RTVSPropertyOp26
 70
     1
102
RTVSPropertyOp27
 70
     1
  0
XRECORD
  5
26A
102
{ACAD_REACTORS
330
269
102
}
330
269
100
AcDbXrecord
280
     1
102
RTVSPropertyOp0
 70
     1
102
RTVSPropertyOp1
 70
     1
102
RTVSPropertyOp2
 70
     1
102
RTVSPropertyOp3
 70
     1
102
RTVSPropertyOp4
 70
     1
102
RTVSPropertyOp5
 70
     1
102
RTVSPropertyOp6
 70
     1
102
RTVSPropertyOp7
 70
     1
102
RTVSPropertyOp8
 70
     1
102
RTVSPropertyOp9
 70
     1
102
RTVSPropertyOp10
 70
     1
102
RTVSPropertyOp11
 70
     1
102
RTVSPropertyOp12
 70
     1
102
RTVSPropertyOp13
 70
     1
102
RTVSPropertyOp14
 70
     1
102
RTVSPropertyOp15
 70
     1
102
RTVSPropertyOp16
 70
     1
102
RTVSPropertyOp17
 70
     1
102
RTVSPropertyOp18
 70
     1
102
RTVSPropertyOp19
 70
     1
102
RTVSPropertyOp20
 70
     1
102
RTVSPropertyOp21
 70
     1
102
RTVSPropertyOp22
 70
     1
102
RTVSPropertyOp23
 70
     1
102
RTVSPropertyOp24
 70
     1
102
RTVSPropertyOp25
 70
     1
102
RTVSPropertyOp26
 70
     1
102
RTVSPropertyOp27
 70
     1
  0
XRECORD
  5
272
102
{ACAD_REACTORS
330
271
102
}
330
271
100
AcDbXrecord
280
     1
102
RTVSPropertyOp0
 70
     1
102
RTVSPropertyOp1
 70
     1
102
RTVSPropertyOp2
 70
     1
102
RTVSPropertyOp3
 70
     1
102
RTVSPropertyOp4
 70
     1
102
RTVSPropertyOp5
 70
     1
102
RTVSPropertyOp6
 70
     1
102
RTVSPropertyOp7
 70
     1
102
RTVSPropertyOp8
 70
     1
102
RTVSPropertyOp9
 70
     1
102
RTVSPropertyOp10
 70
     1
102
RTVSPropertyOp11
 70
     1
102
RTVSPropertyOp12
 70
     1
102
RTVSPropertyOp13
 70
     1
102
RTVSPropertyOp14
 70
     1
102
RTVSPropertyOp15
 70
     1
102
RTVSPropertyOp16
 70
     1
102
RTVSPropertyOp17
 70
     1
102
RTVSPropertyOp18
 70
     1
102
RTVSPropertyOp19
 70
     1
102
RTVSPropertyOp20
 70
     1
102
RTVSPropertyOp21
 70
     1
102
RTVSPropertyOp22
 70
     1
102
RTVSPropertyOp23
 70
     1
102
RTVSPropertyOp24
 70
     1
102
RTVSPropertyOp25
 70
     1
102
RTVSPropertyOp26
 70
     1
102
RTVSPropertyOp27
 70
     1
  0
XRECORD
  5
27A
102
{ACAD_REACTORS
330
279
102
}
330
279
100
AcDbXrecord
280
     1
102
RTVSPropertyOp0
 70
     1
102
RTVSPropertyOp1
 70
     1
102
RTVSPropertyOp2
 70
     1
102
RTVSPropertyOp3
 70
     1
102
RTVSPropertyOp4
 70
     1
102
RTVSPropertyOp5
 70
     1
102
RTVSPropertyOp6
 70
     1
102
RTVSPropertyOp7
 70
     1
102
RTVSPropertyOp8
 70
     1
102
RTVSPropertyOp9
 70
     1
102
RTVSPropertyOp10
 70
     1
102
RTVSPropertyOp11
 70
     1
102
RTVSPropertyOp12
 70
     1
102
RTVSPropertyOp13
 70
     1
102
RTVSPropertyOp14
 70
     1
102
RTVSPropertyOp15
 70
     1
102
RTVSPropertyOp16
 70
     1
102
RTVSPropertyOp17
 70
     1
102
RTVSPropertyOp18
 70
     1
102
RTVSPropertyOp19
 70
     1
102
RTVSPropertyOp20
 70
     1
102
RTVSPropertyOp21
 70
     1
102
RTVSPropertyOp22
 70
     1
102
RTVSPropertyOp23
 70
     1
102
RTVSPropertyOp24
 70
     1
102
RTVSPropertyOp25
 70
     1
102
RTVSPropertyOp26
 70
     1
102
RTVSPropertyOp27
 70
     1
  0
XRECORD
  5
26E
102
{ACAD_REACTORS
330
26D
102
}
330
26D
100
AcDbXrecord
280
     1
102
RTVSPropertyOp0
 70
     1
102
RTVSPropertyOp1
 70
     1
102
RTVSPropertyOp2
 70
     1
102
RTVSPropertyOp3
 70
     1
102
RTVSPropertyOp4
 70
     1
102
RTVSPropertyOp5
 70
     1
102
RTVSPropertyOp6
 70
     1
102
RTVSPropertyOp7
 70
     1
102
RTVSPropertyOp8
 70
     1
102
RTVSPropertyOp9
 70
     1
102
RTVSPropertyOp10
 70
     1
102
RTVSPropertyOp11
 70
     1
102
RTVSPropertyOp12
 70
     1
102
RTVSPropertyOp13
 70
     1
102
RTVSPropertyOp14
 70
     1
102
RTVSPropertyOp15
 70
     1
102
RTVSPropertyOp16
 70
     1
102
RTVSPropertyOp17
 70
     1
102
RTVSPropertyOp18
 70
     1
102
RTVSPropertyOp19
 70
     1
102
RTVSPropertyOp20
 70
     1
102
RTVSPropertyOp21
 70
     1
102
RTVSPropertyOp22
 70
     1
102
RTVSPropertyOp23
 70
     1
102
RTVSPropertyOp24
 70
     1
102
RTVSPropertyOp25
 70
     1
102
RTVSPropertyOp26
 70
     1
102
RTVSPropertyOp27
 70
     1
  0
XRECORD
  5
270
102
{ACAD_REACTORS
330
26F
102
}
330
26F
100
AcDbXrecord
280
     1
102
RTVSPropertyOp0
 70
     1
102
RTVSPropertyOp1
 70
     1
102
RTVSPropertyOp2
 70
     1
102
RTVSPropertyOp3
 70
     1
102
RTVSPropertyOp4
 70
     1
102
RTVSPropertyOp5
 70
     1
102
RTVSPropertyOp6
 70
     1
102
RTVSPropertyOp7
 70
     1
102
RTVSPropertyOp8
 70
     1
102
RTVSPropertyOp9
 70
     1
102
RTVSPropertyOp10
 70
     1
102
RTVSPropertyOp11
 70
     1
102
RTVSPropertyOp12
 70
     1
102
RTVSPropertyOp13
 70
     1
102
RTVSPropertyOp14
 70
     1
102
RTVSPropertyOp15
 70
     1
102
RTVSPropertyOp16
 70
     1
102
RTVSPropertyOp17
 70
     1
102
RTVSPropertyOp18
 70
     1
102
RTVSPropertyOp19
 70
     1
102
RTVSPropertyOp20
 70
     1
102
RTVSPropertyOp21
 70
     1
102
RTVSPropertyOp22
 70
     1
102
RTVSPropertyOp23
 70
     1
102
RTVSPropertyOp24
 70
     1
102
RTVSPropertyOp25
 70
     1
102
RTVSPropertyOp26
 70
     1
102
RTVSPropertyOp27
 70
     1
  0
XRECORD
  5
278
102
{ACAD_REACTORS
330
277
102
}
330
277
100
AcDbXrecord
280
     1
102
RTVSPropertyOp0
 70
     1
102
RTVSPropertyOp1
 70
     1
102
RTVSPropertyOp2
 70
     1
102
RTVSPropertyOp3
 70
     1
102
RTVSPropertyOp4
 70
     1
102
RTVSPropertyOp5
 70
     1
102
RTVSPropertyOp6
 70
     1
102
RTVSPropertyOp7
 70
     1
102
RTVSPropertyOp8
 70
     1
102
RTVSPropertyOp9
 70
     1
102
RTVSPropertyOp10
 70
     1
102
RTVSPropertyOp11
 70
     1
102
RTVSPropertyOp12
 70
     1
102
RTVSPropertyOp13
 70
     1
102
RTVSPropertyOp14
 70
     1
102
RTVSPropertyOp15
 70
     1
102
RTVSPropertyOp16
 70
     1
102
RTVSPropertyOp17
 70
     1
102
RTVSPropertyOp18
 70
     1
102
RTVSPropertyOp19
 70
     1
102
RTVSPropertyOp20
 70
     1
102
RTVSPropertyOp21
 70
     1
102
RTVSPropertyOp22
 70
     1
102
RTVSPropertyOp23
 70
     1
102
RTVSPropertyOp24
 70
     1
102
RTVSPropertyOp25
 70
     1
102
RTVSPropertyOp26
 70
     1
102
RTVSPropertyOp27
 70
     1
  0
XRECORD
  5
25C
102
{ACAD_REACTORS
330
25B
102
}
330
25B
100
AcDbXrecord
280
     1
102
RTVSPropertyOp0
 70
     1
102
RTVSPropertyOp1
 70
     1
102
RTVSPropertyOp2
 70
     1
102
RTVSPropertyOp3
 70
     1
102
RTVSPropertyOp4
 70
     1
102
RTVSPropertyOp5
 70
     1
102
RTVSPropertyOp6
 70
     1
102
RTVSPropertyOp7
 70
     1
102
RTVSPropertyOp8
 70
     1
102
RTVSPropertyOp9
 70
     1
102
RTVSPropertyOp10
 70
     1
102
RTVSPropertyOp11
 70
     1
102
RTVSPropertyOp12
 70
     1
102
RTVSPropertyOp13
 70
     1
102
RTVSPropertyOp14
 70
     1
102
RTVSPropertyOp15
 70
     1
102
RTVSPropertyOp16
 70
     1
102
RTVSPropertyOp17
 70
     1
102
RTVSPropertyOp18
 70
     1
102
RTVSPropertyOp19
 70
     1
102
RTVSPropertyOp20
 70
     1
102
RTVSPropertyOp21
 70
     1
102
RTVSPropertyOp22
 70
     1
102
RTVSPropertyOp23
 70
     1
102
RTVSPropertyOp24
 70
     1
102
RTVSPropertyOp25
 70
     1
102
RTVSPropertyOp26
 70
     1
102
RTVSPropertyOp27
 70
     1
  0
XRECORD
  5
25E
102
{ACAD_REACTORS
330
25D
102
}
330
25D
100
AcDbXrecord
280
     1
102
RTVSPropertyOp0
 70
     1
102
RTVSPropertyOp1
 70
     1
102
RTVSPropertyOp2
 70
     1
102
RTVSPropertyOp3
 70
     1
102
RTVSPropertyOp4
 70
     1
102
RTVSPropertyOp5
 70
     1
102
RTVSPropertyOp6
 70
     1
102
RTVSPropertyOp7
 70
     1
102
RTVSPropertyOp8
 70
     1
102
RTVSPropertyOp9
 70
     1
102
RTVSPropertyOp10
 70
     1
102
RTVSPropertyOp11
 70
     1
102
RTVSPropertyOp12
 70
     1
102
RTVSPropertyOp13
 70
     1
102
RTVSPropertyOp14
 70
     1
102
RTVSPropertyOp15
 70
     1
102
RTVSPropertyOp16
 70
     1
102
RTVSPropertyOp17
 70
     1
102
RTVSPropertyOp18
 70
     1
102
RTVSPropertyOp19
 70
     1
102
RTVSPropertyOp20
 70
     1
102
RTVSPropertyOp21
 70
     1
102
RTVSPropertyOp22
 70
     1
102
RTVSPropertyOp23
 70
     1
102
RTVSPropertyOp24
 70
     1
102
RTVSPropertyOp25
 70
     1
102
RTVSPropertyOp26
 70
     1
102
RTVSPropertyOp27
 70
     1
  0
XRECORD
  5
260
102
{ACAD_REACTORS
330
25F
102
}
330
25F
100
AcDbXrecord
280
     1
102
RTVSPropertyOp0
 70
     1
102
RTVSPropertyOp1
 70
     1
102
RTVSPropertyOp2
 70
     1
102
RTVSPropertyOp3
 70
     1
102
RTVSPropertyOp4
 70
     1
102
RTVSPropertyOp5
 70
     1
102
RTVSPropertyOp6
 70
     1
102
RTVSPropertyOp7
 70
     1
102
RTVSPropertyOp8
 70
     1
102
RTVSPropertyOp9
 70
     1
102
RTVSPropertyOp10
 70
     1
102
RTVSPropertyOp11
 70
     1
102
RTVSPropertyOp12
 70
     1
102
RTVSPropertyOp13
 70
     1
102
RTVSPropertyOp14
 70
     1
102
RTVSPropertyOp15
 70
     1
102
RTVSPropertyOp16
 70
     1
102
RTVSPropertyOp17
 70
     1
102
RTVSPropertyOp18
 70
     1
102
RTVSPropertyOp19
 70
     1
102
RTVSPropertyOp20
 70
     1
102
RTVSPropertyOp21
 70
     1
102
RTVSPropertyOp22
 70
     1
102
RTVSPropertyOp23
 70
     1
102
RTVSPropertyOp24
 70
     1
102
RTVSPropertyOp25
 70
     1
102
RTVSPropertyOp26
 70
     1
102
RTVSPropertyOp27
 70
     1
  0
XRECORD
  5
262
102
{ACAD_REACTORS
330
261
102
}
330
261
100
AcDbXrecord
280
     1
102
RTVSPropertyOp0
 70
     1
102
RTVSPropertyOp1
 70
     1
102
RTVSPropertyOp2
 70
     1
102
RTVSPropertyOp3
 70
     1
102
RTVSPropertyOp4
 70
     1
102
RTVSPropertyOp5
 70
     1
102
RTVSPropertyOp6
 70
     1
102
RTVSPropertyOp7
 70
     1
102
RTVSPropertyOp8
 70
     1
102
RTVSPropertyOp9
 70
     1
102
RTVSPropertyOp10
 70
     1
102
RTVSPropertyOp11
 70
     1
102
RTVSPropertyOp12
 70
     1
102
RTVSPropertyOp13
 70
     1
102
RTVSPropertyOp14
 70
     1
102
RTVSPropertyOp15
 70
     1
102
RTVSPropertyOp16
 70
     1
102
RTVSPropertyOp17
 70
     1
102
RTVSPropertyOp18
 70
     1
102
RTVSPropertyOp19
 70
     1
102
RTVSPropertyOp20
 70
     1
102
RTVSPropertyOp21
 70
     1
102
RTVSPropertyOp22
 70
     1
102
RTVSPropertyOp23
 70
     1
102
RTVSPropertyOp24
 70
     1
102
RTVSPropertyOp25
 70
     1
102
RTVSPropertyOp26
 70
     1
102
RTVSPropertyOp27
 70
     1
  0
XRECORD
  5
276
102
{ACAD_REACTORS
330
275
102
}
330
275
100
AcDbXrecord
280
     1
102
RTVSPropertyOp0
 70
     1
102
RTVSPropertyOp1
 70
     1
102
RTVSPropertyOp2
 70
     1
102
RTVSPropertyOp3
 70
     1
102
RTVSPropertyOp4
 70
     1
102
RTVSPropertyOp5
 70
     1
102
RTVSPropertyOp6
 70
     1
102
RTVSPropertyOp7
 70
     1
102
RTVSPropertyOp8
 70
     1
102
RTVSPropertyOp9
 70
     1
102
RTVSPropertyOp10
 70
     1
102
RTVSPropertyOp11
 70
     1
102
RTVSPropertyOp12
 70
     1
102
RTVSPropertyOp13
 70
     1
102
RTVSPropertyOp14
 70
     1
102
RTVSPropertyOp15
 70
     1
102
RTVSPropertyOp16
 70
     1
102
RTVSPropertyOp17
 70
     1
102
RTVSPropertyOp18
 70
     1
102
RTVSPropertyOp19
 70
     1
102
RTVSPropertyOp20
 70
     1
102
RTVSPropertyOp21
 70
     1
102
RTVSPropertyOp22
 70
     1
102
RTVSPropertyOp23
 70
     1
102
RTVSPropertyOp24
 70
     1
102
RTVSPropertyOp25
 70
     1
102
RTVSPropertyOp26
 70
     1
102
RTVSPropertyOp27
 70
     1
  0
XRECORD
  5
26C
102
{ACAD_REACTORS
330
26B
102
}
330
26B
100
AcDbXrecord
280
     1
102
RTVSPropertyOp0
 70
     1
102
RTVSPropertyOp1
 70
     1
102
RTVSPropertyOp2
 70
     1
102
RTVSPropertyOp3
 70
     1
102
RTVSPropertyOp4
 70
     1
102
RTVSPropertyOp5
 70
     1
102
RTVSPropertyOp6
 70
     1
102
RTVSPropertyOp7
 70
     1
102
RTVSPropertyOp8
 70
     1
102
RTVSPropertyOp9
 70
     1
102
RTVSPropertyOp10
 70
     1
102
RTVSPropertyOp11
 70
     1
102
RTVSPropertyOp12
 70
     1
102
RTVSPropertyOp13
 70
     1
102
RTVSPropertyOp14
 70
     1
102
RTVSPropertyOp15
 70
     1
102
RTVSPropertyOp16
 70
     1
102
RTVSPropertyOp17
 70
     1
102
RTVSPropertyOp18
 70
     1
102
RTVSPropertyOp19
 70
     1
102
RTVSPropertyOp20
 70
     1
102
RTVSPropertyOp21
 70
     1
102
RTVSPropertyOp22
 70
     1
102
RTVSPropertyOp23
 70
     1
102
RTVSPropertyOp24
 70
     1
102
RTVSPropertyOp25
 70
     1
102
RTVSPropertyOp26
 70
     1
102
RTVSPropertyOp27
 70
     1
  0
XRECORD
  5
274
102
{ACAD_REACTORS
330
273
102
}
330
273
100
AcDbXrecord
280
     1
102
RTVSPropertyOp0
 70
     1
102
RTVSPropertyOp1
 70
     1
102
RTVSPropertyOp2
 70
     1
102
RTVSPropertyOp3
 70
     1
102
RTVSPropertyOp4
 70
     1
102
RTVSPropertyOp5
 70
     1
102
RTVSPropertyOp6
 70
     1
102
RTVSPropertyOp7
 70
     1
102
RTVSPropertyOp8
 70
     1
102
RTVSPropertyOp9
 70
     1
102
RTVSPropertyOp10
 70
     1
102
RTVSPropertyOp11
 70
     1
102
RTVSPropertyOp12
 70
     1
102
RTVSPropertyOp13
 70
     1
102
RTVSPropertyOp14
 70
     1
102
RTVSPropertyOp15
 70
     1
102
RTVSPropertyOp16
 70
     1
102
RTVSPropertyOp17
 70
     1
102
RTVSPropertyOp18
 70
     1
102
RTVSPropertyOp19
 70
     1
102
RTVSPropertyOp20
 70
     1
102
RTVSPropertyOp21
 70
     1
102
RTVSPropertyOp22
 70
     1
102
RTVSPropertyOp23
 70
     1
102
RTVSPropertyOp24
 70
     1
102
RTVSPropertyOp25
 70
     1
102
RTVSPropertyOp26
 70
     1
102
RTVSPropertyOp27
 70
     1
  0
ENDSEC
  0
EOF
