  0
SECTION
  2
HEADER
  9
$ACADVER
  1
AC1018
  9
$ACADMAINTVER
 70
     0
  9
$DWGCODEPAGE
  3
ANSI_1252
  9
$INSBASE
 10
0.0
 20
0.0
 30
0.0
  9
$EXTMIN
 10
72706.39797439399
 20
-39365.67058749446
 30
0.0
  9
$EXTMAX
 10
74857.42331585368
 20
-37930.67058139095
 30
11.9999942779541
  9
$LIMMIN
 10
0.0
 20
0.0
  9
$LIMMAX
 10
420.0
 20
297.0
  9
$ORTHOMODE
 70
     0
  9
$REGENMODE
 70
     1
  9
$FILLMODE
 70
     1
  9
$QTEXTMODE
 70
     0
  9
$MIRRTEXT
 70
     1
  9
$LTSCALE
 40
1.0
  9
$ATTMODE
 70
     1
  9
$TEXTSIZE
 40
0.2
  9
$TRACEWID
 40
1.0
  9
$TEXTSTYLE
  7
ROMAN
  9
$CLAYER
  8
Calm 831
  9
$CELTYPE
  6
Continuous
  9
$CECOLOR
 62
   256
  9
$CELTSCALE
 40
1.0
  9
$DISPSILH
 70
     0
  9
$DIMSCALE
 40
1.0
  9
$DIMASZ
 40
2.5
  9
$DIMEXO
 40
0.625
  9
$DIMDLI
 40
3.75
  9
$DIMRND
 40
0.0
  9
$DIMDLE
 40
0.0
  9
$DIMEXE
 40
1.25
  9
$DIMTP
 40
0.0
  9
$DIMTM
 40
0.0
  9
$DIMTXT
 40
2.5
  9
$DIMCEN
 40
2.5
  9
$DIMTSZ
 40
0.0
  9
$DIMTOL
 70
     0
  9
$DIMLIM
 70
     0
  9
$DIMTIH
 70
     0
  9
$DIMTOH
 70
     0
  9
$DIMSE1
 70
     0
  9
$DIMSE2
 70
     0
  9
$DIMTAD
 70
     1
  9
$DIMZIN
 70
     8
  9
$DIMBLK
  1

  9
$DIMASO
 70
     1
  9
$DIMSHO
 70
     1
  9
$DIMPOST
  1

  9
$DIMAPOST
  1

  9
$DIMALT
 70
     0
  9
$DIMALTD
 70
     3
  9
$DIMALTF
 40
0.03937007874016
  9
$DIMLFAC
 40
1.0
  9
$DIMTOFL
 70
     1
  9
$DIMTVP
 40
0.0
  9
$DIMTIX
 70
     0
  9
$DIMSOXD
 70
     0
  9
$DIMSAH
 70
     0
  9
$DIMBLK1
  1

  9
$DIMBLK2
  1

  9
$DIMSTYLE
  2
ISO-25
  9
$DIMCLRD
 70
     0
  9
$DIMCLRE
 70
     0
  9
$DIMCLRT
 70
     0
  9
$DIMTFAC
 40
1.0
  9
$DIMGAP
 40
0.625
  9
$DIMJUST
 70
     0
  9
$DIMSD1
 70
     0
  9
$DIMSD2
 70
     0
  9
$DIMTOLJ
 70
     0
  9
$DIMTZIN
 70
     8
  9
$DIMALTZ
 70
     0
  9
$DIMALTTZ
 70
     0
  9
$DIMUPT
 70
     0
  9
$DIMDEC
 70
     2
  9
$DIMTDEC
 70
     2
  9
$DIMALTU
 70
     2
  9
$DIMALTTD
 70
     3
  9
$DIMTXSTY
  7
Standard
  9
$DIMAUNIT
 70
     0
  9
$DIMADEC
 70
     0
  9
$DIMALTRND
 40
0.0
  9
$DIMAZIN
 70
     0
  9
$DIMDSEP
 70
    44
  9
$DIMATFIT
 70
     3
  9
$DIMFRAC
 70
     0
  9
$DIMLDRBLK
  1

  9
$DIMLUNIT
 70
     2
  9
$DIMLWD
 70
    -2
  9
$DIMLWE
 70
    -2
  9
$DIMTMOVE
 70
     0
  9
$LUNITS
 70
     2
  9
$LUPREC
 70
     4
  9
$SKETCHINC
 40
1.0
  9
$FILLETRAD
 40
10.0
  9
$AUNITS
 70
     0
  9
$AUPREC
 70
     0
  9
$MENU
  1
.
  9
$ELEVATION
 40
0.0
  9
$PELEVATION
 40
0.0
  9
$THICKNESS
 40
0.0
  9
$LIMCHECK
 70
     0
  9
$CHAMFERA
 40
10.0
  9
$CHAMFERB
 40
10.0
  9
$CHAMFERC
 40
20.0
  9
$CHAMFERD
 40
0.0
  9
$SKPOLY
 70
     0
  9
$TDCREATE
 40
2457977.670908993
  9
$TDUCREATE
 40
2457977.58757566
  9
$TDUPDATE
 40
2457977.670945602
  9
$TDUUPDATE
 40
2457977.587612269
  9
$TDINDWG
 40
0.0000000116
  9
$TDUSRTIMER
 40
0.0000000116
  9
$USRTIMER
 70
     1
  9
$ANGBASE
 50
0.0
  9
$ANGDIR
 70
     0
  9
$PDMODE
 70
     0
  9
$PDSIZE
 40
0.0
  9
$PLINEWID
 40
0.0
  9
$SPLFRAME
 70
     0
  9
$SPLINETYPE
 70
     6
  9
$SPLINESEGS
 70
     8
  9
$HANDSEED
  5
580
  9
$SURFTAB1
 70
     6
  9
$SURFTAB2
 70
     6
  9
$SURFTYPE
 70
     6
  9
$SURFU
 70
     6
  9
$SURFV
 70
     6
  9
$UCSBASE
  2

  9
$UCSNAME
  2

  9
$UCSORG
 10
0.0
 20
0.0
 30
0.0
  9
$UCSXDIR
 10
1.0
 20
0.0
 30
0.0
  9
$UCSYDIR
 10
0.0
 20
1.0
 30
0.0
  9
$UCSORTHOREF
  2

  9
$UCSORTHOVIEW
 70
     0
  9
$UCSORGTOP
 10
0.0
 20
0.0
 30
0.0
  9
$UCSORGBOTTOM
 10
0.0
 20
0.0
 30
0.0
  9
$UCSORGLEFT
 10
0.0
 20
0.0
 30
0.0
  9
$UCSORGRIGHT
 10
0.0
 20
0.0
 30
0.0
  9
$UCSORGFRONT
 10
0.0
 20
0.0
 30
0.0
  9
$UCSORGBACK
 10
0.0
 20
0.0
 30
0.0
  9
$PUCSBASE
  2

  9
$PUCSNAME
  2

  9
$PUCSORG
 10
0.0
 20
0.0
 30
0.0
  9
$PUCSXDIR
 10
1.0
 20
0.0
 30
0.0
  9
$PUCSYDIR
 10
0.0
 20
1.0
 30
0.0
  9
$PUCSORTHOREF
  2

  9
$PUCSORTHOVIEW
 70
     0
  9
$PUCSORGTOP
 10
0.0
 20
0.0
 30
0.0
  9
$PUCSORGBOTTOM
 10
0.0
 20
0.0
 30
0.0
  9
$PUCSORGLEFT
 10
0.0
 20
0.0
 30
0.0
  9
$PUCSORGRIGHT
 10
0.0
 20
0.0
 30
0.0
  9
$PUCSORGFRONT
 10
0.0
 20
0.0
 30
0.0
  9
$PUCSORGBACK
 10
0.0
 20
0.0
 30
0.0
  9
$USERI1
 70
     0
  9
$USERI2
 70
     0
  9
$USERI3
 70
     0
  9
$USERI4
 70
     0
  9
$USERI5
 70
     0
  9
$USERR1
 40
0.0
  9
$USERR2
 40
0.0
  9
$USERR3
 40
0.0
  9
$USERR4
 40
0.0
  9
$USERR5
 40
0.0
  9
$WORLDVIEW
 70
     1
  9
$SHADEDGE
 70
     3
  9
$SHADEDIF
 70
    70
  9
$TILEMODE
 70
     1
  9
$MAXACTVP
 70
    64
  9
$PINSBASE
 10
0.0
 20
0.0
 30
0.0
  9
$PLIMCHECK
 70
     0
  9
$PEXTMIN
 10
1.000000000000000E+20
 20
1.000000000000000E+20
 30
1.000000000000000E+20
  9
$PEXTMAX
 10
-1.000000000000000E+20
 20
-1.000000000000000E+20
 30
-1.000000000000000E+20
  9
$PLIMMIN
 10
0.0
 20
0.0
  9
$PLIMMAX
 10
420.0
 20
297.0
  9
$UNITMODE
 70
     0
  9
$VISRETAIN
 70
     1
  9
$PLINEGEN
 70
     0
  9
$PSLTSCALE
 70
     1
  9
$TREEDEPTH
 70
  3020
  9
$CMLSTYLE
  2
Standard
  9
$CMLJUST
 70
     0
  9
$CMLSCALE
 40
20.0
  9
$PROXYGRAPHICS
 70
     1
  9
$MEASUREMENT
 70
     1
  9
$CELWEIGHT
370
    -1
  9
$ENDCAPS
280
     0
  9
$JOINSTYLE
280
     0
  9
$LWDISPLAY
290
     0
  9
$INSUNITS
 70
     4
  9
$HYPERLINKBASE
  1

  9
$STYLESHEET
  1

  9
$XEDIT
290
     1
  9
$CEPSNTYPE
380
     0
  9
$PSTYLEMODE
290
     1
  9
$FINGERPRINTGUID
  2
{8257B16B-688C-4A86-8DF3-AB8F7AFB6F73}
  9
$VERSIONGUID
  2
{FAEB1C32-E019-11D5-929B-00C0DF256EC4}
  9
$EXTNAMES
290
     1
  9
$PSVPSCALE
 40
0.0
  9
$OLESTARTUP
290
     0
  9
$SORTENTS
280
   127
  9
$INDEXCTL
280
     0
  9
$HIDETEXT
280
     1
  9
$XCLIPFRAME
290
     0
  9
$HALOGAP
280
     0
  9
$OBSCOLOR
 70
   257
  9
$OBSLTYPE
280
     0
  9
$INTERSECTIONDISPLAY
280
     0
  9
$INTERSECTIONCOLOR
 70
   257
  9
$DIMASSOC
280
     2
  9
$PROJECTNAME
  1

  0
ENDSEC
  0
SECTION
  2
CLASSES
  0
CLASS
  1
ACDBDICTIONARYWDFLT
  2
AcDbDictionaryWithDefault
  3
ObjectDBX Classes
 90
        0
 91
        4
280
     0
281
     0
  0
CLASS
  1
VISUALSTYLE
  2
AcDbVisualStyle
  3
ObjectDBX Classes
 90
     4095
 91
        4
280
     0
281
     0
  0
CLASS
  1
MATERIAL
  2
AcDbMaterial
  3
ObjectDBX Classes
 90
     1153
 91
        4
280
     0
281
     0
  0
CLASS
  1
SCALE
  2
AcDbScale
  3
ObjectDBX Classes
 90
     1153
 91
        4
280
     0
281
     0
  0
CLASS
  1
DICTIONARYVAR
  2
AcDbDictionaryVar
  3
ObjectDBX Classes
 90
        0
 91
        4
280
     0
281
     0
  0
ENDSEC
  0
SECTION
  2
TABLES
  0
TABLE
  2
VPORT
  5
8
330
0
100
AcDbSymbolTable
 70
     1
  0
VPORT
  5
29
330
8
100
AcDbSymbolTableRecord
100
AcDbViewportTableRecord
  2
*Active
 70
     0
 10
0.0
 20
0.0
 11
1.0
 21
1.0
 12
37063.04878050584
 22
-19249.83529222135
 13
0.0
 23
0.0
 14
10.0
 24
10.0
 15
10.0
 25
10.0
 16
0.0
 26
0.0
 36
1.0
 17
0.0
 27
0.0
 37
0.0
 40
1463.70000622558
 41
1.498972357010943
 42
50.0
 43
0.0
 44
0.0
 50
0.0
 51
0.0
 71
     0
 72
   100
 73
     1
 74
     3
 75
     0
 76
     0
 77
     0
 78
     0
281
     0
 65
     1
110
0.0
120
0.0
130
0.0
111
1.0
121
0.0
131
0.0
112
0.0
122
1.0
132
0.0
 79
     0
146
0.0
  0
ENDTAB
  0
TABLE
  2
LTYPE
  5
5
330
0
100
AcDbSymbolTable
 70
     2
  0
LTYPE
  5
14
330
5
100
AcDbSymbolTableRecord
100
AcDbLinetypeTableRecord
  2
ByBlock
 70
     0
  3

 72
    65
 73
     0
 40
0.0
  0
LTYPE
  5
15
330
5
100
AcDbSymbolTableRecord
100
AcDbLinetypeTableRecord
  2
ByLayer
 70
     0
  3

 72
    65
 73
     0
 40
0.0
  0
LTYPE
  5
16
330
5
100
AcDbSymbolTableRecord
100
AcDbLinetypeTableRecord
  2
Continuous
 70
     0
  3
Solid line
 72
    65
 73
     0
 40
0.0
  0
LTYPE
  5
BB
330
5
100
AcDbSymbolTableRecord
100
AcDbLinetypeTableRecord
  2
DASHED1
 70
     0
  3

 72
    65
 73
     3
 40
1.0
 49
0.3
 74
     0
 49
-0.4
 74
     0
 49
0.3
 74
     0
  0
ENDTAB
  0
TABLE
  2
LAYER
  5
2
330
0
100
AcDbSymbolTable
 70
     8
  0
LAYER
  5
10
330
2
100
AcDbSymbolTableRecord
100
AcDbLayerTableRecord
  2
0
 70
     0
 62
     7
  6
Continuous
370
    -3
390
F
  0
LAYER
  5
3F
330
2
100
AcDbSymbolTableRecord
100
AcDbLayerTableRecord
  2
allgemein
 70
     0
 62
    18
420
        0
  6
Continuous
370
    25
390
F
  0
LAYER
  5
74
330
2
100
AcDbSymbolTableRecord
100
AcDbLayerTableRecord
  2
Beschriftung Allgemein
 70
     0
 62
    18
420
        0
  6
Continuous
370
    25
390
F
  0
LAYER
  5
75
330
2
100
AcDbSymbolTableRecord
100
AcDbLayerTableRecord
  2
MSS2-500-390
 70
     0
 62
    18
420
        0
  6
Continuous
370
    25
390
F
  0
LAYER
  5
B2
330
2
100
AcDbSymbolTableRecord
100
AcDbLayerTableRecord
  2
Calm 815
 70
     0
 62
    18
420
        0
  6
Continuous
370
    25
390
F
  0
LAYER
  5
384
330
2
100
AcDbSymbolTableRecord
100
AcDbLayerTableRecord
  2
Defpoints
 70
     0
 62
     7
  6
Continuous
290
     0
370
    -3
390
F
  0
LAYER
  5
4A8
330
2
100
AcDbSymbolTableRecord
100
AcDbLayerTableRecord
  2
Calm 820
 70
     0
 62
    18
420
        0
  6
Continuous
370
    25
390
F
  0
LAYER
  5
4ED
330
2
100
AcDbSymbolTableRecord
100
AcDbLayerTableRecord
  2
Calm 831
 70
     0
 62
    18
420
        0
  6
Continuous
370
    25
390
F
  0
ENDTAB
  0
TABLE
  2
STYLE
  5
3
330
0
100
AcDbSymbolTable
 70
     6
  0
STYLE
  5
11
330
3
100
AcDbSymbolTableRecord
100
AcDbTextStyleTableRecord
  2
Standard
 70
     0
 40
0.0
 41
1.0
 50
0.0
 71
     0
 42
2.5
  3
txt
  4

  0
STYLE
  5
368
330
3
100
AcDbSymbolTableRecord
100
AcDbTextStyleTableRecord
  2
CENTURY GOTHIC
 70
     0
 40
0.0
 41
1.0
 50
0.0
 71
     0
 42
0.2
  3
CENTURY GOTHIC
  4

  0
STYLE
  5
382
330
3
100
AcDbSymbolTableRecord
100
AcDbTextStyleTableRecord
  2
ARIAL
 70
     0
 40
0.0
 41
1.0
 50
0.0
 71
     0
 42
0.2
  3
ARIAL
  4

  0
STYLE
  5
397
330
3
100
AcDbSymbolTableRecord
100
AcDbTextStyleTableRecord
  2
ROMAN
 70
     0
 40
0.0
 41
1.0
 50
0.0
 71
     0
 42
0.2
  3
ROMAN
  4

  0
STYLE
  5
48D
330
3
100
AcDbSymbolTableRecord
100
AcDbTextStyleTableRecord
  2
HLV-L
 70
     0
 40
0.0
 41
1.0
 50
0.0
 71
     0
 42
0.2
  3
HLV-L
  4

  0
STYLE
  5
493
330
3
100
AcDbSymbolTableRecord
100
AcDbTextStyleTableRecord
  2
HELV-HFT
 70
     0
 40
0.0
 41
1.0
 50
0.0
 71
     0
 42
0.2
  3
HELV-HFT
  4

  0
ENDTAB
  0
TABLE
  2
VIEW
  5
6
330
0
100
AcDbSymbolTable
 70
     0
  0
ENDTAB
  0
TABLE
  2
UCS
  5
7
330
0
100
AcDbSymbolTable
 70
     0
  0
ENDTAB
  0
TABLE
  2
APPID
  5
9
330
0
100
AcDbSymbolTable
 70
     3
  0
APPID
  5
12
330
9
100
AcDbSymbolTableRecord
100
AcDbRegAppTableRecord
  2
ACAD
 70
     0
  0
APPID
  5
554
330
9
100
AcDbSymbolTableRecord
100
AcDbRegAppTableRecord
  2
ACAD_DSTYLE_DIMEXT_ENABLED
 70
     0
  0
APPID
  5
555
330
9
100
AcDbSymbolTableRecord
100
AcDbRegAppTableRecord
  2
ACAD_DSTYLE_DIMEXT_LENGTH
 70
     0
  0
ENDTAB
  0
TABLE
  2
DIMSTYLE
  5
A
330
0
100
AcDbSymbolTable
 70
     1
100
AcDbDimStyleTable
  0
DIMSTYLE
105
27
102
{ACAD_REACTORS
330
383
330
398
330
3A5
330
3B2
330
3BF
330
3CE
330
499
102
}
330
A
100
AcDbSymbolTableRecord
100
AcDbDimStyleTableRecord
  2
ISO-25
 70
     0
 41
2.5
 42
0.625
 43
3.75
 44
1.25
 73
     0
 74
     0
 77
     1
 78
     8
140
2.5
141
2.5
143
0.03937007874016
147
0.625
171
     3
172
     1
178
     0
271
     2
272
     2
274
     3
278
    44
283
     0
284
     8
340
11
  0
ENDTAB
  0
TABLE
  2
BLOCK_RECORD
  5
1
330
0
100
AcDbSymbolTable
 70
    81
  0
BLOCK_RECORD
  5
1F
330
1
100
AcDbSymbolTableRecord
100
AcDbBlockTableRecord
  2
*Model_Space
340
22
  0
BLOCK_RECORD
  5
1B
330
1
100
AcDbSymbolTableRecord
100
AcDbBlockTableRecord
  2
*Paper_Space
340
1E
  0
BLOCK_RECORD
  5
23
330
1
100
AcDbSymbolTableRecord
100
AcDbBlockTableRecord
  2
*Paper_Space0
340
26
  0
BLOCK_RECORD
  5
40
330
1
100
AcDbSymbolTableRecord
100
AcDbBlockTableRecord
  2
Dimension1
340
0
102
{BLKREFS
331
43
102
}
  0
BLOCK_RECORD
  5
44
330
1
100
AcDbSymbolTableRecord
100
AcDbBlockTableRecord
  2
Dimension2
340
0
102
{BLKREFS
331
47
102
}
  0
BLOCK_RECORD
  5
48
330
1
100
AcDbSymbolTableRecord
100
AcDbBlockTableRecord
  2
Dimension3
340
0
102
{BLKREFS
331
4B
102
}
  0
BLOCK_RECORD
  5
4C
330
1
100
AcDbSymbolTableRecord
100
AcDbBlockTableRecord
  2
Dimension4
340
0
102
{BLKREFS
331
4F
102
}
  0
BLOCK_RECORD
  5
50
330
1
100
AcDbSymbolTableRecord
100
AcDbBlockTableRecord
  2
Dimension5
340
0
102
{BLKREFS
331
53
102
}
  0
BLOCK_RECORD
  5
54
330
1
100
AcDbSymbolTableRecord
100
AcDbBlockTableRecord
  2
Dimension6
340
0
102
{BLKREFS
331
57
102
}
  0
BLOCK_RECORD
  5
58
330
1
100
AcDbSymbolTableRecord
100
AcDbBlockTableRecord
  2
Dimension7
340
0
102
{BLKREFS
331
5B
102
}
  0
BLOCK_RECORD
  5
5C
330
1
100
AcDbSymbolTableRecord
100
AcDbBlockTableRecord
  2
Dimension8
340
0
102
{BLKREFS
331
5F
102
}
  0
BLOCK_RECORD
  5
60
330
1
100
AcDbSymbolTableRecord
100
AcDbBlockTableRecord
  2
Dimension9
340
0
102
{BLKREFS
331
63
102
}
  0
BLOCK_RECORD
  5
64
330
1
100
AcDbSymbolTableRecord
100
AcDbBlockTableRecord
  2
Dimension10
340
0
102
{BLKREFS
331
67
102
}
  0
BLOCK_RECORD
  5
68
330
1
100
AcDbSymbolTableRecord
100
AcDbBlockTableRecord
  2
Dimension11
340
0
102
{BLKREFS
331
6B
102
}
  0
BLOCK_RECORD
  5
6C
330
1
100
AcDbSymbolTableRecord
100
AcDbBlockTableRecord
  2
Dimension12
340
0
102
{BLKREFS
331
6F
102
}
  0
BLOCK_RECORD
  5
70
330
1
100
AcDbSymbolTableRecord
100
AcDbBlockTableRecord
  2
Dimension13
340
0
102
{BLKREFS
331
73
102
}
  0
BLOCK_RECORD
  5
76
330
1
100
AcDbSymbolTableRecord
100
AcDbBlockTableRecord
  2
Dimension14
340
0
102
{BLKREFS
331
79
102
}
  0
BLOCK_RECORD
  5
7A
330
1
100
AcDbSymbolTableRecord
100
AcDbBlockTableRecord
  2
Dimension15
340
0
102
{BLKREFS
331
7D
102
}
  0
BLOCK_RECORD
  5
7E
330
1
100
AcDbSymbolTableRecord
100
AcDbBlockTableRecord
  2
Dimension16
340
0
102
{BLKREFS
331
81
102
}
  0
BLOCK_RECORD
  5
82
330
1
100
AcDbSymbolTableRecord
100
AcDbBlockTableRecord
  2
Dimension17
340
0
102
{BLKREFS
331
85
102
}
  0
BLOCK_RECORD
  5
86
330
1
100
AcDbSymbolTableRecord
100
AcDbBlockTableRecord
  2
Dimension18
340
0
102
{BLKREFS
331
89
102
}
  0
BLOCK_RECORD
  5
8A
330
1
100
AcDbSymbolTableRecord
100
AcDbBlockTableRecord
  2
Dimension19
340
0
102
{BLKREFS
331
8D
102
}
  0
BLOCK_RECORD
  5
8E
330
1
100
AcDbSymbolTableRecord
100
AcDbBlockTableRecord
  2
Dimension20
340
0
102
{BLKREFS
331
91
102
}
  0
BLOCK_RECORD
  5
92
330
1
100
AcDbSymbolTableRecord
100
AcDbBlockTableRecord
  2
Dimension21
340
0
102
{BLKREFS
331
95
102
}
  0
BLOCK_RECORD
  5
96
330
1
100
AcDbSymbolTableRecord
100
AcDbBlockTableRecord
  2
Dimension22
340
0
102
{BLKREFS
331
99
102
}
  0
BLOCK_RECORD
  5
9A
330
1
100
AcDbSymbolTableRecord
100
AcDbBlockTableRecord
  2
Dimension23
340
0
102
{BLKREFS
331
9D
102
}
  0
BLOCK_RECORD
  5
9E
330
1
100
AcDbSymbolTableRecord
100
AcDbBlockTableRecord
  2
Dimension24
340
0
102
{BLKREFS
331
A1
102
}
  0
BLOCK_RECORD
  5
A2
330
1
100
AcDbSymbolTableRecord
100
AcDbBlockTableRecord
  2
Dimension25
340
0
102
{BLKREFS
331
A5
102
}
  0
BLOCK_RECORD
  5
A6
330
1
100
AcDbSymbolTableRecord
100
AcDbBlockTableRecord
  2
Dimension26
340
0
102
{BLKREFS
331
A9
102
}
  0
BLOCK_RECORD
  5
AA
330
1
100
AcDbSymbolTableRecord
100
AcDbBlockTableRecord
  2
Dimension27
340
0
102
{BLKREFS
331
AD
102
}
  0
BLOCK_RECORD
  5
AE
330
1
100
AcDbSymbolTableRecord
100
AcDbBlockTableRecord
  2
Dimension28
340
0
102
{BLKREFS
331
B1
102
}
  0
BLOCK_RECORD
  5
36A
330
1
100
AcDbSymbolTableRecord
100
AcDbBlockTableRecord
  2
Dimension29
340
0
102
{BLKREFS
331
36D
102
}
  0
BLOCK_RECORD
  5
36E
330
1
100
AcDbSymbolTableRecord
100
AcDbBlockTableRecord
  2
Dimension30
340
0
102
{BLKREFS
331
371
102
}
  0
BLOCK_RECORD
  5
372
330
1
100
AcDbSymbolTableRecord
100
AcDbBlockTableRecord
  2
Dimension31
340
0
102
{BLKREFS
331
375
102
}
  0
BLOCK_RECORD
  5
376
330
1
100
AcDbSymbolTableRecord
100
AcDbBlockTableRecord
  2
Dimension32
340
0
102
{BLKREFS
331
379
102
}
  0
BLOCK_RECORD
  5
37A
330
1
100
AcDbSymbolTableRecord
100
AcDbBlockTableRecord
  2
Dimension33
340
0
102
{BLKREFS
331
37D
102
}
  0
BLOCK_RECORD
  5
37E
330
1
100
AcDbSymbolTableRecord
100
AcDbBlockTableRecord
  2
Dimension34
340
0
102
{BLKREFS
331
381
102
}
  0
BLOCK_RECORD
  5
385
330
1
100
AcDbSymbolTableRecord
100
AcDbBlockTableRecord
  2
*D35
340
0
  0
BLOCK_RECORD
  5
391
330
1
100
AcDbSymbolTableRecord
100
AcDbBlockTableRecord
  2
_OPEN30
340
0
102
{BLKREFS
331
389
331
38A
331
39D
331
39E
331
3AA
331
3AB
331
3B7
331
3B8
331
0
331
0
331
3C7
331
3C6
331
0
331
0
331
3D6
331
3D5
331
0
331
0
331
4A1
331
4A0
102
}
  0
BLOCK_RECORD
  5
399
330
1
100
AcDbSymbolTableRecord
100
AcDbBlockTableRecord
  2
*D37
340
0
  0
BLOCK_RECORD
  5
3A6
330
1
100
AcDbSymbolTableRecord
100
AcDbBlockTableRecord
  2
*D38
340
0
  0
BLOCK_RECORD
  5
3B3
330
1
100
AcDbSymbolTableRecord
100
AcDbBlockTableRecord
  2
*D39
340
0
  0
BLOCK_RECORD
  5
3C0
330
1
100
AcDbSymbolTableRecord
100
AcDbBlockTableRecord
  2
*D40
340
0
  0
BLOCK_RECORD
  5
3CF
330
1
100
AcDbSymbolTableRecord
100
AcDbBlockTableRecord
  2
*D41
340
0
  0
BLOCK_RECORD
  5
3DD
330
1
100
AcDbSymbolTableRecord
100
AcDbBlockTableRecord
  2
Dimension35
340
0
102
{BLKREFS
331
3E0
102
}
  0
BLOCK_RECORD
  5
3E1
330
1
100
AcDbSymbolTableRecord
100
AcDbBlockTableRecord
  2
Dimension36
340
0
102
{BLKREFS
331
3E4
102
}
  0
BLOCK_RECORD
  5
3E5
330
1
100
AcDbSymbolTableRecord
100
AcDbBlockTableRecord
  2
Dimension37
340
0
102
{BLKREFS
331
3E8
102
}
  0
BLOCK_RECORD
  5
495
330
1
100
AcDbSymbolTableRecord
100
AcDbBlockTableRecord
  2
Dimension38
340
0
102
{BLKREFS
331
498
102
}
  0
BLOCK_RECORD
  5
49A
330
1
100
AcDbSymbolTableRecord
100
AcDbBlockTableRecord
  2
*D46
340
0
  0
BLOCK_RECORD
  5
4A9
330
1
100
AcDbSymbolTableRecord
100
AcDbBlockTableRecord
  2
Dimension39
340
0
102
{BLKREFS
331
4AC
102
}
  0
BLOCK_RECORD
  5
4AD
330
1
100
AcDbSymbolTableRecord
100
AcDbBlockTableRecord
  2
Dimension40
340
0
102
{BLKREFS
331
4B0
102
}
  0
BLOCK_RECORD
  5
4B1
330
1
100
AcDbSymbolTableRecord
100
AcDbBlockTableRecord
  2
Dimension41
340
0
102
{BLKREFS
331
4B4
102
}
  0
BLOCK_RECORD
  5
4B5
330
1
100
AcDbSymbolTableRecord
100
AcDbBlockTableRecord
  2
Dimension42
340
0
102
{BLKREFS
331
4B8
102
}
  0
BLOCK_RECORD
  5
4B9
330
1
100
AcDbSymbolTableRecord
100
AcDbBlockTableRecord
  2
Dimension43
340
0
102
{BLKREFS
331
4BC
102
}
  0
BLOCK_RECORD
  5
4BD
330
1
100
AcDbSymbolTableRecord
100
AcDbBlockTableRecord
  2
Dimension44
340
0
102
{BLKREFS
331
4C0
102
}
  0
BLOCK_RECORD
  5
4C1
330
1
100
AcDbSymbolTableRecord
100
AcDbBlockTableRecord
  2
Dimension45
340
0
102
{BLKREFS
331
4C4
102
}
  0
BLOCK_RECORD
  5
4C5
330
1
100
AcDbSymbolTableRecord
100
AcDbBlockTableRecord
  2
Dimension46
340
0
102
{BLKREFS
331
4C8
102
}
  0
BLOCK_RECORD
  5
4C9
330
1
100
AcDbSymbolTableRecord
100
AcDbBlockTableRecord
  2
Dimension47
340
0
102
{BLKREFS
331
4CC
102
}
  0
BLOCK_RECORD
  5
4CD
330
1
100
AcDbSymbolTableRecord
100
AcDbBlockTableRecord
  2
Dimension48
340
0
102
{BLKREFS
331
4D0
102
}
  0
BLOCK_RECORD
  5
4D1
330
1
100
AcDbSymbolTableRecord
100
AcDbBlockTableRecord
  2
Dimension49
340
0
102
{BLKREFS
331
4D4
102
}
  0
BLOCK_RECORD
  5
4D5
330
1
100
AcDbSymbolTableRecord
100
AcDbBlockTableRecord
  2
Dimension50
340
0
102
{BLKREFS
331
4D8
102
}
  0
BLOCK_RECORD
  5
4D9
330
1
100
AcDbSymbolTableRecord
100
AcDbBlockTableRecord
  2
Dimension51
340
0
102
{BLKREFS
331
4DC
102
}
  0
BLOCK_RECORD
  5
4DD
330
1
100
AcDbSymbolTableRecord
100
AcDbBlockTableRecord
  2
Dimension52
340
0
102
{BLKREFS
331
4E0
102
}
  0
BLOCK_RECORD
  5
4E1
330
1
100
AcDbSymbolTableRecord
100
AcDbBlockTableRecord
  2
Dimension53
340
0
102
{BLKREFS
331
4E4
102
}
  0
BLOCK_RECORD
  5
4E5
330
1
100
AcDbSymbolTableRecord
100
AcDbBlockTableRecord
  2
Dimension54
340
0
102
{BLKREFS
331
4E8
102
}
  0
BLOCK_RECORD
  5
4E9
330
1
100
AcDbSymbolTableRecord
100
AcDbBlockTableRecord
  2
Dimension55
340
0
102
{BLKREFS
331
4EC
102
}
  0
BLOCK_RECORD
  5
4EE
330
1
100
AcDbSymbolTableRecord
100
AcDbBlockTableRecord
  2
Dimension56
340
0
102
{BLKREFS
331
4F1
102
}
  0
BLOCK_RECORD
  5
4F2
330
1
100
AcDbSymbolTableRecord
100
AcDbBlockTableRecord
  2
Dimension57
340
0
102
{BLKREFS
331
4F5
102
}
  0
BLOCK_RECORD
  5
4F6
330
1
100
AcDbSymbolTableRecord
100
AcDbBlockTableRecord
  2
Dimension58
340
0
102
{BLKREFS
331
4F9
102
}
  0
BLOCK_RECORD
  5
4FA
330
1
100
AcDbSymbolTableRecord
100
AcDbBlockTableRecord
  2
Dimension59
340
0
102
{BLKREFS
331
4FD
102
}
  0
BLOCK_RECORD
  5
4FE
330
1
100
AcDbSymbolTableRecord
100
AcDbBlockTableRecord
  2
Dimension60
340
0
102
{BLKREFS
331
501
102
}
  0
BLOCK_RECORD
  5
502
330
1
100
AcDbSymbolTableRecord
100
AcDbBlockTableRecord
  2
Dimension61
340
0
102
{BLKREFS
331
505
102
}
  0
BLOCK_RECORD
  5
506
330
1
100
AcDbSymbolTableRecord
100
AcDbBlockTableRecord
  2
Dimension62
340
0
102
{BLKREFS
331
509
102
}
  0
BLOCK_RECORD
  5
50A
330
1
100
AcDbSymbolTableRecord
100
AcDbBlockTableRecord
  2
Dimension63
340
0
102
{BLKREFS
331
50D
102
}
  0
BLOCK_RECORD
  5
50E
330
1
100
AcDbSymbolTableRecord
100
AcDbBlockTableRecord
  2
Dimension64
340
0
102
{BLKREFS
331
511
102
}
  0
BLOCK_RECORD
  5
512
330
1
100
AcDbSymbolTableRecord
100
AcDbBlockTableRecord
  2
Dimension65
340
0
102
{BLKREFS
331
515
102
}
  0
BLOCK_RECORD
  5
516
330
1
100
AcDbSymbolTableRecord
100
AcDbBlockTableRecord
  2
Dimension66
340
0
102
{BLKREFS
331
519
102
}
  0
BLOCK_RECORD
  5
51A
330
1
100
AcDbSymbolTableRecord
100
AcDbBlockTableRecord
  2
Dimension67
340
0
102
{BLKREFS
331
51D
102
}
  0
BLOCK_RECORD
  5
51E
330
1
100
AcDbSymbolTableRecord
100
AcDbBlockTableRecord
  2
Dimension68
340
0
102
{BLKREFS
331
521
102
}
  0
BLOCK_RECORD
  5
522
330
1
100
AcDbSymbolTableRecord
100
AcDbBlockTableRecord
  2
Dimension69
340
0
102
{BLKREFS
331
525
102
}
  0
BLOCK_RECORD
  5
526
330
1
100
AcDbSymbolTableRecord
100
AcDbBlockTableRecord
  2
Dimension70
340
0
102
{BLKREFS
331
529
102
}
  0
BLOCK_RECORD
  5
52A
330
1
100
AcDbSymbolTableRecord
100
AcDbBlockTableRecord
  2
Dimension71
340
0
102
{BLKREFS
331
52D
102
}
  0
BLOCK_RECORD
  5
52E
330
1
100
AcDbSymbolTableRecord
100
AcDbBlockTableRecord
  2
Dimension72
340
0
102
{BLKREFS
331
531
102
}
  0
ENDTAB
  0
ENDSEC
  0
SECTION
  2
BLOCKS
  0
BLOCK
  5
20
330
1F
100
AcDbEntity
  8
0
100
AcDbBlockBegin
  2
*Model_Space
 70
     0
 10
0.0
 20
0.0
 30
0.0
  3
*Model_Space
  1

  0
ENDBLK
  5
21
330
1F
100
AcDbEntity
  8
0
100
AcDbBlockEnd
  0
BLOCK
  5
1C
330
1B
100
AcDbEntity
 67
     1
  8
0
100
AcDbBlockBegin
  2
*Paper_Space
 70
     0
 10
0.0
 20
0.0
 30
0.0
  3
*Paper_Space
  1

  0
ENDBLK
  5
1D
330
1B
100
AcDbEntity
 67
     1
  8
0
100
AcDbBlockEnd
  0
BLOCK
  5
24
330
23
100
AcDbEntity
  8
0
100
AcDbBlockBegin
  2
*Paper_Space0
 70
     0
 10
0.0
 20
0.0
 30
0.0
  3
*Paper_Space0
  1

  0
ENDBLK
  5
25
330
23
100
AcDbEntity
  8
0
100
AcDbBlockEnd
  0
BLOCK
  5
41
330
40
100
AcDbEntity
  8
0
100
AcDbBlockBegin
  2
Dimension1
 70
     0
 10
0.0
 20
0.0
 30
0.0
  3
Dimension1
  1

  0
ENDBLK
  5
42
330
40
100
AcDbEntity
  8
0
100
AcDbBlockEnd
  0
BLOCK
  5
45
330
44
100
AcDbEntity
  8
0
100
AcDbBlockBegin
  2
Dimension2
 70
     0
 10
0.0
 20
0.0
 30
0.0
  3
Dimension2
  1

  0
ENDBLK
  5
46
330
44
100
AcDbEntity
  8
0
100
AcDbBlockEnd
  0
BLOCK
  5
49
330
48
100
AcDbEntity
  8
0
100
AcDbBlockBegin
  2
Dimension3
 70
     0
 10
0.0
 20
0.0
 30
0.0
  3
Dimension3
  1

  0
ENDBLK
  5
4A
330
48
100
AcDbEntity
  8
0
100
AcDbBlockEnd
  0
BLOCK
  5
4D
330
4C
100
AcDbEntity
  8
0
100
AcDbBlockBegin
  2
Dimension4
 70
     0
 10
0.0
 20
0.0
 30
0.0
  3
Dimension4
  1

  0
ENDBLK
  5
4E
330
4C
100
AcDbEntity
  8
0
100
AcDbBlockEnd
  0
BLOCK
  5
51
330
50
100
AcDbEntity
  8
0
100
AcDbBlockBegin
  2
Dimension5
 70
     0
 10
0.0
 20
0.0
 30
0.0
  3
Dimension5
  1

  0
ENDBLK
  5
52
330
50
100
AcDbEntity
  8
0
100
AcDbBlockEnd
  0
BLOCK
  5
55
330
54
100
AcDbEntity
  8
0
100
AcDbBlockBegin
  2
Dimension6
 70
     0
 10
0.0
 20
0.0
 30
0.0
  3
Dimension6
  1

  0
ENDBLK
  5
56
330
54
100
AcDbEntity
  8
0
100
AcDbBlockEnd
  0
BLOCK
  5
59
330
58
100
AcDbEntity
  8
0
100
AcDbBlockBegin
  2
Dimension7
 70
     0
 10
0.0
 20
0.0
 30
0.0
  3
Dimension7
  1

  0
ENDBLK
  5
5A
330
58
100
AcDbEntity
  8
0
100
AcDbBlockEnd
  0
BLOCK
  5
5D
330
5C
100
AcDbEntity
  8
0
100
AcDbBlockBegin
  2
Dimension8
 70
     0
 10
0.0
 20
0.0
 30
0.0
  3
Dimension8
  1

  0
ENDBLK
  5
5E
330
5C
100
AcDbEntity
  8
0
100
AcDbBlockEnd
  0
BLOCK
  5
61
330
60
100
AcDbEntity
  8
0
100
AcDbBlockBegin
  2
Dimension9
 70
     0
 10
0.0
 20
0.0
 30
0.0
  3
Dimension9
  1

  0
ENDBLK
  5
62
330
60
100
AcDbEntity
  8
0
100
AcDbBlockEnd
  0
BLOCK
  5
65
330
64
100
AcDbEntity
  8
0
100
AcDbBlockBegin
  2
Dimension10
 70
     0
 10
0.0
 20
0.0
 30
0.0
  3
Dimension10
  1

  0
ENDBLK
  5
66
330
64
100
AcDbEntity
  8
0
100
AcDbBlockEnd
  0
BLOCK
  5
69
330
68
100
AcDbEntity
  8
0
100
AcDbBlockBegin
  2
Dimension11
 70
     0
 10
0.0
 20
0.0
 30
0.0
  3
Dimension11
  1

  0
ENDBLK
  5
6A
330
68
100
AcDbEntity
  8
0
100
AcDbBlockEnd
  0
BLOCK
  5
6D
330
6C
100
AcDbEntity
  8
0
100
AcDbBlockBegin
  2
Dimension12
 70
     0
 10
0.0
 20
0.0
 30
0.0
  3
Dimension12
  1

  0
ENDBLK
  5
6E
330
6C
100
AcDbEntity
  8
0
100
AcDbBlockEnd
  0
BLOCK
  5
71
330
70
100
AcDbEntity
  8
0
100
AcDbBlockBegin
  2
Dimension13
 70
     0
 10
0.0
 20
0.0
 30
0.0
  3
Dimension13
  1

  0
ENDBLK
  5
72
330
70
100
AcDbEntity
  8
0
100
AcDbBlockEnd
  0
BLOCK
  5
77
330
76
100
AcDbEntity
  8
0
100
AcDbBlockBegin
  2
Dimension14
 70
     0
 10
0.0
 20
0.0
 30
0.0
  3
Dimension14
  1

  0
ENDBLK
  5
78
330
76
100
AcDbEntity
  8
0
100
AcDbBlockEnd
  0
BLOCK
  5
7B
330
7A
100
AcDbEntity
  8
0
100
AcDbBlockBegin
  2
Dimension15
 70
     0
 10
0.0
 20
0.0
 30
0.0
  3
Dimension15
  1

  0
ENDBLK
  5
7C
330
7A
100
AcDbEntity
  8
0
100
AcDbBlockEnd
  0
BLOCK
  5
7F
330
7E
100
AcDbEntity
  8
0
100
AcDbBlockBegin
  2
Dimension16
 70
     0
 10
0.0
 20
0.0
 30
0.0
  3
Dimension16
  1

  0
ENDBLK
  5
80
330
7E
100
AcDbEntity
  8
0
100
AcDbBlockEnd
  0
BLOCK
  5
83
330
82
100
AcDbEntity
  8
0
100
AcDbBlockBegin
  2
Dimension17
 70
     0
 10
0.0
 20
0.0
 30
0.0
  3
Dimension17
  1

  0
ENDBLK
  5
84
330
82
100
AcDbEntity
  8
0
100
AcDbBlockEnd
  0
BLOCK
  5
87
330
86
100
AcDbEntity
  8
0
100
AcDbBlockBegin
  2
Dimension18
 70
     0
 10
0.0
 20
0.0
 30
0.0
  3
Dimension18
  1

  0
ENDBLK
  5
88
330
86
100
AcDbEntity
  8
0
100
AcDbBlockEnd
  0
BLOCK
  5
8B
330
8A
100
AcDbEntity
  8
0
100
AcDbBlockBegin
  2
Dimension19
 70
     0
 10
0.0
 20
0.0
 30
0.0
  3
Dimension19
  1

  0
ENDBLK
  5
8C
330
8A
100
AcDbEntity
  8
0
100
AcDbBlockEnd
  0
BLOCK
  5
8F
330
8E
100
AcDbEntity
  8
0
100
AcDbBlockBegin
  2
Dimension20
 70
     0
 10
0.0
 20
0.0
 30
0.0
  3
Dimension20
  1

  0
ENDBLK
  5
90
330
8E
100
AcDbEntity
  8
0
100
AcDbBlockEnd
  0
BLOCK
  5
93
330
92
100
AcDbEntity
  8
0
100
AcDbBlockBegin
  2
Dimension21
 70
     0
 10
0.0
 20
0.0
 30
0.0
  3
Dimension21
  1

  0
ENDBLK
  5
94
330
92
100
AcDbEntity
  8
0
100
AcDbBlockEnd
  0
BLOCK
  5
97
330
96
100
AcDbEntity
  8
0
100
AcDbBlockBegin
  2
Dimension22
 70
     0
 10
0.0
 20
0.0
 30
0.0
  3
Dimension22
  1

  0
ENDBLK
  5
98
330
96
100
AcDbEntity
  8
0
100
AcDbBlockEnd
  0
BLOCK
  5
9B
330
9A
100
AcDbEntity
  8
0
100
AcDbBlockBegin
  2
Dimension23
 70
     0
 10
0.0
 20
0.0
 30
0.0
  3
Dimension23
  1

  0
ENDBLK
  5
9C
330
9A
100
AcDbEntity
  8
0
100
AcDbBlockEnd
  0
BLOCK
  5
9F
330
9E
100
AcDbEntity
  8
0
100
AcDbBlockBegin
  2
Dimension24
 70
     0
 10
0.0
 20
0.0
 30
0.0
  3
Dimension24
  1

  0
ENDBLK
  5
A0
330
9E
100
AcDbEntity
  8
0
100
AcDbBlockEnd
  0
BLOCK
  5
A3
330
A2
100
AcDbEntity
  8
0
100
AcDbBlockBegin
  2
Dimension25
 70
     0
 10
0.0
 20
0.0
 30
0.0
  3
Dimension25
  1

  0
ENDBLK
  5
A4
330
A2
100
AcDbEntity
  8
0
100
AcDbBlockEnd
  0
BLOCK
  5
A7
330
A6
100
AcDbEntity
  8
0
100
AcDbBlockBegin
  2
Dimension26
 70
     0
 10
0.0
 20
0.0
 30
0.0
  3
Dimension26
  1

  0
ENDBLK
  5
A8
330
A6
100
AcDbEntity
  8
0
100
AcDbBlockEnd
  0
BLOCK
  5
AB
330
AA
100
AcDbEntity
  8
0
100
AcDbBlockBegin
  2
Dimension27
 70
     0
 10
0.0
 20
0.0
 30
0.0
  3
Dimension27
  1

  0
ENDBLK
  5
AC
330
AA
100
AcDbEntity
  8
0
100
AcDbBlockEnd
  0
BLOCK
  5
AF
330
AE
100
AcDbEntity
  8
0
100
AcDbBlockBegin
  2
Dimension28
 70
     0
 10
0.0
 20
0.0
 30
0.0
  3
Dimension28
  1

  0
ENDBLK
  5
B0
330
AE
100
AcDbEntity
  8
0
100
AcDbBlockEnd
  0
BLOCK
  5
36B
330
36A
100
AcDbEntity
  8
0
100
AcDbBlockBegin
  2
Dimension29
 70
     0
 10
0.0
 20
0.0
 30
0.0
  3
Dimension29
  1

  0
ENDBLK
  5
36C
330
36A
100
AcDbEntity
  8
0
100
AcDbBlockEnd
  0
BLOCK
  5
36F
330
36E
100
AcDbEntity
  8
0
100
AcDbBlockBegin
  2
Dimension30
 70
     0
 10
0.0
 20
0.0
 30
0.0
  3
Dimension30
  1

  0
ENDBLK
  5
370
330
36E
100
AcDbEntity
  8
0
100
AcDbBlockEnd
  0
BLOCK
  5
373
330
372
100
AcDbEntity
  8
0
100
AcDbBlockBegin
  2
Dimension31
 70
     0
 10
0.0
 20
0.0
 30
0.0
  3
Dimension31
  1

  0
ENDBLK
  5
374
330
372
100
AcDbEntity
  8
0
100
AcDbBlockEnd
  0
BLOCK
  5
377
330
376
100
AcDbEntity
  8
0
100
AcDbBlockBegin
  2
Dimension32
 70
     0
 10
0.0
 20
0.0
 30
0.0
  3
Dimension32
  1

  0
ENDBLK
  5
378
330
376
100
AcDbEntity
  8
0
100
AcDbBlockEnd
  0
BLOCK
  5
37B
330
37A
100
AcDbEntity
  8
0
100
AcDbBlockBegin
  2
Dimension33
 70
     0
 10
0.0
 20
0.0
 30
0.0
  3
Dimension33
  1

  0
ENDBLK
  5
37C
330
37A
100
AcDbEntity
  8
0
100
AcDbBlockEnd
  0
BLOCK
  5
37F
330
37E
100
AcDbEntity
  8
0
100
AcDbBlockBegin
  2
Dimension34
 70
     0
 10
0.0
 20
0.0
 30
0.0
  3
Dimension34
  1

  0
ENDBLK
  5
380
330
37E
100
AcDbEntity
  8
0
100
AcDbBlockEnd
  0
BLOCK
  5
38F
330
385
100
AcDbEntity
  8
0
100
AcDbBlockBegin
  2
*D35
 70
     1
 10
0.0
 20
0.0
 30
0.0
  3
*D35
  1

  0
LINE
  5
386
330
385
100
AcDbEntity
  8
Calm 815
  6
Continuous
 62
    18
 48
50.00000038146973
370
    -2
100
AcDbLine
 10
36429.50963192119
 20
-19265.09684022626
 30
0.0
 11
36429.50963192119
 21
-19305.09683932027
 31
0.0
  0
LINE
  5
387
330
385
100
AcDbEntity
  8
Calm 815
  6
Continuous
 62
    18
 48
50.00000038146973
370
    -2
100
AcDbLine
 10
36947.76960401667
 20
-19265.09684022626
 30
0.0
 11
36947.76960401667
 21
-19305.09683932027
 31
0.0
  0
LINE
  5
388
330
385
100
AcDbEntity
  8
Calm 815
  6
Continuous
 62
    18
 48
50.00000038146973
370
    -2
100
AcDbLine
 10
36444.50963251723
 20
-19285.09683977327
 30
0.0
 11
36932.76960342062
 21
-19285.09683977327
 31
0.0
  0
INSERT
  5
389
330
385
100
AcDbEntity
  8
Calm 815
 62
    18
370
    -2
100
AcDbBlockReference
  2
_OPEN30
 10
36429.50963192119
 20
-19285.09683977327
 30
0.0
 41
15.00000059604645
 42
15.00000059604645
 43
15.00000059604645
 50
180.0
  0
INSERT
  5
38A
330
385
100
AcDbEntity
  8
Calm 815
 62
    18
370
    -2
100
AcDbBlockReference
  2
_OPEN30
 10
36947.76960401667
 20
-19285.09683977327
 30
0.0
 41
15.00000059604645
 42
15.00000059604645
 43
15.00000059604645
  0
MTEXT
  5
38B
330
385
100
AcDbEntity
  8
Calm 815
  6
Continuous
 62
     0
370
    25
100
AcDbMText
 10
36688.63961796893
 20
-19244.67683568439
 30
0.0
 40
40.0
 41
0.0
 71
     5
 72
     1
  1
518.26
  7
ARIAL
 73
     1
 44
1.0
  0
POINT
  5
38C
330
385
100
AcDbEntity
  8
Defpoints
 62
     0
100
AcDbPoint
 10
36429.50963192119
 20
-19024.79570642899
 30
0.0
  0
POINT
  5
38D
330
385
100
AcDbEntity
  8
Defpoints
 62
     0
100
AcDbPoint
 10
36947.76960401667
 20
-19024.79880701494
 30
0.0
  0
POINT
  5
38E
330
385
100
AcDbEntity
  8
Defpoints
 62
     0
100
AcDbPoint
 10
36947.76960401667
 20
-19285.09683977327
 30
0.0
  0
ENDBLK
  5
390
330
385
100
AcDbEntity
  8
0
100
AcDbBlockEnd
  0
BLOCK
  5
392
330
391
100
AcDbEntity
  8
0
100
AcDbBlockBegin
  2
_OPEN30
 70
     0
 10
0.0
 20
0.0
 30
0.0
  3
_OPEN30
  1

  0
LINE
  5
394
330
391
100
AcDbEntity
  8
0
  6
ByBlock
 62
     0
370
    -2
100
AcDbLine
 10
-1.0
 20
0.267949
 30
0.0
 11
0.0
 21
0.0
 31
0.0
  0
LINE
  5
395
330
391
100
AcDbEntity
  8
0
  6
ByBlock
 62
     0
370
    -2
100
AcDbLine
 10
0.0
 20
0.0
 30
0.0
 11
-1.0
 21
-0.267949
 31
0.0
  0
LINE
  5
396
330
391
100
AcDbEntity
  8
0
  6
ByBlock
 62
     0
370
    -2
100
AcDbLine
 10
0.0
 20
0.0
 30
0.0
 11
-1.0
 21
0.0
 31
0.0
  0
ENDBLK
  5
393
330
391
100
AcDbEntity
  8
0
100
AcDbBlockEnd
  0
BLOCK
  5
3A3
330
399
100
AcDbEntity
  8
0
100
AcDbBlockBegin
  2
*D37
 70
     1
 10
0.0
 20
0.0
 30
0.0
  3
*D37
  1

  0
LINE
  5
39A
330
399
100
AcDbEntity
  8
Calm 815
  6
Continuous
 62
    18
 48
50.00000038146973
370
    -2
100
AcDbLine
 10
36403.51011667385
 20
-19319.09684022626
 30
0.0
 11
36403.51011667385
 21
-19359.09683932027
 31
0.0
  0
LINE
  5
39B
330
399
100
AcDbEntity
  8
Calm 815
  6
Continuous
 62
    18
 48
50.00000038146973
370
    -2
100
AcDbLine
 10
36973.63913696656
 20
-19319.09684022626
 30
0.0
 11
36973.63913696656
 21
-19359.09683932027
 31
0.0
  0
LINE
  5
39C
330
399
100
AcDbEntity
  8
Calm 815
  6
Continuous
 62
    18
 48
50.00000038146973
370
    -2
100
AcDbLine
 10
36412.51011703147
 20
-19339.09683977327
 30
0.0
 11
36964.63913660893
 21
-19339.09683977327
 31
0.0
  0
INSERT
  5
39D
330
399
100
AcDbEntity
  8
Calm 815
 62
    18
370
    -2
100
AcDbBlockReference
  2
_OPEN30
 10
36403.51011667385
 20
-19339.09683977327
 30
0.0
 41
9.000000357627869
 42
9.000000357627869
 43
9.000000357627869
 50
180.0
  0
INSERT
  5
39E
330
399
100
AcDbEntity
  8
Calm 815
 62
    18
370
    -2
100
AcDbBlockReference
  2
_OPEN30
 10
36973.63913696656
 20
-19339.09683977327
 30
0.0
 41
9.000000357627869
 42
9.000000357627869
 43
9.000000357627869
  0
MTEXT
  5
39F
330
399
100
AcDbEntity
  8
Calm 815
  6
Continuous
 62
    18
370
    25
100
AcDbMText
 10
36688.57462682021
 20
-19307.09683568439
 30
0.0
 40
24.0
 41
0.0
 71
     5
 72
     1
  1
570.129
  7
ROMAN
 73
     1
 44
1.0
  0
POINT
  5
3A0
330
399
100
AcDbEntity
  8
Defpoints
 62
     0
100
AcDbPoint
 10
36403.51011667385
 20
-19024.79648157546
 30
0.0
  0
POINT
  5
3A1
330
399
100
AcDbEntity
  8
Defpoints
 62
     0
100
AcDbPoint
 10
36973.63913696656
 20
-19017.09695118744
 30
0.0
  0
POINT
  5
3A2
330
399
100
AcDbEntity
  8
Defpoints
 62
     0
100
AcDbPoint
 10
36973.63913696656
 20
-19339.09683977327
 30
0.0
  0
ENDBLK
  5
3A4
330
399
100
AcDbEntity
  8
0
100
AcDbBlockEnd
  0
BLOCK
  5
3B0
330
3A6
100
AcDbEntity
  8
0
100
AcDbBlockBegin
  2
*D38
 70
     1
 10
0.0
 20
0.0
 30
0.0
  3
*D38
  1

  0
LINE
  5
3A7
330
3A6
100
AcDbEntity
  8
Calm 815
  6
Continuous
 62
    18
 48
50.00000038146973
370
    -2
100
AcDbLine
 10
36364.63849022995
 20
-19200.09687639667
 30
0.0
 11
36324.63849113594
 21
-19200.09687639667
 31
0.0
  0
LINE
  5
3A8
330
3A6
100
AcDbEntity
  8
Calm 815
  6
Continuous
 62
    18
 48
50.00000038146973
370
    -2
100
AcDbLine
 10
36364.63849022995
 20
-18834.09688135577
 30
0.0
 11
36324.63849113594
 21
-18834.09688135577
 31
0.0
  0
LINE
  5
3A9
330
3A6
100
AcDbEntity
  8
Calm 815
  6
Continuous
 62
    18
 48
50.00000038146973
370
    -2
100
AcDbLine
 10
36344.63849068295
 20
-19185.09687580062
 30
0.0
 11
36344.63849068295
 21
-18849.09688195182
 31
0.0
  0
INSERT
  5
3AA
330
3A6
100
AcDbEntity
  8
Calm 815
 62
    18
370
    -2
100
AcDbBlockReference
  2
_OPEN30
 10
36344.63849068295
 20
-19200.09687639667
 30
0.0
 41
15.00000059604645
 42
15.00000059604645
 43
15.00000059604645
 50
270.0
  0
INSERT
  5
3AB
330
3A6
100
AcDbEntity
  8
Calm 815
 62
    18
370
    -2
100
AcDbBlockReference
  2
_OPEN30
 10
36344.63849068295
 20
-18834.09688135577
 30
0.0
 41
15.00000059604645
 42
15.00000059604645
 43
15.00000059604645
 50
90.0
  0
MTEXT
  5
3AC
330
3A6
100
AcDbEntity
  8
Calm 815
  6
Continuous
 62
     0
370
    25
100
AcDbMText
 10
36304.21848659407
 20
-19017.09687887622
 30
0.0
 40
40.0
 41
0.0
 71
     5
 72
     1
  1
366
  7
ARIAL
 11
0.0
 21
1.0
 31
0.0
 73
     1
 44
1.0
  0
POINT
  5
3AD
330
3A6
100
AcDbEntity
  8
Defpoints
 62
     0
100
AcDbPoint
 10
36688.68520021572
 20
-19200.09687639667
 30
0.0
  0
POINT
  5
3AE
330
3A6
100
AcDbEntity
  8
Defpoints
 62
     0
100
AcDbPoint
 10
36688.63714113368
 20
-18834.09688135577
 30
0.0
  0
POINT
  5
3AF
330
3A6
100
AcDbEntity
  8
Defpoints
 62
     0
100
AcDbPoint
 10
36344.63849068295
 20
-18834.09688135577
 30
0.0
  0
ENDBLK
  5
3B1
330
3A6
100
AcDbEntity
  8
0
100
AcDbBlockEnd
  0
BLOCK
  5
3BD
330
3B3
100
AcDbEntity
  8
0
100
AcDbBlockBegin
  2
*D39
 70
     1
 10
0.0
 20
0.0
 30
0.0
  3
*D39
  1

  0
LINE
  5
3B4
330
3B3
100
AcDbEntity
  8
Calm 815
  6
Continuous
 62
    18
 48
50.00000038146973
370
    -2
100
AcDbLine
 10
36310.63849022996
 20
-18808.09677263689
 30
0.0
 11
36270.63849113595
 21
-18808.09677263689
 31
0.0
  0
LINE
  5
3B5
330
3B3
100
AcDbEntity
  8
Calm 815
  6
Continuous
 62
    18
 48
50.00000038146973
370
    -2
100
AcDbLine
 10
36310.63849022996
 20
-19226.09683977557
 30
0.0
 11
36270.63849113595
 21
-19226.09683977557
 31
0.0
  0
LINE
  5
3B6
330
3B3
100
AcDbEntity
  8
Calm 815
  6
Continuous
 62
    18
 48
50.00000038146973
370
    -2
100
AcDbLine
 10
36290.63849068296
 20
-18817.09677299452
 30
0.0
 11
36290.63849068296
 21
-19217.09683941794
 31
0.0
  0
INSERT
  5
3B7
330
3B3
100
AcDbEntity
  8
Calm 815
 62
    18
370
    -2
100
AcDbBlockReference
  2
_OPEN30
 10
36290.63849068296
 20
-18808.09677263689
 30
0.0
 41
9.000000357627869
 42
9.000000357627869
 43
9.000000357627869
 50
90.0
  0
INSERT
  5
3B8
330
3B3
100
AcDbEntity
  8
Calm 815
 62
    18
370
    -2
100
AcDbBlockReference
  2
_OPEN30
 10
36290.63849068296
 20
-19226.09683977557
 30
0.0
 41
9.000000357627869
 42
9.000000357627869
 43
9.000000357627869
 50
270.0
  0
MTEXT
  5
3B9
330
3B3
100
AcDbEntity
  8
Calm 815
  6
Continuous
 62
    18
370
    25
100
AcDbMText
 10
36258.63848659408
 20
-19017.09680620623
 30
0.0
 40
24.0
 41
0.0
 71
     5
 72
     1
  1
418
  7
ROMAN
 11
0.0
 21
1.0
 31
0.0
 73
     1
 44
1.0
  0
POINT
  5
3BA
330
3B3
100
AcDbEntity
  8
Defpoints
 62
     0
100
AcDbPoint
 10
36688.63869142665
 20
-18808.09677263689
 30
0.0
  0
POINT
  5
3BB
330
3B3
100
AcDbEntity
  8
Defpoints
 62
     0
100
AcDbPoint
 10
36688.63869764229
 20
-19226.09683977557
 30
0.0
  0
POINT
  5
3BC
330
3B3
100
AcDbEntity
  8
Defpoints
 62
     0
100
AcDbPoint
 10
36290.63849068296
 20
-19226.09683977557
 30
0.0
  0
ENDBLK
  5
3BE
330
3B3
100
AcDbEntity
  8
0
100
AcDbBlockEnd
  0
BLOCK
  5
3CA
330
3C0
100
AcDbEntity
  8
0
100
AcDbBlockBegin
  2
*D40
 70
     1
 10
0.0
 20
0.0
 30
0.0
  3
*D40
  1

  0
LINE
  5
3C1
330
3C0
100
AcDbEntity
  8
Calm 815
  6
Continuous
 62
    18
 48
50.00000038146973
370
    -2
100
AcDbLine
 10
37173.76872121096
 20
-18781.40572262133
 30
0.0
 11
37173.76872121096
 21
-18741.40572352732
 31
0.0
  0
LINE
  5
3C2
330
3C0
100
AcDbEntity
  8
Calm 815
  6
Continuous
 62
    18
 48
50.00000038146973
370
    -2
100
AcDbLine
 10
37331.6081908023
 20
-18781.40572262133
 30
0.0
 11
37331.6081908023
 21
-18741.40572352732
 31
0.0
  0
LINE
  5
3C3
330
3C0
100
AcDbEntity
  8
Calm 815
  6
Continuous
 62
    18
 48
50.00000038146973
370
    -2
100
AcDbLine
 10
37173.76872121096
 20
-18761.40572307432
 30
0.0
 11
37331.6081908023
 21
-18761.40572307432
 31
0.0
  0
LINE
  5
3C4
330
3C0
100
AcDbEntity
  8
Calm 815
  6
Continuous
 62
    18
 48
50.00000038146973
370
    -2
100
AcDbLine
 10
37158.76872061491
 20
-18761.40572307432
 30
0.0
 11
37143.76872001887
 21
-18761.40572307432
 31
0.0
  0
LINE
  5
3C5
330
3C0
100
AcDbEntity
  8
Calm 815
  6
Continuous
 62
    18
 48
50.00000038146973
370
    -2
100
AcDbLine
 10
37346.60819139834
 20
-18761.40572307432
 30
0.0
 11
37361.60819199439
 21
-18761.40572307432
 31
0.0
  0
INSERT
  5
3C6
330
3C0
100
AcDbEntity
  8
Calm 815
 62
    18
370
    -2
100
AcDbBlockReference
  2
_OPEN30
 10
37173.76872121096
 20
-18761.40572307432
 30
0.0
 41
15.00000059604645
 42
15.00000059604645
 43
15.00000059604645
  0
INSERT
  5
3C7
330
3C0
100
AcDbEntity
  8
Calm 815
 62
    18
370
    -2
100
AcDbBlockReference
  2
_OPEN30
 10
37331.6081908023
 20
-18761.40572307432
 30
0.0
 41
15.00000059604645
 42
15.00000059604645
 43
15.00000059604645
 50
180.0
  0
MTEXT
  5
3C8
330
3C0
100
AcDbEntity
  8
Calm 815
  6
Continuous
 62
     0
370
    25
100
AcDbMText
 10
37252.68845600662
 20
-18720.98571898545
 30
0.0
 40
40.0
 41
0.0
 71
     5
 72
     1
  1
157.839
  7
ARIAL
 73
     1
 44
1.0
  0
POINT
  5
3C9
330
3C0
100
AcDbEntity
  8
Defpoints
 62
     0
100
AcDbPoint
 10
37173.76872121096
 20
-18834.10895174378
 30
0.0
  0
POINT
  5
3CC
330
3C0
100
AcDbEntity
  8
Defpoints
 62
     0
100
AcDbPoint
 10
37331.6081908023
 20
-18920.63184626506
 30
0.0
  0
POINT
  5
3CD
330
3C0
100
AcDbEntity
  8
Defpoints
 62
     0
100
AcDbPoint
 10
37331.6081908023
 20
-18761.40572307432
 30
0.0
  0
ENDBLK
  5
3CB
330
3C0
100
AcDbEntity
  8
0
100
AcDbBlockEnd
  0
BLOCK
  5
3D9
330
3CF
100
AcDbEntity
  8
0
100
AcDbBlockBegin
  2
*D41
 70
     1
 10
0.0
 20
0.0
 30
0.0
  3
*D41
  1

  0
LINE
  5
3D0
330
3CF
100
AcDbEntity
  8
Calm 815
  6
Continuous
 62
    18
 48
50.00000038146973
370
    -2
100
AcDbLine
 10
37012.64016834028
 20
-18909.0973421712
 30
0.0
 11
37052.64016743429
 21
-18909.0973421712
 31
0.0
  0
LINE
  5
3D1
330
3CF
100
AcDbEntity
  8
Calm 815
  6
Continuous
 62
    18
 48
50.00000038146973
370
    -2
100
AcDbLine
 10
37012.64016834028
 20
-18834.09688135577
 30
0.0
 11
37052.64016743429
 21
-18834.09688135577
 31
0.0
  0
LINE
  5
3D2
330
3CF
100
AcDbEntity
  8
Calm 815
  6
Continuous
 62
    18
 48
50.00000038146973
370
    -2
100
AcDbLine
 10
37032.64016788729
 20
-18909.0973421712
 30
0.0
 11
37032.64016788729
 21
-18834.09688135577
 31
0.0
  0
LINE
  5
3D3
330
3CF
100
AcDbEntity
  8
Calm 815
  6
Continuous
 62
    18
 48
50.00000038146973
370
    -2
100
AcDbLine
 10
37032.64016788729
 20
-18918.09734252883
 30
0.0
 11
37032.64016788729
 21
-18927.09734288646
 31
0.0
  0
LINE
  5
3D4
330
3CF
100
AcDbEntity
  8
Calm 815
  6
Continuous
 62
    18
 48
50.00000038146973
370
    -2
100
AcDbLine
 10
37032.64016788729
 20
-18825.09688099814
 30
0.0
 11
37032.64016788729
 21
-18816.09688064051
 31
0.0
  0
INSERT
  5
3D5
330
3CF
100
AcDbEntity
  8
Calm 815
 62
    18
370
    -2
100
AcDbBlockReference
  2
_OPEN30
 10
37032.64016788729
 20
-18909.0973421712
 30
0.0
 41
9.000000357627869
 42
9.000000357627869
 43
9.000000357627869
 50
90.0
  0
INSERT
  5
3D6
330
3CF
100
AcDbEntity
  8
Calm 815
 62
    18
370
    -2
100
AcDbBlockReference
  2
_OPEN30
 10
37032.64016788729
 20
-18834.09688135577
 30
0.0
 41
9.000000357627869
 42
9.000000357627869
 43
9.000000357627869
 50
270.0
  0
MTEXT
  5
3D7
330
3CF
100
AcDbEntity
  8
Calm 815
  6
Continuous
 62
    18
370
    25
100
AcDbMText
 10
37000.64016379841
 20
-18871.59711176348
 30
0.0
 40
24.0
 41
0.0
 71
     5
 72
     1
  1
75
  7
ROMAN
 11
0.0
 21
1.0
 31
0.0
 73
     1
 44
1.0
  0
POINT
  5
3D8
330
3CF
100
AcDbEntity
  8
Defpoints
 62
     0
100
AcDbPoint
 10
36688.63714113368
 20
-18909.0973421712
 30
0.0
  0
POINT
  5
3DB
330
3CF
100
AcDbEntity
  8
Defpoints
 62
     0
100
AcDbPoint
 10
36688.63714113368
 20
-18834.09688135577
 30
0.0
  0
POINT
  5
3DC
330
3CF
100
AcDbEntity
  8
Defpoints
 62
     0
100
AcDbPoint
 10
37032.64016788729
 20
-18834.09688135577
 30
0.0
  0
ENDBLK
  5
3DA
330
3CF
100
AcDbEntity
  8
0
100
AcDbBlockEnd
  0
BLOCK
  5
3DE
330
3DD
100
AcDbEntity
  8
0
100
AcDbBlockBegin
  2
Dimension35
 70
     0
 10
0.0
 20
0.0
 30
0.0
  3
Dimension35
  1

  0
ENDBLK
  5
3DF
330
3DD
100
AcDbEntity
  8
0
100
AcDbBlockEnd
  0
BLOCK
  5
3E2
330
3E1
100
AcDbEntity
  8
0
100
AcDbBlockBegin
  2
Dimension36
 70
     0
 10
0.0
 20
0.0
 30
0.0
  3
Dimension36
  1

  0
ENDBLK
  5
3E3
330
3E1
100
AcDbEntity
  8
0
100
AcDbBlockEnd
  0
BLOCK
  5
3E6
330
3E5
100
AcDbEntity
  8
0
100
AcDbBlockBegin
  2
Dimension37
 70
     0
 10
0.0
 20
0.0
 30
0.0
  3
Dimension37
  1

  0
ENDBLK
  5
3E7
330
3E5
100
AcDbEntity
  8
0
100
AcDbBlockEnd
  0
BLOCK
  5
496
330
495
100
AcDbEntity
  8
0
100
AcDbBlockBegin
  2
Dimension38
 70
     0
 10
0.0
 20
0.0
 30
0.0
  3
Dimension38
  1

  0
ENDBLK
  5
497
330
495
100
AcDbEntity
  8
0
100
AcDbBlockEnd
  0
BLOCK
  5
4A4
330
49A
100
AcDbEntity
  8
0
100
AcDbBlockBegin
  2
*D46
 70
     1
 10
0.0
 20
0.0
 30
0.0
  3
*D46
  1

  0
LINE
  5
49B
330
49A
100
AcDbEntity
  8
Calm 815
  6
Continuous
 62
    18
 48
50.00000038146973
370
    -2
100
AcDbLine
 10
37012.64016834028
 20
-19426.09683977557
 30
0.0
 11
37052.64016743429
 21
-19426.09683977557
 31
0.0
  0
LINE
  5
49C
330
49A
100
AcDbEntity
  8
Calm 815
  6
Continuous
 62
    18
 48
50.00000038146973
370
    -2
100
AcDbLine
 10
37012.64016834028
 20
-19604.06364398573
 30
0.0
 11
37052.64016743429
 21
-19604.06364398573
 31
0.0
  0
LINE
  5
49D
330
49A
100
AcDbEntity
  8
Calm 815
  6
Continuous
 62
    18
 48
50.00000038146973
370
    -2
100
AcDbLine
 10
37032.64016788729
 20
-19426.09683977557
 30
0.0
 11
37032.64016788729
 21
-19604.06364398573
 31
0.0
  0
LINE
  5
49E
330
49A
100
AcDbEntity
  8
Calm 815
  6
Continuous
 62
    18
 48
50.00000038146973
370
    -2
100
AcDbLine
 10
37032.64016788729
 20
-19417.09683941794
 30
0.0
 11
37032.64016788729
 21
-19408.09683906032
 31
0.0
  0
LINE
  5
49F
330
49A
100
AcDbEntity
  8
Calm 815
  6
Continuous
 62
    18
 48
50.00000038146973
370
    -2
100
AcDbLine
 10
37032.64016788729
 20
-19613.06364434335
 30
0.0
 11
37032.64016788729
 21
-19622.06364470098
 31
0.0
  0
INSERT
  5
4A0
330
49A
100
AcDbEntity
  8
Calm 815
 62
    18
370
    -2
100
AcDbBlockReference
  2
_OPEN30
 10
37032.64016788729
 20
-19426.09683977557
 30
0.0
 41
9.000000357627869
 42
9.000000357627869
 43
9.000000357627869
 50
270.0
  0
INSERT
  5
4A1
330
49A
100
AcDbEntity
  8
Calm 815
 62
    18
370
    -2
100
AcDbBlockReference
  2
_OPEN30
 10
37032.64016788729
 20
-19604.06364398573
 30
0.0
 41
9.000000357627869
 42
9.000000357627869
 43
9.000000357627869
 50
90.0
  0
MTEXT
  5
4A2
330
49A
100
AcDbEntity
  8
Calm 815
  6
Continuous
 62
    18
370
    25
100
AcDbMText
 10
37000.64016379841
 20
-19515.08024188065
 30
0.0
 40
24.0
 41
0.0
 71
     5
 72
     1
  1
177.967
  7
ROMAN
 11
0.0
 21
1.0
 31
0.0
 73
     1
 44
1.0
  0
POINT
  5
4A3
330
49A
100
AcDbEntity
  8
Defpoints
 62
     0
100
AcDbPoint
 10
36947.673255731
 20
-19426.09683977557
 30
0.0
  0
POINT
  5
4A6
330
49A
100
AcDbEntity
  8
Defpoints
 62
     0
100
AcDbPoint
 10
36681.20608291356
 20
-19604.06364398573
 30
0.0
  0
POINT
  5
4A7
330
49A
100
AcDbEntity
  8
Defpoints
 62
     0
100
AcDbPoint
 10
37032.64016788729
 20
-19604.06364398573
 30
0.0
  0
ENDBLK
  5
4A5
330
49A
100
AcDbEntity
  8
0
100
AcDbBlockEnd
  0
BLOCK
  5
4AA
330
4A9
100
AcDbEntity
  8
0
100
AcDbBlockBegin
  2
Dimension39
 70
     0
 10
0.0
 20
0.0
 30
0.0
  3
Dimension39
  1

  0
ENDBLK
  5
4AB
330
4A9
100
AcDbEntity
  8
0
100
AcDbBlockEnd
  0
BLOCK
  5
4AE
330
4AD
100
AcDbEntity
  8
0
100
AcDbBlockBegin
  2
Dimension40
 70
     0
 10
0.0
 20
0.0
 30
0.0
  3
Dimension40
  1

  0
ENDBLK
  5
4AF
330
4AD
100
AcDbEntity
  8
0
100
AcDbBlockEnd
  0
BLOCK
  5
4B2
330
4B1
100
AcDbEntity
  8
0
100
AcDbBlockBegin
  2
Dimension41
 70
     0
 10
0.0
 20
0.0
 30
0.0
  3
Dimension41
  1

  0
ENDBLK
  5
4B3
330
4B1
100
AcDbEntity
  8
0
100
AcDbBlockEnd
  0
BLOCK
  5
4B6
330
4B5
100
AcDbEntity
  8
0
100
AcDbBlockBegin
  2
Dimension42
 70
     0
 10
0.0
 20
0.0
 30
0.0
  3
Dimension42
  1

  0
ENDBLK
  5
4B7
330
4B5
100
AcDbEntity
  8
0
100
AcDbBlockEnd
  0
BLOCK
  5
4BA
330
4B9
100
AcDbEntity
  8
0
100
AcDbBlockBegin
  2
Dimension43
 70
     0
 10
0.0
 20
0.0
 30
0.0
  3
Dimension43
  1

  0
ENDBLK
  5
4BB
330
4B9
100
AcDbEntity
  8
0
100
AcDbBlockEnd
  0
BLOCK
  5
4BE
330
4BD
100
AcDbEntity
  8
0
100
AcDbBlockBegin
  2
Dimension44
 70
     0
 10
0.0
 20
0.0
 30
0.0
  3
Dimension44
  1

  0
ENDBLK
  5
4BF
330
4BD
100
AcDbEntity
  8
0
100
AcDbBlockEnd
  0
BLOCK
  5
4C2
330
4C1
100
AcDbEntity
  8
0
100
AcDbBlockBegin
  2
Dimension45
 70
     0
 10
0.0
 20
0.0
 30
0.0
  3
Dimension45
  1

  0
ENDBLK
  5
4C3
330
4C1
100
AcDbEntity
  8
0
100
AcDbBlockEnd
  0
BLOCK
  5
4C6
330
4C5
100
AcDbEntity
  8
0
100
AcDbBlockBegin
  2
Dimension46
 70
     0
 10
0.0
 20
0.0
 30
0.0
  3
Dimension46
  1

  0
ENDBLK
  5
4C7
330
4C5
100
AcDbEntity
  8
0
100
AcDbBlockEnd
  0
BLOCK
  5
4CA
330
4C9
100
AcDbEntity
  8
0
100
AcDbBlockBegin
  2
Dimension47
 70
     0
 10
0.0
 20
0.0
 30
0.0
  3
Dimension47
  1

  0
ENDBLK
  5
4CB
330
4C9
100
AcDbEntity
  8
0
100
AcDbBlockEnd
  0
BLOCK
  5
4CE
330
4CD
100
AcDbEntity
  8
0
100
AcDbBlockBegin
  2
Dimension48
 70
     0
 10
0.0
 20
0.0
 30
0.0
  3
Dimension48
  1

  0
ENDBLK
  5
4CF
330
4CD
100
AcDbEntity
  8
0
100
AcDbBlockEnd
  0
BLOCK
  5
4D2
330
4D1
100
AcDbEntity
  8
0
100
AcDbBlockBegin
  2
Dimension49
 70
     0
 10
0.0
 20
0.0
 30
0.0
  3
Dimension49
  1

  0
ENDBLK
  5
4D3
330
4D1
100
AcDbEntity
  8
0
100
AcDbBlockEnd
  0
BLOCK
  5
4D6
330
4D5
100
AcDbEntity
  8
0
100
AcDbBlockBegin
  2
Dimension50
 70
     0
 10
0.0
 20
0.0
 30
0.0
  3
Dimension50
  1

  0
ENDBLK
  5
4D7
330
4D5
100
AcDbEntity
  8
0
100
AcDbBlockEnd
  0
BLOCK
  5
4DA
330
4D9
100
AcDbEntity
  8
0
100
AcDbBlockBegin
  2
Dimension51
 70
     0
 10
0.0
 20
0.0
 30
0.0
  3
Dimension51
  1

  0
ENDBLK
  5
4DB
330
4D9
100
AcDbEntity
  8
0
100
AcDbBlockEnd
  0
BLOCK
  5
4DE
330
4DD
100
AcDbEntity
  8
0
100
AcDbBlockBegin
  2
Dimension52
 70
     0
 10
0.0
 20
0.0
 30
0.0
  3
Dimension52
  1

  0
ENDBLK
  5
4DF
330
4DD
100
AcDbEntity
  8
0
100
AcDbBlockEnd
  0
BLOCK
  5
4E2
330
4E1
100
AcDbEntity
  8
0
100
AcDbBlockBegin
  2
Dimension53
 70
     0
 10
0.0
 20
0.0
 30
0.0
  3
Dimension53
  1

  0
ENDBLK
  5
4E3
330
4E1
100
AcDbEntity
  8
0
100
AcDbBlockEnd
  0
BLOCK
  5
4E6
330
4E5
100
AcDbEntity
  8
0
100
AcDbBlockBegin
  2
Dimension54
 70
     0
 10
0.0
 20
0.0
 30
0.0
  3
Dimension54
  1

  0
ENDBLK
  5
4E7
330
4E5
100
AcDbEntity
  8
0
100
AcDbBlockEnd
  0
BLOCK
  5
4EA
330
4E9
100
AcDbEntity
  8
0
100
AcDbBlockBegin
  2
Dimension55
 70
     0
 10
0.0
 20
0.0
 30
0.0
  3
Dimension55
  1

  0
ENDBLK
  5
4EB
330
4E9
100
AcDbEntity
  8
0
100
AcDbBlockEnd
  0
BLOCK
  5
4EF
330
4EE
100
AcDbEntity
  8
0
100
AcDbBlockBegin
  2
Dimension56
 70
     0
 10
0.0
 20
0.0
 30
0.0
  3
Dimension56
  1

  0
ENDBLK
  5
4F0
330
4EE
100
AcDbEntity
  8
0
100
AcDbBlockEnd
  0
BLOCK
  5
4F3
330
4F2
100
AcDbEntity
  8
0
100
AcDbBlockBegin
  2
Dimension57
 70
     0
 10
0.0
 20
0.0
 30
0.0
  3
Dimension57
  1

  0
ENDBLK
  5
4F4
330
4F2
100
AcDbEntity
  8
0
100
AcDbBlockEnd
  0
BLOCK
  5
4F7
330
4F6
100
AcDbEntity
  8
0
100
AcDbBlockBegin
  2
Dimension58
 70
     0
 10
0.0
 20
0.0
 30
0.0
  3
Dimension58
  1

  0
ENDBLK
  5
4F8
330
4F6
100
AcDbEntity
  8
0
100
AcDbBlockEnd
  0
BLOCK
  5
4FB
330
4FA
100
AcDbEntity
  8
0
100
AcDbBlockBegin
  2
Dimension59
 70
     0
 10
0.0
 20
0.0
 30
0.0
  3
Dimension59
  1

  0
ENDBLK
  5
4FC
330
4FA
100
AcDbEntity
  8
0
100
AcDbBlockEnd
  0
BLOCK
  5
4FF
330
4FE
100
AcDbEntity
  8
0
100
AcDbBlockBegin
  2
Dimension60
 70
     0
 10
0.0
 20
0.0
 30
0.0
  3
Dimension60
  1

  0
ENDBLK
  5
500
330
4FE
100
AcDbEntity
  8
0
100
AcDbBlockEnd
  0
BLOCK
  5
503
330
502
100
AcDbEntity
  8
0
100
AcDbBlockBegin
  2
Dimension61
 70
     0
 10
0.0
 20
0.0
 30
0.0
  3
Dimension61
  1

  0
ENDBLK
  5
504
330
502
100
AcDbEntity
  8
0
100
AcDbBlockEnd
  0
BLOCK
  5
507
330
506
100
AcDbEntity
  8
0
100
AcDbBlockBegin
  2
Dimension62
 70
     0
 10
0.0
 20
0.0
 30
0.0
  3
Dimension62
  1

  0
ENDBLK
  5
508
330
506
100
AcDbEntity
  8
0
100
AcDbBlockEnd
  0
BLOCK
  5
50B
330
50A
100
AcDbEntity
  8
0
100
AcDbBlockBegin
  2
Dimension63
 70
     0
 10
0.0
 20
0.0
 30
0.0
  3
Dimension63
  1

  0
ENDBLK
  5
50C
330
50A
100
AcDbEntity
  8
0
100
AcDbBlockEnd
  0
BLOCK
  5
50F
330
50E
100
AcDbEntity
  8
0
100
AcDbBlockBegin
  2
Dimension64
 70
     0
 10
0.0
 20
0.0
 30
0.0
  3
Dimension64
  1

  0
ENDBLK
  5
510
330
50E
100
AcDbEntity
  8
0
100
AcDbBlockEnd
  0
BLOCK
  5
513
330
512
100
AcDbEntity
  8
0
100
AcDbBlockBegin
  2
Dimension65
 70
     0
 10
0.0
 20
0.0
 30
0.0
  3
Dimension65
  1

  0
ENDBLK
  5
514
330
512
100
AcDbEntity
  8
0
100
AcDbBlockEnd
  0
BLOCK
  5
517
330
516
100
AcDbEntity
  8
0
100
AcDbBlockBegin
  2
Dimension66
 70
     0
 10
0.0
 20
0.0
 30
0.0
  3
Dimension66
  1

  0
ENDBLK
  5
518
330
516
100
AcDbEntity
  8
0
100
AcDbBlockEnd
  0
BLOCK
  5
51B
330
51A
100
AcDbEntity
  8
0
100
AcDbBlockBegin
  2
Dimension67
 70
     0
 10
0.0
 20
0.0
 30
0.0
  3
Dimension67
  1

  0
ENDBLK
  5
51C
330
51A
100
AcDbEntity
  8
0
100
AcDbBlockEnd
  0
BLOCK
  5
51F
330
51E
100
AcDbEntity
  8
0
100
AcDbBlockBegin
  2
Dimension68
 70
     0
 10
0.0
 20
0.0
 30
0.0
  3
Dimension68
  1

  0
ENDBLK
  5
520
330
51E
100
AcDbEntity
  8
0
100
AcDbBlockEnd
  0
BLOCK
  5
523
330
522
100
AcDbEntity
  8
0
100
AcDbBlockBegin
  2
Dimension69
 70
     0
 10
0.0
 20
0.0
 30
0.0
  3
Dimension69
  1

  0
ENDBLK
  5
524
330
522
100
AcDbEntity
  8
0
100
AcDbBlockEnd
  0
BLOCK
  5
527
330
526
100
AcDbEntity
  8
0
100
AcDbBlockBegin
  2
Dimension70
 70
     0
 10
0.0
 20
0.0
 30
0.0
  3
Dimension70
  1

  0
ENDBLK
  5
528
330
526
100
AcDbEntity
  8
0
100
AcDbBlockEnd
  0
BLOCK
  5
52B
330
52A
100
AcDbEntity
  8
0
100
AcDbBlockBegin
  2
Dimension71
 70
     0
 10
0.0
 20
0.0
 30
0.0
  3
Dimension71
  1

  0
ENDBLK
  5
52C
330
52A
100
AcDbEntity
  8
0
100
AcDbBlockEnd
  0
BLOCK
  5
52F
330
52E
100
AcDbEntity
  8
0
100
AcDbBlockBegin
  2
Dimension72
 70
     0
 10
0.0
 20
0.0
 30
0.0
  3
Dimension72
  1

  0
ENDBLK
  5
530
330
52E
100
AcDbEntity
  8
0
100
AcDbBlockEnd
  0
ENDSEC
  0
SECTION
  2
ENTITIES
  0
INSERT
  5
43
330
1F
100
AcDbEntity
  8
allgemein
  6
Continuous
 62
    18
420
        0
 48
50.00000038146973
370
    25
100
AcDbBlockReference
  2
Dimension1
 10
0.0
 20
0.0
 30
0.0
  0
INSERT
  5
47
330
1F
100
AcDbEntity
  8
allgemein
  6
Continuous
 62
    18
420
        0
 48
50.00000038146973
370
    25
100
AcDbBlockReference
  2
Dimension2
 10
0.0
 20
0.0
 30
0.0
  0
INSERT
  5
4B
330
1F
100
AcDbEntity
  8
allgemein
  6
Continuous
 62
    18
420
        0
 48
50.00000038146973
370
    25
100
AcDbBlockReference
  2
Dimension3
 10
0.0
 20
0.0
 30
0.0
  0
INSERT
  5
4F
330
1F
100
AcDbEntity
  8
allgemein
  6
Continuous
 62
    18
420
        0
 48
50.00000038146973
370
    25
100
AcDbBlockReference
  2
Dimension4
 10
0.0
 20
0.0
 30
0.0
  0
INSERT
  5
53
330
1F
100
AcDbEntity
  8
allgemein
  6
Continuous
 62
    18
420
        0
 48
50.00000038146973
370
    25
100
AcDbBlockReference
  2
Dimension5
 10
0.0
 20
0.0
 30
0.0
  0
INSERT
  5
57
330
1F
100
AcDbEntity
  8
allgemein
  6
Continuous
 62
    18
420
        0
 48
50.00000038146973
370
    25
100
AcDbBlockReference
  2
Dimension6
 10
0.0
 20
0.0
 30
0.0
  0
INSERT
  5
5B
330
1F
100
AcDbEntity
  8
allgemein
  6
Continuous
 62
    18
420
        0
 48
50.00000038146973
370
    25
100
AcDbBlockReference
  2
Dimension7
 10
0.0
 20
0.0
 30
0.0
  0
INSERT
  5
5F
330
1F
100
AcDbEntity
  8
allgemein
  6
Continuous
 62
    18
420
        0
 48
50.00000038146973
370
    25
100
AcDbBlockReference
  2
Dimension8
 10
0.0
 20
0.0
 30
0.0
  0
INSERT
  5
63
330
1F
100
AcDbEntity
  8
allgemein
  6
Continuous
 62
    18
420
        0
 48
50.00000038146973
370
    25
100
AcDbBlockReference
  2
Dimension9
 10
0.0
 20
0.0
 30
0.0
  0
INSERT
  5
67
330
1F
100
AcDbEntity
  8
allgemein
  6
Continuous
 62
    18
420
        0
 48
50.00000038146973
370
    25
100
AcDbBlockReference
  2
Dimension10
 10
0.0
 20
0.0
 30
0.0
  0
INSERT
  5
6B
330
1F
100
AcDbEntity
  8
allgemein
  6
Continuous
 62
    18
420
        0
 48
50.00000038146973
370
    25
100
AcDbBlockReference
  2
Dimension11
 10
0.0
 20
0.0
 30
0.0
  0
INSERT
  5
6F
330
1F
100
AcDbEntity
  8
allgemein
  6
Continuous
 62
    18
420
        0
 48
50.00000038146973
370
    25
100
AcDbBlockReference
  2
Dimension12
 10
0.0
 20
0.0
 30
0.0
  0
INSERT
  5
73
330
1F
100
AcDbEntity
  8
allgemein
  6
Continuous
 62
    18
420
        0
 48
50.00000038146973
370
    25
100
AcDbBlockReference
  2
Dimension13
 10
0.0
 20
0.0
 30
0.0
  0
INSERT
  5
79
330
1F
100
AcDbEntity
  8
MSS2-500-390
  6
Continuous
 62
    18
420
        0
 48
50.00000038146973
370
    25
100
AcDbBlockReference
  2
Dimension14
 10
0.0
 20
0.0
 30
0.0
  0
INSERT
  5
7D
330
1F
100
AcDbEntity
  8
MSS2-500-390
  6
Continuous
 62
    18
420
        0
 48
50.00000038146973
370
    25
100
AcDbBlockReference
  2
Dimension15
 10
0.0
 20
0.0
 30
0.0
  0
INSERT
  5
81
330
1F
100
AcDbEntity
  8
MSS2-500-390
  6
Continuous
 62
    18
420
        0
 48
50.00000038146973
370
    25
100
AcDbBlockReference
  2
Dimension16
 10
0.0
 20
0.0
 30
0.0
  0
INSERT
  5
85
330
1F
100
AcDbEntity
  8
MSS2-500-390
  6
Continuous
 62
    18
420
        0
 48
50.00000038146973
370
    25
100
AcDbBlockReference
  2
Dimension17
 10
0.0
 20
0.0
 30
0.0
  0
INSERT
  5
89
330
1F
100
AcDbEntity
  8
MSS2-500-390
  6
Continuous
 62
    18
420
        0
 48
50.00000038146973
370
    25
100
AcDbBlockReference
  2
Dimension18
 10
0.0
 20
0.0
 30
0.0
  0
INSERT
  5
8D
330
1F
100
AcDbEntity
  8
MSS2-500-390
  6
Continuous
 62
    18
420
        0
 48
50.00000038146973
370
    25
100
AcDbBlockReference
  2
Dimension19
 10
0.0
 20
0.0
 30
0.0
  0
INSERT
  5
91
330
1F
100
AcDbEntity
  8
MSS2-500-390
  6
Continuous
 62
    18
420
        0
 48
50.00000038146973
370
    25
100
AcDbBlockReference
  2
Dimension20
 10
0.0
 20
0.0
 30
0.0
  0
INSERT
  5
95
330
1F
100
AcDbEntity
  8
MSS2-500-390
  6
Continuous
 62
    18
420
        0
 48
50.00000038146973
370
    25
100
AcDbBlockReference
  2
Dimension21
 10
0.0
 20
0.0
 30
0.0
  0
INSERT
  5
99
330
1F
100
AcDbEntity
  8
MSS2-500-390
  6
Continuous
 62
    18
420
        0
 48
50.00000038146973
370
    25
100
AcDbBlockReference
  2
Dimension22
 10
0.0
 20
0.0
 30
0.0
  0
INSERT
  5
9D
330
1F
100
AcDbEntity
  8
MSS2-500-390
  6
Continuous
 62
    18
420
        0
 48
50.00000038146973
370
    25
100
AcDbBlockReference
  2
Dimension23
 10
0.0
 20
0.0
 30
0.0
  0
INSERT
  5
A1
330
1F
100
AcDbEntity
  8
MSS2-500-390
  6
Continuous
 62
    18
420
        0
 48
50.00000038146973
370
    25
100
AcDbBlockReference
  2
Dimension24
 10
0.0
 20
0.0
 30
0.0
  0
INSERT
  5
A5
330
1F
100
AcDbEntity
  8
MSS2-500-390
  6
Continuous
 62
    18
420
        0
 48
50.00000038146973
370
    25
100
AcDbBlockReference
  2
Dimension25
 10
0.0
 20
0.0
 30
0.0
  0
INSERT
  5
A9
330
1F
100
AcDbEntity
  8
MSS2-500-390
  6
Continuous
 62
    18
420
        0
 48
50.00000038146973
370
    25
100
AcDbBlockReference
  2
Dimension26
 10
0.0
 20
0.0
 30
0.0
  0
INSERT
  5
AD
330
1F
100
AcDbEntity
  8
MSS2-500-390
  6
Continuous
 62
    18
420
        0
 48
50.00000038146973
370
    25
100
AcDbBlockReference
  2
Dimension27
 10
0.0
 20
0.0
 30
0.0
  0
INSERT
  5
B1
330
1F
100
AcDbEntity
  8
MSS2-500-390
  6
Continuous
 62
    18
420
        0
 48
50.00000038146973
370
    25
100
AcDbBlockReference
  2
Dimension28
 10
0.0
 20
0.0
 30
0.0
  0
ARC
  5
B3
330
1F
100
AcDbEntity
  8
Calm 815
  6
Continuous
 62
    18
420
        0
 48
30.00000083446503
370
    25
100
AcDbCircle
 10
36688.63869142665
 20
-19465.88816248372
 30
0.0
 40
657.7913898468196
100
AcDbArc
 50
90.00000250447862
 51
101.8431065629847
  0
ARC
  5
B4
330
1F
100
AcDbEntity
  8
Calm 815
  6
Continuous
 62
    18
420
        0
 48
30.00000083446503
370
    25
100
AcDbCircle
 10
36688.63869142665
 20
-18704.86407190751
 30
0.0
 40
521.2327678680595
100
AcDbArc
 50
256.6897651608322
 51
270.0000006832461
  0
ARC
  5
B5
330
1F
100
AcDbEntity
  8
Calm 815
  6
Continuous
 62
    18
420
        0
 48
30.00000083446503
370
    25
100
AcDbCircle
 10
36605.58329591885
 20
-19012.33367639971
 30
0.0
 40
197.1989491462687
100
AcDbArc
 50
105.2721415640889
 51
125.6535421606229
  0
ARC
  5
B6
330
1F
100
AcDbEntity
  8
Calm 815
  6
Continuous
 62
    18
420
        0
 48
30.00000083446503
370
    25
100
AcDbCircle
 10
36601.12775392664
 20
-19011.58643518878
 30
0.0
 40
194.0209333419767
100
AcDbArc
 50
124.7129977911523
 51
138.1337867554721
  0
ARC
  5
B7
330
1F
100
AcDbEntity
  8
Calm 815
  6
Continuous
 62
    18
420
        0
 48
30.00000083446503
370
    25
100
AcDbCircle
 10
36679.3694897665
 20
-19072.58503748367
 30
0.0
 40
293.077629280084
100
AcDbArc
 50
139.4618897188311
 51
146.7979910006667
  0
ARC
  5
B8
330
1F
100
AcDbEntity
  8
Calm 815
  6
Continuous
 62
    18
420
        0
 48
30.00000083446503
370
    25
100
AcDbCircle
 10
36616.06327638758
 20
-19025.09646326497
 30
0.0
 40
214.1616128921454
100
AcDbArc
 50
148.1544392490629
 51
157.1977463139432
  0
ARC
  5
B9
330
1F
100
AcDbEntity
  8
Calm 815
  6
Continuous
 62
    18
420
        0
 48
30.00000083446503
370
    25
100
AcDbCircle
 10
36578.52138185633
 20
-19009.23231531574
 30
0.0
 40
173.4048952102572
100
AcDbArc
 50
157.222375976093
 51
167.6342343845904
  0
ARC
  5
BA
330
1F
100
AcDbEntity
  8
Calm 815
  6
Continuous
 62
    18
420
        0
 48
30.00000083446503
370
    25
100
AcDbCircle
 10
36866.73014650479
 20
-19056.07286707356
 30
0.0
 40
465.2326492309666
100
AcDbArc
 50
169.6010010164748
 51
171.4693309620401
  0
ARC
  5
BC
330
1F
100
AcDbEntity
  8
Calm 815
  6
DASHED1
 62
    18
420
        0
 48
30.00000083446503
370
    25
100
AcDbCircle
 10
36550.80679445399
 20
-19035.3074679036
 30
0.0
 40
143.3920348167499
100
AcDbArc
 50
196.9436689433944
 51
203.3307837419484
  0
ARC
  5
BD
330
1F
100
AcDbEntity
  8
Calm 815
  6
Continuous
 62
    18
420
        0
 48
30.00000083446503
370
    25
100
AcDbCircle
 10
36571.11718263759
 20
-19030.30854822589
 30
0.0
 40
164.0579124450691
100
AcDbArc
 50
202.1245859948941
 51
214.0200161326316
  0
ARC
  5
BE
330
1F
100
AcDbEntity
  8
Calm 815
  6
Continuous
 62
    18
420
        0
 48
30.00000083446503
370
    25
100
AcDbCircle
 10
36573.9790234579
 20
-19031.8115572591
 30
0.0
 40
165.6133407592754
100
AcDbArc
 50
213.0350482128003
 51
226.5767042046728
  0
ARC
  5
BF
330
1F
100
AcDbEntity
  8
Calm 815
  6
Continuous
 62
    18
420
        0
 48
30.00000083446503
370
    25
100
AcDbCircle
 10
36610.6062451376
 20
-18998.69807459305
 30
0.0
 40
214.8754501342966
100
AcDbArc
 50
225.5524353763631
 51
238.5950914078526
  0
ARC
  5
C0
330
1F
100
AcDbEntity
  8
Calm 815
  6
Continuous
 62
    18
420
        0
 48
30.00000083446503
370
    25
100
AcDbCircle
 10
36633.71491212978
 20
-18963.58161341143
 30
0.0
 40
256.8921926498457
100
AcDbArc
 50
238.2774329699311
 51
255.3260769119033
  0
ARC
  5
C1
330
1F
100
AcDbEntity
  8
Calm 815
  6
Continuous
 62
    18
420
        0
 48
30.00000083446503
370
    25
100
AcDbCircle
 10
36632.14911623133
 20
-19024.79648157546
 30
0.0
 40
228.6389995574804
100
AcDbArc
 50
170.5094161760985
 51
178.0701760401142
  0
ARC
  5
C2
330
1F
100
AcDbEntity
  8
Calm 815
  6
Continuous
 62
    18
420
        0
 48
30.00000083446503
370
    25
100
AcDbCircle
 10
37003.21948976648
 20
-18909.79807459315
 30
0.0
 40
612.857262420621
100
AcDbArc
 50
194.3935904959986
 51
195.8417272038247
  0
ARC
  5
C3
330
1F
100
AcDbEntity
  8
Calm 815
  6
Continuous
 62
    18
420
        0
 48
30.00000083446503
370
    25
100
AcDbCircle
 10
36552.68574953212
 20
-19020.28357874348
 30
0.0
 40
149.0813193321191
100
AcDbArc
 50
178.7752154869857
 51
196.28829863214
  0
ARC
  5
C4
330
1F
100
AcDbEntity
  8
Calm 815
  6
Continuous
 62
    18
420
        0
 48
30.00000083446503
370
    25
100
AcDbCircle
 10
36771.69563722744
 20
-19012.33367639972
 30
0.0
 40
197.1989491462783
100
AcDbArc
 50
54.34645943324259
 51
74.72786344487112
  0
ARC
  5
C5
330
1F
100
AcDbEntity
  8
Calm 815
  6
Continuous
 62
    18
420
        0
 48
30.00000083446503
370
    25
100
AcDbCircle
 10
36776.15117921963
 20
-19011.58643518879
 30
0.0
 40
194.0209333419873
100
AcDbArc
 50
41.86618068744685
 51
55.28690818006414
  0
ARC
  5
C6
330
1F
100
AcDbEntity
  8
Calm 815
  6
Continuous
 62
    18
420
        0
 48
30.00000083446503
370
    25
100
AcDbCircle
 10
36697.90789308681
 20
-19072.5850374837
 30
0.0
 40
293.0776292800941
100
AcDbArc
 50
33.20201742338886
 51
40.53809479956234
  0
ARC
  5
C7
330
1F
100
AcDbEntity
  8
Calm 815
  6
Continuous
 62
    18
420
        0
 48
30.00000083446503
370
    25
100
AcDbCircle
 10
36761.2141064657
 20
-19025.09646326494
 30
0.0
 40
214.1616128921569
100
AcDbArc
 50
22.80227918557216
 51
31.84559308064161
  0
ARC
  5
C8
330
1F
100
AcDbEntity
  8
Calm 815
  6
Continuous
 62
    18
420
        0
 48
30.00000083446503
370
    25
100
AcDbCircle
 10
36798.75755128992
 20
-19009.23231531571
 30
0.0
 40
173.4048952102706
100
AcDbArc
 50
12.36576550171261
 51
22.77763586304107
  0
ARC
  5
C9
330
1F
100
AcDbEntity
  8
Calm 815
  6
Continuous
 62
    18
420
        0
 48
30.00000083446503
370
    25
100
AcDbCircle
 10
36510.5472363485
 20
-19056.07286707345
 30
0.0
 40
465.2326492309705
100
AcDbArc
 50
8.530673193128036
 51
10.39900911510885
  0
ARC
  5
CA
330
1F
100
AcDbEntity
  8
Calm 815
  6
DASHED1
 62
    18
420
        0
 48
30.00000083446503
370
    25
100
AcDbCircle
 10
36826.47213869227
 20
-19035.30746790363
 30
0.0
 40
143.3920348167511
100
AcDbArc
 50
336.6692039641742
 51
343.0563324231067
  0
ARC
  5
CB
330
1F
100
AcDbEntity
  8
Calm 815
  6
Continuous
 62
    18
420
        0
 48
30.00000083446503
370
    25
100
AcDbCircle
 10
36806.16175050869
 20
-19030.30854822588
 30
0.0
 40
164.0579124450656
100
AcDbArc
 50
325.9799579131
 51
337.8754153715942
  0
ARC
  5
CC
330
1F
100
AcDbEntity
  8
Calm 815
  6
Continuous
 62
    18
420
        0
 48
30.00000083446503
370
    25
100
AcDbCircle
 10
36803.29990968837
 20
-19031.8115572591
 30
0.0
 40
165.613340759271
100
AcDbArc
 50
313.423256180683
 51
326.9649258329335
  0
ARC
  5
CD
330
1F
100
AcDbEntity
  8
Calm 815
  6
Continuous
 62
    18
420
        0
 48
30.00000083446503
370
    25
100
AcDbCircle
 10
36766.67113771571
 20
-18998.69807459307
 30
0.0
 40
214.8754501342872
100
AcDbArc
 50
301.4048826378836
 51
314.4475386693731
  0
ARC
  5
CE
330
1F
100
AcDbEntity
  8
Calm 815
  6
Continuous
 62
    18
420
        0
 48
30.00000083446503
370
    25
100
AcDbCircle
 10
36743.56402101649
 20
-18963.58161341145
 30
0.0
 40
256.8921926498251
100
AcDbArc
 50
284.6738698130755
 51
301.7225137550475
  0
ARC
  5
CF
330
1F
100
AcDbEntity
  8
Calm 815
  6
Continuous
 62
    18
420
        0
 48
30.00000083446503
370
    25
100
AcDbCircle
 10
36745.12981691494
 20
-19024.79648157547
 30
0.0
 40
228.6389995574838
100
AcDbArc
 50
1.929828328514881
 51
9.490583710218802
  0
ARC
  5
D0
330
1F
100
AcDbEntity
  8
Calm 815
  6
Continuous
 62
    18
420
        0
 48
50.00000038146973
370
    25
100
AcDbCircle
 10
36374.0578930868
 20
-18909.79807459299
 30
0.0
 40
612.857262420685
100
AcDbArc
 50
344.1582878230303
 51
345.6064245308564
  0
ARC
  5
D1
330
1F
100
AcDbEntity
  8
Calm 815
  6
Continuous
 62
    18
420
        0
 48
30.00000083446503
370
    25
100
AcDbCircle
 10
36824.59163332119
 20
-19020.28357874347
 30
0.0
 40
149.081319332122
100
AcDbArc
 50
343.7117300551026
 51
1.224799539878898
  0
ARC
  5
D2
330
1F
100
AcDbEntity
  8
Calm 815
  6
Continuous
 62
    18
420
        0
 48
30.00000083446503
370
    25
100
AcDbCircle
 10
36688.63869142665
 20
-19465.88816248371
 30
0.0
 40
657.7913898468094
100
AcDbArc
 50
78.15688478559369
 51
90.0000025044781
  0
ARC
  5
D3
330
1F
100
AcDbEntity
  8
Calm 815
  6
Continuous
 62
    18
420
        0
 48
30.00000083446503
370
    25
100
AcDbCircle
 10
36688.63869142665
 20
-18704.86407190754
 30
0.0
 40
521.2327678680304
100
AcDbArc
 50
270.0000006832455
 51
283.3102362056595
  0
ARC
  5
D4
330
1F
100
AcDbEntity
  8
Calm 815
  6
Continuous
 62
    18
420
        0
 48
0.0
370
    25
100
AcDbCircle
 10
36690.86336183648
 20
-18914.09781227196
 30
0.0
 40
32.77419257197479
100
AcDbArc
 50
359.9994911509024
 51
0.0003380943594883
  0
ARC
  5
D5
330
1F
100
AcDbEntity
  8
Calm 815
  6
Continuous
 62
    18
420
        0
 48
50.00000038146973
370
    25
100
AcDbCircle
 10
36688.63714113369
 20
-19465.88971277668
 30
0.0
 40
631.7928314209136
100
AcDbArc
 50
89.99982491956075
 51
101.7555298774473
  0
ARC
  5
D6
330
1F
100
AcDbEntity
  8
Calm 815
  6
Continuous
 62
    18
420
        0
 48
50.00000038146973
370
    25
100
AcDbCircle
 10
36605.58329591885
 20
-19012.33367639971
 30
0.0
 40
171.1990221023542
100
AcDbArc
 50
105.5830381147297
 51
125.7402719027037
  0
ARC
  5
D7
330
1F
100
AcDbEntity
  8
Calm 815
  6
Continuous
 62
    18
420
        0
 48
50.00000038146973
370
    25
100
AcDbCircle
 10
36601.12620363368
 20
-19011.58721033528
 30
0.0
 40
168.0212727546839
100
AcDbArc
 50
124.6220743129181
 51
138.0091767842516
  0
ARC
  5
D8
330
1F
100
AcDbEntity
  8
Calm 815
  6
Continuous
 62
    18
420
        0
 48
50.00000038146973
370
    25
100
AcDbCircle
 10
36679.37259035243
 20
-19072.58426233724
 30
0.0
 40
267.0782230377347
100
AcDbArc
 50
139.5420078377853
 51
146.7159331079681
  0
ARC
  5
D9
330
1F
100
AcDbEntity
  8
Calm 815
  6
Continuous
 62
    18
420
        0
 48
50.00000038146973
370
    25
100
AcDbCircle
 10
36616.06327638761
 20
-19025.09801355793
 30
0.0
 40
188.161673736593
100
AcDbArc
 50
148.2655800872418
 51
157.1929515211502
  0
ARC
  5
DA
330
1F
100
AcDbEntity
  8
Calm 815
  6
Continuous
 62
    18
420
        0
 48
50.00000038146973
370
    25
100
AcDbCircle
 10
36578.52138185634
 20
-19009.23154016925
 30
0.0
 40
147.4050287246701
100
AcDbArc
 50
157.2226491836628
 51
167.4261731620963
  0
ARC
  5
DB
330
1F
100
AcDbEntity
  8
Calm 815
  6
Continuous
 62
    18
420
        0
 48
50.00000038146973
370
    25
100
AcDbCircle
 10
36632.14911623133
 20
-19024.79570642899
 30
0.0
 40
202.6394843101406
100
AcDbArc
 50
170.4335191140372
 51
178.0128980737302
  0
ARC
  5
DC
330
1F
100
AcDbEntity
  8
Calm 815
  6
Continuous
 62
    18
420
        0
 48
50.00000038146973
370
    25
100
AcDbCircle
 10
36866.7316967977
 20
-19056.07209192693
 30
0.0
 40
439.2332672118534
100
AcDbArc
 50
169.6731961160206
 51
171.5081810780579
  0
ARC
  5
DD
330
1F
100
AcDbEntity
  8
Calm 815
  6
Continuous
 62
    18
420
        0
 48
50.00000038146973
370
    25
100
AcDbCircle
 10
36552.68574953212
 20
-19020.28435388995
 30
0.0
 40
123.0812832832368
100
AcDbArc
 50
178.863680097121
 51
196.5105120066032
  0
ARC
  5
DE
330
1F
100
AcDbEntity
  8
Calm 815
  6
Continuous
 62
    18
420
        0
 48
50.00000038146973
370
    25
100
AcDbCircle
 10
37003.23344240322
 20
-18909.78877283543
 30
0.0
 40
586.8726566314344
100
AcDbArc
 50
194.3336624162107
 51
195.812821843247
  0
ARC
  5
DF
330
1F
100
AcDbEntity
  8
Calm 815
  6
Continuous
 62
    18
420
        0
 48
50.00000038146973
370
    25
100
AcDbCircle
 10
36550.80679445399
 20
-19035.30901819657
 30
0.0
 40
117.3914174079904
100
AcDbArc
 50
197.0946297844295
 51
203.493492508356
  0
ARC
  5
E0
330
1F
100
AcDbEntity
  8
Calm 815
  6
Continuous
 62
    18
420
        0
 48
50.00000038146973
370
    25
100
AcDbCircle
 10
36571.11563234461
 20
-19030.30854822589
 30
0.0
 40
138.0571981430033
100
AcDbArc
 50
201.9816574563227
 51
214.137768593923
  0
ARC
  5
E1
330
1F
100
AcDbEntity
  8
Calm 815
  6
Continuous
 62
    18
420
        0
 48
50.00000038146973
370
    25
100
AcDbCircle
 10
36573.9790234579
 20
-19031.81078211262
 30
0.0
 40
139.6143463134678
100
AcDbArc
 50
212.9246177143
 51
226.6902082883005
  0
ARC
  5
E2
330
1F
100
AcDbEntity
  8
Calm 815
  6
Continuous
 62
    18
420
        0
 48
50.00000038146973
370
    25
100
AcDbCircle
 10
36610.60779543055
 20
-18998.69884973957
 30
0.0
 40
188.8751476287804
100
AcDbArc
 50
225.462604728397
 51
238.6483942041334
  0
ARC
  5
E3
330
1F
100
AcDbEntity
  8
Calm 815
  6
Continuous
 62
    18
420
        0
 48
50.00000038146973
370
    25
100
AcDbCircle
 10
36633.71491212978
 20
-18963.58083826495
 30
0.0
 40
230.8927864074711
100
AcDbArc
 50
238.2774329699309
 51
255.1388750871312
  0
ARC
  5
E4
330
1F
100
AcDbEntity
  8
Calm 815
  6
Continuous
 62
    18
420
        0
 48
50.00000038146973
370
    25
100
AcDbCircle
 10
36688.68520021572
 20
-18704.86872278643
 30
0.0
 40
495.2281536102316
100
AcDbArc
 50
256.6844649340356
 51
269.9946458149362
  0
ARC
  5
E5
330
1F
100
AcDbEntity
  8
Calm 815
  6
Continuous
 62
    18
420
        0
 48
50.00000038146973
370
    25
100
AcDbCircle
 10
36688.64024171963
 20
-18704.86252161456
 30
0.0
 40
495.2340156555201
100
AcDbArc
 50
269.9999187209744
 51
283.2238752937928
  0
ARC
  5
E6
330
1F
100
AcDbEntity
  8
Calm 815
  6
Continuous
 62
    18
420
        0
 48
50.00000038146973
370
    25
100
AcDbCircle
 10
36743.588825704
 20
-18963.57153650715
 30
0.0
 40
230.8873603820651
100
AcDbArc
 50
284.6670396239056
 51
301.7593421350523
  0
ARC
  5
E7
330
1F
100
AcDbEntity
  8
Calm 815
  6
Continuous
 62
    18
420
        0
 48
50.00000038146973
370
    25
100
AcDbCircle
 10
36766.67578859462
 20
-18998.69497400713
 30
0.0
 40
188.8746994972282
100
AcDbArc
 50
301.4034619585349
 51
314.5356207889083
  0
ARC
  5
E8
330
1F
100
AcDbEntity
  8
Calm 815
  6
Continuous
 62
    18
420
        0
 48
50.00000038146973
370
    25
100
AcDbCircle
 10
36803.2983593954
 20
-19031.8107821126
 30
0.0
 40
139.6140798568759
100
AcDbArc
 50
313.3097930781845
 51
327.0754109729414
  0
ARC
  5
E9
330
1F
100
AcDbEntity
  8
Calm 815
  6
Continuous
 62
    18
420
        0
 48
50.00000038146973
370
    25
100
AcDbCircle
 10
36806.16175050867
 20
-19030.30932337236
 30
0.0
 40
138.056883239762
100
AcDbArc
 50
325.8624240178622
 51
338.0186034573541
  0
ARC
  5
EA
330
1F
100
AcDbEntity
  8
Calm 815
  6
Continuous
 62
    18
420
        0
 48
50.00000038146973
370
    25
100
AcDbCircle
 10
36826.47058839932
 20
-19035.30824305014
 30
0.0
 40
117.3923742294106
100
AcDbArc
 50
336.5063176128596
 51
342.9051120348943
  0
ARC
  5
EB
330
1F
100
AcDbEntity
  8
Calm 815
  6
Continuous
 62
    18
420
        0
 48
50.00000038146973
370
    25
100
AcDbCircle
 10
36374.06564455159
 20
-18909.79497400729
 30
0.0
 40
586.8510978698861
100
AcDbArc
 50
344.187220504379
 51
345.6664209125503
  0
ARC
  5
EC
330
1F
100
AcDbEntity
  8
Calm 815
  6
Continuous
 62
    18
420
        0
 48
50.00000038146973
370
    25
100
AcDbCircle
 10
36824.59163332119
 20
-19020.28357874346
 30
0.0
 40
123.0816224098227
100
AcDbArc
 50
343.4891478504281
 51
1.135952439153642
  0
ARC
  5
ED
330
1F
100
AcDbEntity
  8
Calm 815
  6
Continuous
 62
    18
420
        0
 48
50.00000038146973
370
    25
100
AcDbCircle
 10
36745.12981691494
 20
-19024.79880701494
 30
0.0
 40
202.6397871017349
100
AcDbArc
 50
1.988002330340982
 51
9.567369550646509
  0
ARC
  5
EE
330
1F
100
AcDbEntity
  8
Calm 815
  6
Continuous
 62
    18
420
        0
 48
50.00000038146973
370
    25
100
AcDbCircle
 10
36510.54103517665
 20
-19056.07286707347
 30
0.0
 40
439.2397590637005
100
AcDbArc
 50
8.491794048827806
 51
10.32675510520299
  0
ARC
  5
EF
330
1F
100
AcDbEntity
  8
Calm 815
  6
Continuous
 62
    18
420
        0
 48
50.00000038146973
370
    25
100
AcDbCircle
 10
36798.75755128993
 20
-19009.23231531575
 30
0.0
 40
147.4048954963748
100
AcDbArc
 50
12.57417079500494
 51
22.77232539097732
  0
ARC
  5
F0
330
1F
100
AcDbEntity
  8
Calm 815
  6
Continuous
 62
    18
420
        0
 48
50.00000038146973
370
    25
100
AcDbCircle
 10
36761.21565675869
 20
-19025.09723841145
 30
0.0
 40
188.1617342948989
100
AcDbArc
 50
22.80259166673339
 51
31.73415512924505
  0
ARC
  5
F1
330
1F
100
AcDbEntity
  8
Calm 815
  6
Continuous
 62
    18
420
        0
 48
50.00000038146973
370
    25
100
AcDbCircle
 10
36697.90634279383
 20
-19072.58426233721
 30
0.0
 40
267.078223037717
100
AcDbArc
 50
33.28407190098233
 51
40.45799717116511
  0
ARC
  5
F2
330
1F
100
AcDbEntity
  8
Calm 815
  6
Continuous
 62
    18
420
        0
 48
50.00000038146973
370
    25
100
AcDbCircle
 10
36776.15117921962
 20
-19011.58721033527
 30
0.0
 40
168.0209699630796
100
AcDbArc
 50
41.99092043225646
 51
55.37805022434659
  0
ARC
  5
F3
330
1F
100
AcDbEntity
  8
Calm 815
  6
Continuous
 62
    18
420
        0
 48
50.00000038146973
370
    25
100
AcDbCircle
 10
36771.69408693446
 20
-19012.33367639973
 30
0.0
 40
171.1990221023691
100
AcDbArc
 50
54.25973652134939
 51
74.41696689422892
  0
ARC
  5
F4
330
1F
100
AcDbEntity
  8
Calm 815
  6
Continuous
 62
    18
420
        0
 48
50.00000038146973
370
    25
100
AcDbCircle
 10
36688.64024171963
 20
-19465.88816248371
 30
0.0
 40
631.7913780212449
100
AcDbArc
 50
78.24444781075381
 51
90.00018008939706
  0
CIRCLE
  5
F5
330
1F
100
AcDbEntity
  8
Calm 815
  6
Continuous
 62
    18
420
        0
 48
0.0
370
    25
100
AcDbCircle
 10
36688.63714113368
 20
-18914.09703699542
 30
0.0
 40
19.99994201660156
  0
CIRCLE
  5
F6
330
1F
100
AcDbEntity
  8
Calm 815
  6
Continuous
 62
    18
420
        0
 48
0.0
370
    25
100
AcDbCircle
 10
36688.63714113368
 20
-18914.09703699542
 30
0.0
 40
30.00010681152344
  0
LINE
  5
F7
330
1F
100
AcDbEntity
  8
Calm 815
  6
Continuous
 62
    18
420
        0
 48
0.0
370
    25
100
AcDbLine
 10
36688.63714113368
 20
-18879.09762293292
 30
0.0
 11
36688.63714113368
 21
-18899.09795252276
 31
11.9999942779541
  0
LINE
  5
F8
330
1F
100
AcDbEntity
  8
Calm 815
  6
Continuous
 62
    18
420
        0
 48
0.0
370
    25
100
AcDbLine
 10
36688.63714113368
 20
-18909.0973421712
 30
0.0
 11
36688.63714113368
 21
-18919.09828211261
 31
11.9999942779541
  0
LINE
  5
F9
330
1F
100
AcDbEntity
  8
Calm 815
  6
Continuous
 62
    18
420
        0
 48
0.0
370
    25
100
AcDbLine
 10
36688.63714113368
 20
-18929.09767176105
 30
0.0
 11
36688.63714113368
 21
-18949.09800135089
 31
11.9999942779541
  0
LINE
  5
FA
330
1F
100
AcDbEntity
  8
Calm 815
  6
Continuous
 62
    18
420
        0
 48
0.0
370
    25
100
AcDbLine
 10
36723.63655519619
 20
-18914.09858728839
 30
0.0
 11
36703.63777589931
 21
-18914.09858728839
 31
11.9999942779541
  0
LINE
  5
FB
330
1F
100
AcDbEntity
  8
Calm 815
  6
Continuous
 62
    18
420
        0
 48
0.0
370
    25
100
AcDbLine
 10
36693.63838625087
 20
-18914.09858728839
 30
0.0
 11
36683.63589601649
 21
-18914.09858728839
 31
11.9999942779541
  0
LINE
  5
FC
330
1F
100
AcDbEntity
  8
Calm 815
  6
Continuous
 62
    18
420
        0
 48
0.0
370
    25
100
AcDbLine
 10
36673.63650636806
 20
-18914.09858728839
 30
0.0
 11
36653.63772707118
 21
-18914.09858728839
 31
11.9999942779541
  0
LINE
  5
FD
330
1F
100
AcDbEntity
  8
Calm 815
  6
Continuous
 62
    18
420
        0
 48
0.0
370
    25
100
AcDbLine
 10
36688.63714113368
 20
-18904.09764734698
 30
0.0
 11
36688.63714113368
 21
-18924.09720179034
 31
0.0
  0
LINE
  5
FE
330
1F
100
AcDbEntity
  8
Calm 815
  6
Continuous
 62
    18
420
        0
 48
0.0
370
    25
100
AcDbLine
 10
36698.63653078212
 20
-18914.09703699542
 30
0.0
 11
36678.63775148524
 21
-18914.09703699542
 31
0.0
  0
LINE
  5
FF
330
1F
100
AcDbEntity
  8
Calm 815
  6
Continuous
 62
    18
420
        0
 48
0.9999999962747097
370
    25
100
AcDbLine
 10
36712.38079152996
 20
-19594.14636201436
 30
0.0
 11
36721.79656017157
 21
-19584.78479319224
 31
0.0
  0
LINE
  5
100
330
1F
100
AcDbEntity
  8
Calm 815
  6
Continuous
 62
    18
420
        0
 48
0.9999999962747097
370
    25
100
AcDbLine
 10
36973.85814817753
 20
-19427.58763657133
 30
0.0
 11
36974.69316881669
 21
-19439.19497806629
 31
0.0
  0
LINE
  5
101
330
1F
100
AcDbEntity
  8
Calm 815
  6
Continuous
 62
    18
420
        0
 48
0.9999999962747097
370
    25
100
AcDbLine
 10
36427.96876592589
 20
-19426.09683977557
 30
0.0
 11
36947.673255731
 21
-19426.09683977557
 31
0.0
  0
LINE
  5
102
330
1F
100
AcDbEntity
  8
Calm 815
  6
Continuous
 62
    18
420
        0
 48
0.9999999962747097
370
    25
100
AcDbLine
 10
36648.18028387377
 20
-19604.06364398573
 30
0.0
 11
36714.23188195335
 21
-19604.06364398573
 31
0.0
  0
LINE
  5
103
330
1F
100
AcDbEntity
  8
Calm 815
  6
Continuous
 62
    18
420
        0
 48
0.9999999962747097
370
    25
100
AcDbLine
 10
36712.13645464317
 20
-19594.41904899526
 30
0.0
 11
36663.55149185217
 21
-19594.41904899526
 31
0.0
  0
LINE
  5
104
330
1F
100
AcDbEntity
  8
Calm 815
  6
Continuous
 62
    18
420
        0
 48
0.9999999962747097
370
    25
100
AcDbLine
 10
37173.76881647243
 20
-18834.09678446246
 30
0.0
 11
37173.96781580967
 21
-18808.67956911226
 31
0.0
  0
LINE
  5
105
330
1F
100
AcDbEntity
  8
Calm 815
  6
Continuous
 62
    18
420
        0
 48
0.9999999962747097
370
    25
100
AcDbLine
 10
37173.76872121096
 20
-19200.93274605531
 30
0.0
 11
37173.76872121096
 21
-18834.10895174378
 31
0.0
  0
LINE
  5
106
330
1F
100
AcDbEntity
  8
Calm 815
  6
Continuous
 62
    18
420
        0
 48
0.9999999962747097
370
    25
100
AcDbLine
 10
37186.90086087502
 20
-18807.67849345666
 30
0.0
 11
37186.90086087502
 21
-18811.2606955203
 31
0.0
  0
LINE
  5
107
330
1F
100
AcDbEntity
  8
Calm 815
  6
Continuous
 62
    18
420
        0
 48
0.9999999962747097
370
    25
100
AcDbLine
 10
37186.90116101764
 20
-19223.8129174431
 30
0.0
 11
37186.90116101764
 21
-19227.36320434244
 31
0.0
  0
LINE
  5
108
330
1F
100
AcDbEntity
  8
Calm 815
  6
Continuous
 62
    18
420
        0
 48
0.9999999962747097
370
    25
100
AcDbLine
 10
37331.68365362396
 20
-18885.17811697721
 30
0.0
 11
37331.68365362396
 21
-18956.1927591945
 31
0.0
  0
LINE
  5
109
330
1F
100
AcDbEntity
  8
Calm 815
  6
Continuous
 62
    18
420
        0
 48
0.9999999962747097
370
    25
100
AcDbLine
 10
37351.84843480901
 20
-18894.21631142566
 30
0.0
 11
37351.84843480901
 21
-18947.20178718351
 31
0.0
  0
LINE
  5
10A
330
1F
100
AcDbEntity
  8
Calm 815
  6
Continuous
 62
    18
420
        0
 48
0.9999999962747097
370
    25
100
AcDbLine
 10
37347.62772936398
 20
-18879.38436410734
 30
0.0
 11
37350.82524864771
 21
-18880.49139010466
 31
0.0
  0
LINE
  5
10B
330
1F
100
AcDbEntity
  8
Calm 815
  6
Continuous
 62
    18
420
        0
 48
0.9999999962747097
370
    25
100
AcDbLine
 10
37351.84843480901
 20
-18881.93377544615
 30
0.0
 11
37351.84843480901
 21
-18894.21631142566
 31
0.0
  0
LINE
  5
10C
330
1F
100
AcDbEntity
  8
Calm 815
  6
Continuous
 62
    18
420
        0
 48
0.9999999962747097
370
    25
100
AcDbLine
 10
37298.02966311517
 20
-18849.52677743899
 30
0.0
 11
37173.76872121096
 21
-18834.10895174378
 31
0.0
  0
LINE
  5
10D
330
1F
100
AcDbEntity
  8
Calm 815
  6
Continuous
 62
    18
420
        0
 48
0.9999999962747097
370
    25
100
AcDbLine
 10
37173.76872121096
 20
-18834.10895174378
 30
0.0
 11
37173.96781580967
 21
-18808.67956911226
 31
0.0
  0
LINE
  5
10E
330
1F
100
AcDbEntity
  8
Calm 815
  6
Continuous
 62
    18
420
        0
 48
0.9999999962747097
370
    25
100
AcDbLine
 10
37173.96781580967
 20
-18808.67956911226
 30
0.0
 11
37186.68465814748
 21
-18807.08130970809
 31
0.0
  0
LINE
  5
10F
330
1F
100
AcDbEntity
  8
Calm 815
  6
Continuous
 62
    18
420
        0
 48
0.9999999962747097
370
    25
100
AcDbLine
 10
37186.68465814748
 20
-18807.08130970809
 30
0.0
 11
37186.90086087502
 21
-18807.67849345666
 31
0.0
  0
LINE
  5
110
330
1F
100
AcDbEntity
  8
Calm 815
  6
Continuous
 62
    18
420
        0
 48
0.9999999962747097
370
    25
100
AcDbLine
 10
37186.41102813367
 20
-18808.61143673954
 30
0.0
 11
37186.41102813367
 21
-18810.4135930242
 31
0.0
  0
LINE
  5
111
330
1F
100
AcDbEntity
  8
Calm 815
  6
Continuous
 62
    18
420
        0
 48
0.9999999962747097
370
    25
100
AcDbLine
 10
37187.16978865458
 20
-18812.14761693614
 30
0.0
 11
37187.16978865458
 21
-18823.49360792145
 31
0.0
  0
LINE
  5
112
330
1F
100
AcDbEntity
  8
Calm 815
  6
Continuous
 62
    18
420
        0
 48
0.9999999962747097
370
    25
100
AcDbLine
 10
37191.2838434251
 20
-18826.22370511214
 30
0.0
 11
37212.600271809
 21
-18828.90297815401
 31
0.0
  0
LINE
  5
113
330
1F
100
AcDbEntity
  8
Calm 815
  6
Continuous
 62
    18
420
        0
 48
0.9999999962747097
370
    25
100
AcDbLine
 10
37173.96671528676
 20
-18808.81733457075
 30
0.0
 11
37174.12409006252
 21
-18808.659959795
 31
0.0
  0
LINE
  5
114
330
1F
100
AcDbEntity
  8
Calm 815
  6
Continuous
 62
    18
420
        0
 48
0.9999999962747097
370
    25
100
AcDbLine
 10
37173.76872121096
 20
-19200.93274605531
 30
0.0
 11
37173.96781580967
 21
-19226.36212868684
 31
0.0
  0
LINE
  5
115
330
1F
100
AcDbEntity
  8
Calm 815
  6
Continuous
 62
    18
420
        0
 48
0.9999999962747097
370
    25
100
AcDbLine
 10
37173.96781580967
 20
-19226.36212868684
 30
0.0
 11
37186.68495829009
 21
-19227.960388091
 31
0.0
  0
LINE
  5
116
330
1F
100
AcDbEntity
  8
Calm 815
  6
Continuous
 62
    18
420
        0
 48
0.9999999962747097
370
    25
100
AcDbLine
 10
37186.68495829009
 20
-19227.960388091
 30
0.0
 11
37186.90116101764
 21
-19227.36320434244
 31
0.0
  0
LINE
  5
117
330
1F
100
AcDbEntity
  8
Calm 815
  6
Continuous
 62
    18
420
        0
 48
0.9999999962747097
370
    25
100
AcDbLine
 10
37186.41102813367
 20
-19226.46267646156
 30
0.0
 11
37186.41102813367
 21
-19224.66052017689
 31
0.0
  0
LINE
  5
118
330
1F
100
AcDbEntity
  8
Calm 815
  6
Continuous
 62
    18
420
        0
 48
0.9999999962747097
370
    25
100
AcDbLine
 10
37187.16978865458
 20
-19222.92649626495
 30
0.0
 11
37187.16978865458
 21
-19217.55744518981
 31
0.0
  0
LINE
  5
119
330
1F
100
AcDbEntity
  8
Calm 815
  6
Continuous
 62
    18
420
        0
 48
0.9999999962747097
370
    25
100
AcDbLine
 10
37187.16978865458
 20
-19217.55744518981
 30
0.0
 11
37192.43128862739
 21
-19217.35554926008
 31
0.0
  0
LINE
  5
11A
330
1F
100
AcDbEntity
  8
Calm 815
  6
Continuous
 62
    18
420
        0
 48
0.9999999962747097
370
    25
100
AcDbLine
 10
37349.07341627418
 20
-18961.33300155242
 30
0.0
 11
37350.82524864771
 21
-18960.7265133829
 31
0.0
  0
LINE
  5
11B
330
1F
100
AcDbEntity
  8
Calm 815
  6
Continuous
 62
    18
420
        0
 48
0.9999999962747097
370
    25
100
AcDbLine
 10
37351.84843480901
 20
-18959.28412804142
 30
0.0
 11
37351.84843480901
 21
-18947.20178718351
 31
0.0
  0
LINE
  5
11C
330
1F
100
AcDbEntity
  8
Calm 815
  6
Continuous
 62
    18
420
        0
 48
0.9999999962747097
370
    25
100
AcDbLine
 10
37348.41400295756
 20
-18944.03568282641
 30
0.0
 11
37343.66934856107
 21
-18944.45047991498
 31
0.0
  0
LINE
  5
11D
330
1F
100
AcDbEntity
  8
Calm 815
  6
Continuous
 62
    18
420
        0
 48
0.9999999962747097
370
    25
100
AcDbLine
 10
37341.83957915619
 20
-18945.23735379377
 30
0.0
 11
37332.54506291784
 21
-18954.58289427602
 31
0.0
  0
LINE
  5
11E
330
1F
100
AcDbEntity
  8
Calm 815
  6
Continuous
 62
    18
420
        0
 48
0.9999999962747097
370
    25
100
AcDbLine
 10
37342.74030713215
 20
-18896.66497489467
 30
0.0
 11
37342.74030713215
 21
-18944.67488654055
 31
0.0
  0
LINE
  5
11F
330
1F
100
AcDbEntity
  8
Calm 815
  6
Continuous
 62
    18
420
        0
 48
0.9999999962747097
370
    25
100
AcDbLine
 10
37348.41390291002
 20
-18897.38241578277
 30
0.0
 11
37343.83102538093
 21
-18896.98162534938
 31
0.0
  0
LINE
  5
120
330
1F
100
AcDbEntity
  8
Calm 815
  6
Continuous
 62
    18
420
        0
 48
0.9999999962747097
370
    25
100
AcDbLine
 10
37196.02319530212
 20
-19201.91501277395
 30
0.0
 11
37197.57533279173
 21
-19212.95956053017
 31
0.0
  0
LINE
  5
121
330
1F
100
AcDbEntity
  8
Calm 815
  6
Continuous
 62
    18
420
        0
 48
0.9999999962747097
370
    25
100
AcDbLine
 10
37197.48251465701
 20
-19198.60398321712
 30
0.0
 11
37197.91059208835
 21
-19201.64978675326
 31
0.0
  0
LINE
  5
122
330
1F
100
AcDbEntity
  8
Calm 815
  6
Continuous
 62
    18
420
        0
 48
0.9999999962747097
370
    25
100
AcDbLine
 10
37216.02119724293
 20
-19193.56884713918
 30
0.0
 11
37216.78415976039
 21
-19198.99732645133
 31
0.0
  0
LINE
  5
123
330
1F
100
AcDbEntity
  8
Calm 815
  6
Continuous
 62
    18
420
        0
 48
0.9999999962747097
370
    25
100
AcDbLine
 10
37196.02319530212
 20
-19201.91501277395
 30
0.0
 11
37218.6715565466
 21
-19198.73210043063
 31
0.0
  0
LINE
  5
124
330
1F
100
AcDbEntity
  8
Calm 815
  6
Continuous
 62
    18
420
        0
 48
0.9999999962747097
370
    25
100
AcDbLine
 10
37218.6715565466
 20
-19198.73210043063
 30
0.0
 11
37219.37539096966
 21
-19203.7403800872
 31
0.0
  0
LINE
  5
125
330
1F
100
AcDbEntity
  8
Calm 815
  6
Continuous
 62
    18
420
        0
 48
0.9999999962747097
370
    25
100
AcDbLine
 10
37307.5941149887
 20
-18841.20244397353
 30
0.0
 11
37307.52325881297
 21
-18841.13158779161
 31
0.0
  0
LINE
  5
126
330
1F
100
AcDbEntity
  8
Calm 815
  6
Continuous
 62
    18
420
        0
 48
0.9999999962747097
370
    25
100
AcDbLine
 10
37351.76580722762
 20
-18947.73316580589
 30
0.0
 11
37351.76101124963
 21
-18947.72836982749
 31
0.0
  0
LINE
  5
127
330
1F
100
AcDbEntity
  8
Calm 815
  6
Continuous
 62
    18
420
        0
 48
0.9999999962747097
370
    25
100
AcDbLine
 10
36974.69316881669
 20
-19439.19497806629
 30
0.0
 11
36973.85814817753
 21
-19427.58763657133
 31
0.0
  0
LINE
  5
128
330
1F
100
AcDbEntity
  8
Calm 815
  6
Continuous
 62
    18
420
        0
 48
0.9999999962747097
370
    25
100
AcDbLine
 10
36972.35455983484
 20
-19426.25931906204
 30
0.0
 11
36947.673255731
 21
-19426.09683977557
 31
0.0
  0
LINE
  5
129
330
1F
100
AcDbEntity
  8
Calm 815
  6
Continuous
 62
    18
420
        0
 48
0.9999999962747097
370
    25
100
AcDbLine
 10
36721.79647894709
 20
-19584.78487394917
 30
0.0
 11
36712.37925807399
 21
-19594.14788664334
 31
0.0
  0
LINE
  5
12A
330
1F
100
AcDbEntity
  8
Calm 815
  6
Continuous
 62
    18
420
        0
 48
0.9999999962747097
370
    25
100
AcDbLine
 10
36400.94885284022
 20
-19439.19497806629
 30
0.0
 11
36401.78387347938
 21
-19427.58763657133
 31
0.0
  0
LINE
  5
12B
330
1F
100
AcDbEntity
  8
Calm 815
  6
Continuous
 62
    18
420
        0
 48
0.9999999962747097
370
    25
100
AcDbLine
 10
36403.28746182207
 20
-19426.25931906204
 30
0.0
 11
36427.96876592589
 21
-19426.09683977557
 31
0.0
  0
LINE
  5
12C
330
1F
100
AcDbEntity
  8
Calm 815
  6
Continuous
 62
    18
420
        0
 48
0.9999999962747097
370
    25
100
AcDbLine
 10
36653.84554270981
 20
-19584.78487394917
 30
0.0
 11
36663.26276358292
 21
-19594.14788664334
 31
0.0
  0
LINE
  5
12D
330
1F
100
AcDbEntity
  8
Calm 815
  6
Continuous
 62
    18
420
        0
 48
0.9999999962747097
370
    25
100
AcDbLine
 10
36663.26123012693
 20
-19594.14636201436
 30
0.0
 11
36653.84546148534
 21
-19584.78479319224
 31
0.0
  0
LINE
  5
12E
330
1F
100
AcDbEntity
  8
Calm 815
  6
Continuous
 62
    18
420
        0
 48
0.9999999962747097
370
    25
100
AcDbLine
 10
36401.78387347938
 20
-19427.58763657133
 30
0.0
 11
36400.94885284022
 21
-19439.19497806629
 31
0.0
  0
LINE
  5
12F
330
1F
100
AcDbEntity
  8
Calm 815
  6
Continuous
 62
    18
420
        0
 48
0.9999999962747097
370
    25
100
AcDbLine
 10
36645.22355193269
 20
-19583.58205353139
 30
0.0
 11
36730.37254488579
 21
-19583.58205353139
 31
0.0
  0
LINE
  5
130
330
1F
100
AcDbEntity
  8
Calm 815
  6
Continuous
 62
    18
420
        0
 48
0.9999999962747097
370
    25
100
AcDbLine
 10
36663.50556701374
 20
-19594.41904899526
 30
0.0
 11
36712.09052980472
 21
-19594.41904899526
 31
0.0
  0
LINE
  5
131
330
1F
100
AcDbEntity
  8
Calm 815
  6
Continuous
 62
    18
420
        0
 48
0.9999999962747097
370
    25
100
AcDbLine
 10
36714.23188195335
 20
-19604.06364398573
 30
0.0
 11
36714.0712213062
 21
-19604.05960308437
 31
0.0
  0
LINE
  5
132
330
1F
100
AcDbEntity
  8
Calm 815
  6
Continuous
 62
    18
420
        0
 48
0.9999999962747097
370
    25
100
AcDbLine
 10
36714.0712213062
 20
-19604.05960308437
 30
0.0
 11
36713.90947027713
 21
-19604.04733882391
 31
0.0
  0
LINE
  5
133
330
1F
100
AcDbEntity
  8
Calm 815
  6
Continuous
 62
    18
420
        0
 48
0.9999999962747097
370
    25
100
AcDbLine
 10
36713.90947027713
 20
-19604.04733882391
 30
0.0
 11
36713.74725868747
 21
-19604.02668348021
 31
0.0
  0
LINE
  5
134
330
1F
100
AcDbEntity
  8
Calm 815
  6
Continuous
 62
    18
420
        0
 48
0.9999999962747097
370
    25
100
AcDbLine
 10
36713.74725868747
 20
-19604.02668348021
 30
0.0
 11
36713.58524077673
 21
-19603.99753259188
 31
0.0
  0
LINE
  5
135
330
1F
100
AcDbEntity
  8
Calm 815
  6
Continuous
 62
    18
420
        0
 48
0.9999999962747097
370
    25
100
AcDbLine
 10
36713.58524077673
 20
-19603.99753259188
 30
0.0
 11
36713.42408714604
 21
-19603.95984878123
 31
0.0
  0
LINE
  5
136
330
1F
100
AcDbEntity
  8
Calm 815
  6
Continuous
 62
    18
420
        0
 48
0.9999999962747097
370
    25
100
AcDbLine
 10
36713.42408714604
 20
-19603.95984878123
 30
0.0
 11
36713.26447603067
 21
-19603.91366434748
 31
0.0
  0
LINE
  5
137
330
1F
100
AcDbEntity
  8
Calm 815
  6
Continuous
 62
    18
420
        0
 48
0.9999999962747097
370
    25
100
AcDbLine
 10
36713.26447603067
 20
-19603.91366434748
 30
0.0
 11
36713.10708412556
 21
-19603.85908250355
 31
0.0
  0
LINE
  5
138
330
1F
100
AcDbEntity
  8
Calm 815
  6
Continuous
 62
    18
420
        0
 48
0.9999999962747097
370
    25
100
AcDbLine
 10
36713.10708412556
 20
-19603.85908250355
 30
0.0
 11
36712.95257721478
 21
-19603.79627717496
 31
0.0
  0
LINE
  5
139
330
1F
100
AcDbEntity
  8
Calm 815
  6
Continuous
 62
    18
420
        0
 48
0.9999999962747097
370
    25
100
AcDbLine
 10
36712.95257721478
 20
-19603.79627717496
 30
0.0
 11
36712.80160087151
 21
-19603.72549133153
 31
0.0
  0
LINE
  5
13A
330
1F
100
AcDbEntity
  8
Calm 815
  6
Continuous
 62
    18
420
        0
 48
0.9999999962747097
370
    25
100
AcDbLine
 10
36712.80160087151
 20
-19603.72549133153
 30
0.0
 11
36712.65477149887
 21
-19603.64703387947
 31
0.0
  0
LINE
  5
13B
330
1F
100
AcDbEntity
  8
Calm 815
  6
Continuous
 62
    18
420
        0
 48
0.9999999962747097
370
    25
100
AcDbLine
 10
36712.65477149887
 20
-19603.64703387947
 30
0.0
 11
36712.51266797097
 21
-19603.56127519596
 31
0.0
  0
LINE
  5
13C
330
1F
100
AcDbEntity
  8
Calm 815
  6
Continuous
 62
    18
420
        0
 48
0.9999999962747097
370
    25
100
AcDbLine
 10
36712.51266797097
 20
-19603.56127519596
 30
0.0
 11
36712.37582411143
 21
-19603.46864144106
 31
0.0
  0
LINE
  5
13D
330
1F
100
AcDbEntity
  8
Calm 815
  6
Continuous
 62
    18
420
        0
 48
0.9999999962747097
370
    25
100
AcDbLine
 10
36712.37582411143
 20
-19603.46864144106
 30
0.0
 11
36712.24472221168
 21
-19603.36960782662
 31
0.0
  0
LINE
  5
13E
330
1F
100
AcDbEntity
  8
Calm 815
  6
Continuous
 62
    18
420
        0
 48
0.9999999962747097
370
    25
100
AcDbLine
 10
36712.24472221168
 20
-19603.36960782662
 30
0.0
 11
36712.11978774782
 21
-19603.26469105687
 31
0.0
  0
LINE
  5
13F
330
1F
100
AcDbEntity
  8
Calm 815
  6
Continuous
 62
    18
420
        0
 48
0.9999999962747097
370
    25
100
AcDbLine
 10
36712.11978774782
 20
-19603.26469105687
 30
0.0
 11
36712.00138540524
 21
-19603.15444118024
 31
0.0
  0
LINE
  5
140
330
1F
100
AcDbEntity
  8
Calm 815
  6
Continuous
 62
    18
420
        0
 48
0.9999999962747097
370
    25
100
AcDbLine
 10
36712.00138540524
 20
-19603.15444118024
 30
0.0
 11
36711.88981646676
 21
-19603.03943310289
 31
0.0
  0
LINE
  5
141
330
1F
100
AcDbEntity
  8
Calm 815
  6
Continuous
 62
    18
420
        0
 48
0.9999999962747097
370
    25
100
AcDbLine
 10
36711.88981646676
 20
-19603.03943310289
 30
0.0
 11
36711.78423911591
 21
-19602.9189634097
 31
0.0
  0
LINE
  5
142
330
1F
100
AcDbEntity
  8
Calm 815
  6
Continuous
 62
    18
420
        0
 48
0.9999999962747097
370
    25
100
AcDbLine
 10
36711.78423911591
 20
-19602.9189634097
 30
0.0
 11
36711.68402142687
 21
-19602.79213736027
 31
0.0
  0
LINE
  5
143
330
1F
100
AcDbEntity
  8
Calm 815
  6
Continuous
 62
    18
420
        0
 48
0.9999999962747097
370
    25
100
AcDbLine
 10
36711.68402142687
 20
-19602.79213736027
 30
0.0
 11
36711.58971337298
 21
-19602.65930316756
 31
0.0
  0
LINE
  5
144
330
1F
100
AcDbEntity
  8
Calm 815
  6
Continuous
 62
    18
420
        0
 48
0.9999999962747097
370
    25
100
AcDbLine
 10
36711.58971337298
 20
-19602.65930316756
 30
0.0
 11
36711.50183452825
 21
-19602.5208696917
 31
0.0
  0
LINE
  5
145
330
1F
100
AcDbEntity
  8
Calm 815
  6
Continuous
 62
    18
420
        0
 48
0.9999999962747097
370
    25
100
AcDbLine
 10
36711.50183452825
 20
-19602.5208696917
 30
0.0
 11
36711.42086579
 21
-19602.37730311788
 31
0.0
  0
LINE
  5
146
330
1F
100
AcDbEntity
  8
Calm 815
  6
Continuous
 62
    18
420
        0
 48
0.9999999962747097
370
    25
100
AcDbLine
 10
36711.42086579
 20
-19602.37730311788
 30
0.0
 11
36711.34724155845
 21
-19602.22912231301
 31
0.0
  0
LINE
  5
147
330
1F
100
AcDbEntity
  8
Calm 815
  6
Continuous
 62
    18
420
        0
 48
0.9999999962747097
370
    25
100
AcDbLine
 10
36711.34724155845
 20
-19602.22912231301
 30
0.0
 11
36711.28134261977
 21
-19602.07689293806
 31
0.0
  0
LINE
  5
148
330
1F
100
AcDbEntity
  8
Calm 815
  6
Continuous
 62
    18
420
        0
 48
0.9999999962747097
370
    25
100
AcDbLine
 10
36711.28134261977
 20
-19602.07689293806
 30
0.0
 11
36711.22348996258
 21
-19601.92122044505
 31
0.0
  0
LINE
  5
149
330
1F
100
AcDbEntity
  8
Calm 815
  6
Continuous
 62
    18
420
        0
 48
0.9999999962747097
370
    25
100
AcDbLine
 10
36711.22348996258
 20
-19601.92122044505
 30
0.0
 11
36711.17393972995
 21
-19601.76274213422
 31
0.0
  0
LINE
  5
14A
330
1F
100
AcDbEntity
  8
Calm 815
  6
Continuous
 62
    18
420
        0
 48
0.9999999962747097
370
    25
100
AcDbLine
 10
36711.17393972995
 20
-19601.76274213422
 30
0.0
 11
36711.13287946895
 21
-19601.60211848799
 31
0.0
  0
LINE
  5
14B
330
1F
100
AcDbEntity
  8
Calm 815
  6
Continuous
 62
    18
420
        0
 48
0.9999999962747097
370
    25
100
AcDbLine
 10
36711.13287946895
 20
-19601.60211848799
 30
0.0
 11
36711.10042579228
 21
-19601.44002402751
 31
0.0
  0
LINE
  5
14C
330
1F
100
AcDbEntity
  8
Calm 815
  6
Continuous
 62
    18
420
        0
 48
0.9999999962747097
370
    25
100
AcDbLine
 10
36711.10042579228
 20
-19601.44002402751
 30
0.0
 11
36711.07662351222
 21
-19601.27713795671
 31
0.0
  0
LINE
  5
14D
330
1F
100
AcDbEntity
  8
Calm 815
  6
Continuous
 62
    18
420
        0
 48
0.9999999962747097
370
    25
100
AcDbLine
 10
36711.07662351222
 20
-19601.27713795671
 30
0.0
 11
36711.06144625062
 21
-19601.11413486326
 31
0.0
  0
LINE
  5
14E
330
1F
100
AcDbEntity
  8
Calm 815
  6
Continuous
 62
    18
420
        0
 48
0.9999999962747097
370
    25
100
AcDbLine
 10
36711.06144625062
 20
-19601.11413486326
 30
0.0
 11
36711.05479847293
 21
-19600.95167573846
 31
0.0
  0
LINE
  5
14F
330
1F
100
AcDbEntity
  8
Calm 815
  6
Continuous
 62
    18
420
        0
 48
0.9999999962747097
370
    25
100
AcDbLine
 10
36711.05479847293
 20
-19600.95167573846
 30
0.0
 11
36711.05651884238
 21
-19600.79039955732
 31
0.0
  0
LINE
  5
150
330
1F
100
AcDbEntity
  8
Calm 815
  6
Continuous
 62
    18
420
        0
 48
0.9999999962747097
370
    25
100
AcDbLine
 10
36711.05651884238
 20
-19600.79039955732
 30
0.0
 11
36711.06638474653
 21
-19600.63091562941
 31
0.0
  0
LINE
  5
151
330
1F
100
AcDbEntity
  8
Calm 815
  6
Continuous
 62
    18
420
        0
 48
0.9999999962747097
370
    25
100
AcDbLine
 10
36711.06638474653
 20
-19600.63091562941
 30
0.0
 11
36711.05651884238
 21
-19600.79039955732
 31
0.0
  0
LINE
  5
152
330
1F
100
AcDbEntity
  8
Calm 815
  6
Continuous
 62
    18
420
        0
 48
0.9999999962747097
370
    25
100
AcDbLine
 10
36711.05651884238
 20
-19600.79039955732
 30
0.0
 11
36711.05479847293
 21
-19600.95167573846
 31
0.0
  0
LINE
  5
153
330
1F
100
AcDbEntity
  8
Calm 815
  6
Continuous
 62
    18
420
        0
 48
0.9999999962747097
370
    25
100
AcDbLine
 10
36711.05479847293
 20
-19600.95167573846
 30
0.0
 11
36711.06144625062
 21
-19601.11413486326
 31
0.0
  0
LINE
  5
154
330
1F
100
AcDbEntity
  8
Calm 815
  6
Continuous
 62
    18
420
        0
 48
0.9999999962747097
370
    25
100
AcDbLine
 10
36711.06144625062
 20
-19601.11413486326
 30
0.0
 11
36711.07662351222
 21
-19601.27713795671
 31
0.0
  0
LINE
  5
155
330
1F
100
AcDbEntity
  8
Calm 815
  6
Continuous
 62
    18
420
        0
 48
0.9999999962747097
370
    25
100
AcDbLine
 10
36711.07662351222
 20
-19601.27713795671
 30
0.0
 11
36711.10042579228
 21
-19601.44002402751
 31
0.0
  0
LINE
  5
156
330
1F
100
AcDbEntity
  8
Calm 815
  6
Continuous
 62
    18
420
        0
 48
0.9999999962747097
370
    25
100
AcDbLine
 10
36711.10042579228
 20
-19601.44002402751
 30
0.0
 11
36711.13287946895
 21
-19601.60211848799
 31
0.0
  0
LINE
  5
157
330
1F
100
AcDbEntity
  8
Calm 815
  6
Continuous
 62
    18
420
        0
 48
0.9999999962747097
370
    25
100
AcDbLine
 10
36711.13287946895
 20
-19601.60211848799
 30
0.0
 11
36711.17393972995
 21
-19601.76274213422
 31
0.0
  0
LINE
  5
158
330
1F
100
AcDbEntity
  8
Calm 815
  6
Continuous
 62
    18
420
        0
 48
0.9999999962747097
370
    25
100
AcDbLine
 10
36711.17393972995
 20
-19601.76274213422
 30
0.0
 11
36711.22348996258
 21
-19601.92122044505
 31
0.0
  0
LINE
  5
159
330
1F
100
AcDbEntity
  8
Calm 815
  6
Continuous
 62
    18
420
        0
 48
0.9999999962747097
370
    25
100
AcDbLine
 10
36711.22348996258
 20
-19601.92122044505
 30
0.0
 11
36711.28134261977
 21
-19602.07689293806
 31
0.0
  0
LINE
  5
15A
330
1F
100
AcDbEntity
  8
Calm 815
  6
Continuous
 62
    18
420
        0
 48
0.9999999962747097
370
    25
100
AcDbLine
 10
36711.28134261977
 20
-19602.07689293806
 30
0.0
 11
36711.34724155845
 21
-19602.22912231301
 31
0.0
  0
LINE
  5
15B
330
1F
100
AcDbEntity
  8
Calm 815
  6
Continuous
 62
    18
420
        0
 48
0.9999999962747097
370
    25
100
AcDbLine
 10
36711.34724155845
 20
-19602.22912231301
 30
0.0
 11
36711.42086579
 21
-19602.37730311788
 31
0.0
  0
LINE
  5
15C
330
1F
100
AcDbEntity
  8
Calm 815
  6
Continuous
 62
    18
420
        0
 48
0.9999999962747097
370
    25
100
AcDbLine
 10
36711.42086579
 20
-19602.37730311788
 30
0.0
 11
36711.50183452825
 21
-19602.5208696917
 31
0.0
  0
LINE
  5
15D
330
1F
100
AcDbEntity
  8
Calm 815
  6
Continuous
 62
    18
420
        0
 48
0.9999999962747097
370
    25
100
AcDbLine
 10
36711.50183452825
 20
-19602.5208696917
 30
0.0
 11
36711.58971337298
 21
-19602.65930316756
 31
0.0
  0
LINE
  5
15E
330
1F
100
AcDbEntity
  8
Calm 815
  6
Continuous
 62
    18
420
        0
 48
0.9999999962747097
370
    25
100
AcDbLine
 10
36711.58971337298
 20
-19602.65930316756
 30
0.0
 11
36711.68402142687
 21
-19602.79213736027
 31
0.0
  0
LINE
  5
15F
330
1F
100
AcDbEntity
  8
Calm 815
  6
Continuous
 62
    18
420
        0
 48
0.9999999962747097
370
    25
100
AcDbLine
 10
36711.68402142687
 20
-19602.79213736027
 30
0.0
 11
36711.78423911591
 21
-19602.9189634097
 31
0.0
  0
LINE
  5
160
330
1F
100
AcDbEntity
  8
Calm 815
  6
Continuous
 62
    18
420
        0
 48
0.9999999962747097
370
    25
100
AcDbLine
 10
36711.78423911591
 20
-19602.9189634097
 30
0.0
 11
36711.88981646676
 21
-19603.03943310289
 31
0.0
  0
LINE
  5
161
330
1F
100
AcDbEntity
  8
Calm 815
  6
Continuous
 62
    18
420
        0
 48
0.9999999962747097
370
    25
100
AcDbLine
 10
36711.88981646676
 20
-19603.03943310289
 30
0.0
 11
36712.00138540524
 21
-19603.15444118024
 31
0.0
  0
LINE
  5
162
330
1F
100
AcDbEntity
  8
Calm 815
  6
Continuous
 62
    18
420
        0
 48
0.9999999962747097
370
    25
100
AcDbLine
 10
36712.00138540524
 20
-19603.15444118024
 30
0.0
 11
36712.11978774782
 21
-19603.26469105687
 31
0.0
  0
LINE
  5
163
330
1F
100
AcDbEntity
  8
Calm 815
  6
Continuous
 62
    18
420
        0
 48
0.9999999962747097
370
    25
100
AcDbLine
 10
36712.11978774782
 20
-19603.26469105687
 30
0.0
 11
36712.24472221168
 21
-19603.36960782662
 31
0.0
  0
LINE
  5
164
330
1F
100
AcDbEntity
  8
Calm 815
  6
Continuous
 62
    18
420
        0
 48
0.9999999962747097
370
    25
100
AcDbLine
 10
36712.24472221168
 20
-19603.36960782662
 30
0.0
 11
36712.37582411143
 21
-19603.46864144106
 31
0.0
  0
LINE
  5
165
330
1F
100
AcDbEntity
  8
Calm 815
  6
Continuous
 62
    18
420
        0
 48
0.9999999962747097
370
    25
100
AcDbLine
 10
36712.37582411143
 20
-19603.46864144106
 30
0.0
 11
36712.51266797097
 21
-19603.56127519596
 31
0.0
  0
LINE
  5
166
330
1F
100
AcDbEntity
  8
Calm 815
  6
Continuous
 62
    18
420
        0
 48
0.9999999962747097
370
    25
100
AcDbLine
 10
36712.51266797097
 20
-19603.56127519596
 30
0.0
 11
36712.65477149887
 21
-19603.64703387947
 31
0.0
  0
LINE
  5
167
330
1F
100
AcDbEntity
  8
Calm 815
  6
Continuous
 62
    18
420
        0
 48
0.9999999962747097
370
    25
100
AcDbLine
 10
36712.65477149887
 20
-19603.64703387947
 30
0.0
 11
36712.80160087151
 21
-19603.72549133153
 31
0.0
  0
LINE
  5
168
330
1F
100
AcDbEntity
  8
Calm 815
  6
Continuous
 62
    18
420
        0
 48
0.9999999962747097
370
    25
100
AcDbLine
 10
36712.80160087151
 20
-19603.72549133153
 30
0.0
 11
36712.95257721478
 21
-19603.79627717494
 31
0.0
  0
LINE
  5
169
330
1F
100
AcDbEntity
  8
Calm 815
  6
Continuous
 62
    18
420
        0
 48
0.9999999962747097
370
    25
100
AcDbLine
 10
36712.95257721478
 20
-19603.79627717494
 30
0.0
 11
36713.10708412556
 21
-19603.85908250355
 31
0.0
  0
LINE
  5
16A
330
1F
100
AcDbEntity
  8
Calm 815
  6
Continuous
 62
    18
420
        0
 48
0.9999999962747097
370
    25
100
AcDbLine
 10
36713.10708412556
 20
-19603.85908250355
 30
0.0
 11
36713.26447603067
 21
-19603.91366434748
 31
0.0
  0
LINE
  5
16B
330
1F
100
AcDbEntity
  8
Calm 815
  6
Continuous
 62
    18
420
        0
 48
0.9999999962747097
370
    25
100
AcDbLine
 10
36713.26447603067
 20
-19603.91366434748
 30
0.0
 11
36713.42408714604
 21
-19603.95984878123
 31
0.0
  0
LINE
  5
16C
330
1F
100
AcDbEntity
  8
Calm 815
  6
Continuous
 62
    18
420
        0
 48
0.9999999962747097
370
    25
100
AcDbLine
 10
36713.42408714604
 20
-19603.95984878123
 30
0.0
 11
36713.58524077673
 21
-19603.99753259188
 31
0.0
  0
LINE
  5
16D
330
1F
100
AcDbEntity
  8
Calm 815
  6
Continuous
 62
    18
420
        0
 48
0.9999999962747097
370
    25
100
AcDbLine
 10
36713.58524077673
 20
-19603.99753259188
 30
0.0
 11
36713.74725868747
 21
-19604.02668348021
 31
0.0
  0
LINE
  5
16E
330
1F
100
AcDbEntity
  8
Calm 815
  6
Continuous
 62
    18
420
        0
 48
0.9999999962747097
370
    25
100
AcDbLine
 10
36713.74725868747
 20
-19604.02668348021
 30
0.0
 11
36713.90947027713
 21
-19604.04733882391
 31
0.0
  0
LINE
  5
16F
330
1F
100
AcDbEntity
  8
Calm 815
  6
Continuous
 62
    18
420
        0
 48
0.9999999962747097
370
    25
100
AcDbLine
 10
36713.90947027713
 20
-19604.04733882391
 30
0.0
 11
36714.0712213062
 21
-19604.05960308437
 31
0.0
  0
LINE
  5
170
330
1F
100
AcDbEntity
  8
Calm 815
  6
Continuous
 62
    18
420
        0
 48
0.9999999962747097
370
    25
100
AcDbLine
 10
36714.0712213062
 20
-19604.05960308437
 30
0.0
 11
36714.23188195335
 21
-19604.06364398573
 31
0.0
  0
LINE
  5
171
330
1F
100
AcDbEntity
  8
Calm 815
  6
Continuous
 62
    18
420
        0
 48
0.9999999962747097
370
    25
100
AcDbLine
 10
36773.10305082919
 20
-19582.9410112449
 30
0.0
 11
36781.80038418576
 21
-19582.17961269273
 31
0.0
  0
LINE
  5
172
330
1F
100
AcDbEntity
  8
Calm 815
  6
Continuous
 62
    18
420
        0
 48
0.9999999962747097
370
    25
100
AcDbLine
 10
36781.80038418576
 20
-19582.17961269273
 30
0.0
 11
36786.12845994974
 21
-19581.6019915496
 31
0.0
  0
LINE
  5
173
330
1F
100
AcDbEntity
  8
Calm 815
  6
Continuous
 62
    18
420
        0
 48
0.9999999962747097
370
    25
100
AcDbLine
 10
36786.12845994974
 20
-19581.6019915496
 30
0.0
 11
36788.28472250119
 21
-19581.26428396266
 31
0.0
  0
LINE
  5
174
330
1F
100
AcDbEntity
  8
Calm 815
  6
Continuous
 62
    18
420
        0
 48
0.9999999962747097
370
    25
100
AcDbLine
 10
36788.28472250119
 20
-19581.26428396266
 30
0.0
 11
36789.36058439149
 21
-19581.08326614061
 31
0.0
  0
LINE
  5
175
330
1F
100
AcDbEntity
  8
Calm 815
  6
Continuous
 62
    18
420
        0
 48
0.9999999962747097
370
    25
100
AcDbLine
 10
36789.36058439149
 20
-19581.08326614061
 30
0.0
 11
36789.89790754562
 21
-19580.989724897
 31
0.0
  0
LINE
  5
176
330
1F
100
AcDbEntity
  8
Calm 815
  6
Continuous
 62
    18
420
        0
 48
0.9999999962747097
370
    25
100
AcDbLine
 10
36789.89790754562
 20
-19580.989724897
 30
0.0
 11
36790.13618881775
 21
-19580.94865890729
 31
0.0
  0
LINE
  5
177
330
1F
100
AcDbEntity
  8
Calm 815
  6
Continuous
 62
    18
420
        0
 48
0.9999999962747097
370
    25
100
AcDbLine
 10
36790.13618881775
 20
-19580.94865890729
 30
0.0
 11
36790.23131172666
 21
-19580.93787401403
 31
0.0
  0
LINE
  5
178
330
1F
100
AcDbEntity
  8
Calm 815
  6
Continuous
 62
    18
420
        0
 48
0.9999999962747097
370
    25
100
AcDbLine
 10
36790.23131172666
 20
-19580.93787401403
 30
0.0
 11
36793.2641385943
 21
-19580.4978643316
 31
0.0
  0
LINE
  5
179
330
1F
100
AcDbEntity
  8
Calm 815
  6
Continuous
 62
    18
420
        0
 48
0.9999999962747097
370
    25
100
AcDbLine
 10
36793.2641385943
 20
-19580.4978643316
 30
0.0
 11
36794.7692497216
 21
-19580.20927637515
 31
0.0
  0
LINE
  5
17A
330
1F
100
AcDbEntity
  8
Calm 815
  6
Continuous
 62
    18
420
        0
 48
0.9999999962747097
370
    25
100
AcDbLine
 10
36794.7692497216
 20
-19580.20927637515
 30
0.0
 11
36795.51806620698
 21
-19580.04800892072
 31
0.0
  0
LINE
  5
17B
330
1F
100
AcDbEntity
  8
Calm 815
  6
Continuous
 62
    18
420
        0
 48
0.9999999962747097
370
    25
100
AcDbLine
 10
36795.51806620698
 20
-19580.04800892072
 30
0.0
 11
36795.89142691478
 21
-19579.9631597954
 31
0.0
  0
LINE
  5
17C
330
1F
100
AcDbEntity
  8
Calm 815
  6
Continuous
 62
    18
420
        0
 48
0.9999999962747097
370
    25
100
AcDbLine
 10
36795.89142691478
 20
-19579.9631597954
 30
0.0
 11
36796.1757528425
 21
-19579.91269111713
 31
0.0
  0
LINE
  5
17D
330
1F
100
AcDbEntity
  8
Calm 815
  6
Continuous
 62
    18
420
        0
 48
0.9999999962747097
370
    25
100
AcDbLine
 10
36796.1757528425
 20
-19579.91269111713
 30
0.0
 11
36796.56882044857
 21
-19579.84516768753
 31
0.0
  0
LINE
  5
17E
330
1F
100
AcDbEntity
  8
Calm 815
  6
Continuous
 62
    18
420
        0
 48
0.9999999962747097
370
    25
100
AcDbLine
 10
36796.56882044857
 20
-19579.84516768753
 30
0.0
 11
36797.35470160472
 21
-19579.70787506897
 31
0.0
  0
LINE
  5
17F
330
1F
100
AcDbEntity
  8
Calm 815
  6
Continuous
 62
    18
420
        0
 48
0.9999999962747097
370
    25
100
AcDbLine
 10
36797.35470160472
 20
-19579.70787506897
 30
0.0
 11
36803.62759040797
 21
-19578.50187096616
 31
0.0
  0
LINE
  5
180
330
1F
100
AcDbEntity
  8
Calm 815
  6
Continuous
 62
    18
420
        0
 48
0.9999999962747097
370
    25
100
AcDbLine
 10
36803.62759040797
 20
-19578.50187096616
 30
0.0
 11
36809.86905965846
 21
-19577.10509701309
 31
0.0
  0
LINE
  5
181
330
1F
100
AcDbEntity
  8
Calm 815
  6
Continuous
 62
    18
420
        0
 48
0.9999999962747097
370
    25
100
AcDbLine
 10
36809.86905965846
 20
-19577.10509701309
 30
0.0
 11
36816.07032926076
 21
-19575.51886197491
 31
0.0
  0
LINE
  5
182
330
1F
100
AcDbEntity
  8
Calm 815
  6
Continuous
 62
    18
420
        0
 48
0.9999999962747097
370
    25
100
AcDbLine
 10
36816.07032926076
 20
-19575.51886197491
 30
0.0
 11
36822.22270019585
 21
-19573.74500600337
 31
0.0
  0
LINE
  5
183
330
1F
100
AcDbEntity
  8
Calm 815
  6
Continuous
 62
    18
420
        0
 48
0.9999999962747097
370
    25
100
AcDbLine
 10
36822.22270019585
 20
-19573.74500600337
 30
0.0
 11
36828.3175950837
 21
-19571.78589381794
 31
0.0
  0
LINE
  5
184
330
1F
100
AcDbEntity
  8
Calm 815
  6
Continuous
 62
    18
420
        0
 48
0.9999999962747097
370
    25
100
AcDbLine
 10
36828.3175950837
 20
-19571.78589381794
 30
0.0
 11
36834.34659800114
 21
-19569.64440422739
 31
0.0
  0
LINE
  5
185
330
1F
100
AcDbEntity
  8
Calm 815
  6
Continuous
 62
    18
420
        0
 48
0.9999999962747097
370
    25
100
AcDbLine
 10
36834.34659800114
 20
-19569.64440422739
 30
0.0
 11
36840.30149316724
 21
-19567.32391608911
 31
0.0
  0
LINE
  5
186
330
1F
100
AcDbEntity
  8
Calm 815
  6
Continuous
 62
    18
420
        0
 48
0.9999999962747097
370
    25
100
AcDbLine
 10
36840.30149316724
 20
-19567.32391608911
 30
0.0
 11
36846.17430212368
 21
-19564.82829084922
 31
0.0
  0
LINE
  5
187
330
1F
100
AcDbEntity
  8
Calm 815
  6
Continuous
 62
    18
420
        0
 48
0.9999999962747097
370
    25
100
AcDbLine
 10
36721.79654454766
 20
-19584.78481980357
 30
0.0
 11
36722.01726085955
 21
-19584.58508448186
 31
0.0
  0
LINE
  5
188
330
1F
100
AcDbEntity
  8
Calm 815
  6
Continuous
 62
    18
420
        0
 48
0.9999999962747097
370
    25
100
AcDbLine
 10
36722.01726085955
 20
-19584.58508448186
 30
0.0
 11
36722.25915686873
 21
-19584.40458708865
 31
0.0
  0
LINE
  5
189
330
1F
100
AcDbEntity
  8
Calm 815
  6
Continuous
 62
    18
420
        0
 48
0.9999999962747097
370
    25
100
AcDbLine
 10
36722.25915686873
 20
-19584.40458708865
 30
0.0
 11
36722.51957127982
 21
-19584.24649336949
 31
0.0
  0
LINE
  5
18A
330
1F
100
AcDbEntity
  8
Calm 815
  6
Continuous
 62
    18
420
        0
 48
0.9999999962747097
370
    25
100
AcDbLine
 10
36722.51957127982
 20
-19584.24649336949
 30
0.0
 11
36722.79523021865
 21
-19584.11345570585
 31
0.0
  0
LINE
  5
18B
330
1F
100
AcDbEntity
  8
Calm 815
  6
Continuous
 62
    18
420
        0
 48
0.9999999962747097
370
    25
100
AcDbLine
 10
36722.79523021865
 20
-19584.11345570585
 30
0.0
 11
36723.08237922656
 21
-19584.00747301625
 31
0.0
  0
LINE
  5
18C
330
1F
100
AcDbEntity
  8
Calm 815
  6
Continuous
 62
    18
420
        0
 48
0.9999999962747097
370
    25
100
AcDbLine
 10
36723.08237922656
 20
-19584.00747301625
 30
0.0
 11
36723.37695184166
 21
-19583.92979232412
 31
0.0
  0
LINE
  5
18D
330
1F
100
AcDbEntity
  8
Calm 815
  6
Continuous
 62
    18
420
        0
 48
0.9999999962747097
370
    25
100
AcDbLine
 10
36723.37695184166
 20
-19583.92979232412
 30
0.0
 11
36723.6747591141
 21
-19583.88086196418
 31
0.0
  0
LINE
  5
18E
330
1F
100
AcDbEntity
  8
Calm 815
  6
Continuous
 62
    18
420
        0
 48
0.9999999962747097
370
    25
100
AcDbLine
 10
36723.6747591141
 20
-19583.88086196418
 30
0.0
 11
36723.82358075028
 21
-19583.86710082121
 31
0.0
  0
LINE
  5
18F
330
1F
100
AcDbEntity
  8
Calm 815
  6
Continuous
 62
    18
420
        0
 48
0.9999999962747097
370
    25
100
AcDbLine
 10
36723.82358075028
 20
-19583.86710082121
 30
0.0
 11
36723.89775157569
 21
-19583.86285413148
 31
0.0
  0
LINE
  5
190
330
1F
100
AcDbEntity
  8
Calm 815
  6
Continuous
 62
    18
420
        0
 48
0.9999999962747097
370
    25
100
AcDbLine
 10
36723.89775157569
 20
-19583.86285413148
 30
0.0
 11
36723.91625900937
 21
-19583.86206392499
 31
0.0
  0
LINE
  5
191
330
1F
100
AcDbEntity
  8
Calm 815
  6
Continuous
 62
    18
420
        0
 48
0.9999999962747097
370
    25
100
AcDbLine
 10
36723.91625900937
 20
-19583.86206392499
 30
0.0
 11
36723.91857133468
 21
-19583.86197274795
 31
0.0
  0
LINE
  5
192
330
1F
100
AcDbEntity
  8
Calm 815
  6
Continuous
 62
    18
420
        0
 48
0.9999999962747097
370
    25
100
AcDbLine
 10
36723.91857133468
 20
-19583.86197274795
 30
0.0
 11
36723.91972740321
 21
-19583.86192779192
 31
0.0
  0
LINE
  5
193
330
1F
100
AcDbEntity
  8
Calm 815
  6
Continuous
 62
    18
420
        0
 48
0.9999999962747097
370
    25
100
AcDbLine
 10
36723.91972740321
 20
-19583.86192779192
 30
0.0
 11
36723.92030541383
 21
-19583.86190547199
 31
0.0
  0
LINE
  5
194
330
1F
100
AcDbEntity
  8
Calm 815
  6
Continuous
 62
    18
420
        0
 48
0.9999999962747097
370
    25
100
AcDbLine
 10
36723.92030541383
 20
-19583.86190547199
 30
0.0
 11
36723.92059441323
 21
-19583.86189435155
 31
0.0
  0
LINE
  5
195
330
1F
100
AcDbEntity
  8
Calm 815
  6
Continuous
 62
    18
420
        0
 48
0.9999999962747097
370
    25
100
AcDbLine
 10
36723.92059441323
 20
-19583.86189435155
 30
0.0
 11
36723.92438249129
 21
-19583.86174890129
 31
0.0
  0
LINE
  5
196
330
1F
100
AcDbEntity
  8
Calm 815
  6
Continuous
 62
    18
420
        0
 48
0.9999999962747097
370
    25
100
AcDbLine
 10
36723.92438249129
 20
-19583.86174890129
 30
0.0
 11
36723.95664335608
 21
-19583.86050937171
 31
0.0
  0
LINE
  5
197
330
1F
100
AcDbEntity
  8
Calm 815
  6
Continuous
 62
    18
420
        0
 48
0.9999999962747097
370
    25
100
AcDbLine
 10
36723.95664335608
 20
-19583.86050937171
 30
0.0
 11
36724.98896502264
 21
-19583.82005531865
 31
0.0
  0
LINE
  5
198
330
1F
100
AcDbEntity
  8
Calm 815
  6
Continuous
 62
    18
420
        0
 48
0.9999999962747097
370
    25
100
AcDbLine
 10
36724.98896502264
 20
-19583.82005531865
 30
0.0
 11
36727.05344661277
 21
-19583.73455634142
 31
0.0
  0
LINE
  5
199
330
1F
100
AcDbEntity
  8
Calm 815
  6
Continuous
 62
    18
420
        0
 48
0.9999999962747097
370
    25
100
AcDbLine
 10
36727.05344661277
 20
-19583.73455634142
 30
0.0
 11
36735.30871163766
 21
-19583.33136719656
 31
0.0
  0
LINE
  5
19A
330
1F
100
AcDbEntity
  8
Calm 815
  6
Continuous
 62
    18
420
        0
 48
0.9999999962747097
370
    25
100
AcDbLine
 10
36846.56825324462
 20
-19576.5439240777
 30
0.0
 11
36835.84282458598
 21
-19580.88778715553
 31
0.0
  0
LINE
  5
19B
330
1F
100
AcDbEntity
  8
Calm 815
  6
Continuous
 62
    18
420
        0
 48
0.9999999962747097
370
    25
100
AcDbLine
 10
36835.84282458598
 20
-19580.88778715553
 30
0.0
 11
36824.8933387848
 21
-19584.70918611134
 31
0.0
  0
LINE
  5
19C
330
1F
100
AcDbEntity
  8
Calm 815
  6
Continuous
 62
    18
420
        0
 48
0.9999999962747097
370
    25
100
AcDbLine
 10
36824.8933387848
 20
-19584.70918611134
 30
0.0
 11
36813.75882023595
 21
-19587.99196453881
 31
0.0
  0
LINE
  5
19D
330
1F
100
AcDbEntity
  8
Calm 815
  6
Continuous
 62
    18
420
        0
 48
0.9999999962747097
370
    25
100
AcDbLine
 10
36813.75882023595
 20
-19587.99196453881
 30
0.0
 11
36802.47976751081
 21
-19590.72384282066
 31
0.0
  0
LINE
  5
19E
330
1F
100
AcDbEntity
  8
Calm 815
  6
Continuous
 62
    18
420
        0
 48
0.9999999962747097
370
    25
100
AcDbLine
 10
36802.47976751081
 20
-19590.72384282066
 30
0.0
 11
36791.097663571
 21
-19592.89657075211
 31
0.0
  0
LINE
  5
19F
330
1F
100
AcDbEntity
  8
Calm 815
  6
Continuous
 62
    18
420
        0
 48
0.9999999962747097
370
    25
100
AcDbLine
 10
36791.097663571
 20
-19592.89657075211
 30
0.0
 11
36788.24094993185
 21
-19593.35180949907
 31
0.0
  0
LINE
  5
1A0
330
1F
100
AcDbEntity
  8
Calm 815
  6
Continuous
 62
    18
420
        0
 48
0.9999999962747097
370
    25
100
AcDbLine
 10
36788.24094993185
 20
-19593.35180949907
 30
0.0
 11
36785.6976732289
 21
-19593.73030874273
 31
0.0
  0
LINE
  5
1A1
330
1F
100
AcDbEntity
  8
Calm 815
  6
Continuous
 62
    18
420
        0
 48
0.9999999962747097
370
    25
100
AcDbLine
 10
36785.6976732289
 20
-19593.73030874273
 30
0.0
 11
36782.83821097564
 21
-19594.06689782533
 31
0.0
  0
LINE
  5
1A2
330
1F
100
AcDbEntity
  8
Calm 815
  6
Continuous
 62
    18
420
        0
 48
0.9999999962747097
370
    25
100
AcDbLine
 10
36782.83821097564
 20
-19594.06689782533
 30
0.0
 11
36779.49232933314
 21
-19594.37682927414
 31
0.0
  0
LINE
  5
1A3
330
1F
100
AcDbEntity
  8
Calm 815
  6
Continuous
 62
    18
420
        0
 48
0.9999999962747097
370
    25
100
AcDbLine
 10
36779.49232933314
 20
-19594.37682927414
 30
0.0
 11
36775.66042921424
 21
-19594.66001275321
 31
0.0
  0
LINE
  5
1A4
330
1F
100
AcDbEntity
  8
Calm 815
  6
Continuous
 62
    18
420
        0
 48
0.9999999962747097
370
    25
100
AcDbLine
 10
36775.66042921424
 20
-19594.66001275321
 30
0.0
 11
36771.34313318885
 21
-19594.91637003128
 31
0.0
  0
LINE
  5
1A5
330
1F
100
AcDbEntity
  8
Calm 815
  6
Continuous
 62
    18
420
        0
 48
0.9999999962747097
370
    25
100
AcDbLine
 10
36771.34313318885
 20
-19594.91637003128
 30
0.0
 11
36766.5412852014
 21
-19595.14583505164
 31
0.0
  0
LINE
  5
1A6
330
1F
100
AcDbEntity
  8
Calm 815
  6
Continuous
 62
    18
420
        0
 48
0.9999999962747097
370
    25
100
AcDbLine
 10
36766.5412852014
 20
-19595.14583505164
 30
0.0
 11
36761.25595003601
 21
-19595.34835398801
 31
0.0
  0
LINE
  5
1A7
330
1F
100
AcDbEntity
  8
Calm 815
  6
Continuous
 62
    18
420
        0
 48
0.9999999962747097
370
    25
100
AcDbLine
 10
36761.25595003601
 20
-19595.34835398801
 30
0.0
 11
36755.48841253019
 21
-19595.5238852866
 31
0.0
  0
LINE
  5
1A8
330
1F
100
AcDbEntity
  8
Calm 815
  6
Continuous
 62
    18
420
        0
 48
0.9999999962747097
370
    25
100
AcDbLine
 10
36755.48841253019
 20
-19595.5238852866
 30
0.0
 11
36749.24017653816
 21
-19595.67239969417
 31
0.0
  0
LINE
  5
1A9
330
1F
100
AcDbEntity
  8
Calm 815
  6
Continuous
 62
    18
420
        0
 48
0.9999999962747097
370
    25
100
AcDbLine
 10
36749.24017653816
 20
-19595.67239969417
 30
0.0
 11
36742.51296364549
 21
-19595.7938802721
 31
0.0
  0
LINE
  5
1AA
330
1F
100
AcDbEntity
  8
Calm 815
  6
Continuous
 62
    18
420
        0
 48
0.9999999962747097
370
    25
100
AcDbLine
 10
36742.51296364549
 20
-19595.7938802721
 30
0.0
 11
36735.30871163766
 21
-19595.88832239645
 31
0.0
  0
LINE
  5
1AB
330
1F
100
AcDbEntity
  8
Calm 815
  6
Continuous
 62
    18
420
        0
 48
0.9999999962747097
370
    25
100
AcDbLine
 10
36712.38071082573
 20
-19594.14635661201
 30
0.0
 11
36712.15782940898
 21
-19594.39250570761
 31
0.0
  0
LINE
  5
1AC
330
1F
100
AcDbEntity
  8
Calm 815
  6
Continuous
 62
    18
420
        0
 48
0.9999999962747097
370
    25
100
AcDbLine
 10
36712.15782940898
 20
-19594.39250570761
 30
0.0
 11
36711.95972990592
 21
-19594.66412834858
 31
0.0
  0
LINE
  5
1AD
330
1F
100
AcDbEntity
  8
Calm 815
  6
Continuous
 62
    18
420
        0
 48
0.9999999962747097
370
    25
100
AcDbLine
 10
36711.95972990592
 20
-19594.66412834858
 30
0.0
 11
36711.79059561105
 21
-19594.95732515179
 31
0.0
  0
LINE
  5
1AE
330
1F
100
AcDbEntity
  8
Calm 815
  6
Continuous
 62
    18
420
        0
 48
0.9999999962747097
370
    25
100
AcDbLine
 10
36711.79059561105
 20
-19594.95732515179
 30
0.0
 11
36711.65373558865
 21
-19595.26733758569
 31
0.0
  0
LINE
  5
1AF
330
1F
100
AcDbEntity
  8
Calm 815
  6
Continuous
 62
    18
420
        0
 48
0.9999999962747097
370
    25
100
AcDbLine
 10
36711.65373558865
 20
-19595.26733758569
 30
0.0
 11
36711.55137620156
 21
-19595.58880004629
 31
0.0
  0
LINE
  5
1B0
330
1F
100
AcDbEntity
  8
Calm 815
  6
Continuous
 62
    18
420
        0
 48
0.9999999962747097
370
    25
100
AcDbLine
 10
36711.55137620156
 20
-19595.58880004629
 30
0.0
 11
36711.48454208247
 21
-19595.91604570594
 31
0.0
  0
LINE
  5
1B1
330
1F
100
AcDbEntity
  8
Calm 815
  6
Continuous
 62
    18
420
        0
 48
0.9999999962747097
370
    25
100
AcDbLine
 10
36711.48454208247
 20
-19595.91604570594
 30
0.0
 11
36711.46443243777
 21
-19596.080063885
 31
0.0
  0
LINE
  5
1B2
330
1F
100
AcDbEntity
  8
Calm 815
  6
Continuous
 62
    18
420
        0
 48
0.9999999962747097
370
    25
100
AcDbLine
 10
36711.46443243777
 20
-19596.080063885
 30
0.0
 11
36711.46014977055
 21
-19596.12774627477
 31
0.0
  0
LINE
  5
1B3
330
1F
100
AcDbEntity
  8
Calm 815
  6
Continuous
 62
    18
420
        0
 48
0.9999999962747097
370
    25
100
AcDbLine
 10
36711.46014977055
 20
-19596.12774627477
 30
0.0
 11
36711.45489956108
 21
-19596.18778863749
 31
0.0
  0
LINE
  5
1B4
330
1F
100
AcDbEntity
  8
Calm 815
  6
Continuous
 62
    18
420
        0
 48
0.9999999962747097
370
    25
100
AcDbLine
 10
36711.45489956108
 20
-19596.18778863749
 30
0.0
 11
36711.44439914288
 21
-19596.30787335445
 31
0.0
  0
LINE
  5
1B5
330
1F
100
AcDbEntity
  8
Calm 815
  6
Continuous
 62
    18
420
        0
 48
0.9999999962747097
370
    25
100
AcDbLine
 10
36711.44439914288
 20
-19596.30787335445
 30
0.0
 11
36711.40239747996
 21
-19596.78821210912
 31
0.0
  0
LINE
  5
1B6
330
1F
100
AcDbEntity
  8
Calm 815
  6
Continuous
 62
    18
420
        0
 48
0.9999999962747097
370
    25
100
AcDbLine
 10
36711.40239747996
 20
-19596.78821210912
 30
0.0
 11
36711.06638474653
 21
-19600.63091562948
 31
0.0
  0
LINE
  5
1B7
330
1F
100
AcDbEntity
  8
Calm 815
  6
Continuous
 62
    18
420
        0
 48
0.9999999962747097
370
    25
100
AcDbLine
 10
36735.30871163766
 20
-19595.88832239645
 30
0.0
 11
36734.26441175599
 21
-19596.06435436401
 31
0.0
  0
LINE
  5
1B8
330
1F
100
AcDbEntity
  8
Calm 815
  6
Continuous
 62
    18
420
        0
 48
0.9999999962747097
370
    25
100
AcDbLine
 10
36734.26441175599
 20
-19596.06435436401
 30
0.0
 11
36733.22559899931
 21
-19596.38750402579
 31
0.0
  0
LINE
  5
1B9
330
1F
100
AcDbEntity
  8
Calm 815
  6
Continuous
 62
    18
420
        0
 48
0.9999999962747097
370
    25
100
AcDbLine
 10
36733.22559899931
 20
-19596.38750402579
 30
0.0
 11
36732.22352392699
 21
-19596.85851690083
 31
0.0
  0
LINE
  5
1BA
330
1F
100
AcDbEntity
  8
Calm 815
  6
Continuous
 62
    18
420
        0
 48
0.9999999962747097
370
    25
100
AcDbLine
 10
36732.22352392699
 20
-19596.85851690083
 30
0.0
 11
36731.2895659701
 21
-19597.4693753251
 31
0.0
  0
LINE
  5
1BB
330
1F
100
AcDbEntity
  8
Calm 815
  6
Continuous
 62
    18
420
        0
 48
0.9999999962747097
370
    25
100
AcDbLine
 10
36731.2895659701
 20
-19597.4693753251
 30
0.0
 11
36730.45214252929
 21
-19598.20349873525
 31
0.0
  0
LINE
  5
1BC
330
1F
100
AcDbEntity
  8
Calm 815
  6
Continuous
 62
    18
420
        0
 48
0.9999999962747097
370
    25
100
AcDbLine
 10
36730.45214252929
 20
-19598.20349873525
 30
0.0
 11
36729.73389366224
 21
-19599.03720268359
 31
0.0
  0
LINE
  5
1BD
330
1F
100
AcDbEntity
  8
Calm 815
  6
Continuous
 62
    18
420
        0
 48
0.9999999962747097
370
    25
100
AcDbLine
 10
36729.73389366224
 20
-19599.03720268359
 30
0.0
 11
36729.14970945187
 21
-19599.94215683009
 31
0.0
  0
LINE
  5
1BE
330
1F
100
AcDbEntity
  8
Calm 815
  6
Continuous
 62
    18
420
        0
 48
0.9999999962747097
370
    25
100
AcDbLine
 10
36729.14970945187
 20
-19599.94215683009
 30
0.0
 11
36728.70594542321
 21
-19600.88832838861
 31
0.0
  0
LINE
  5
1BF
330
1F
100
AcDbEntity
  8
Calm 815
  6
Continuous
 62
    18
420
        0
 48
0.9999999962747097
370
    25
100
AcDbLine
 10
36728.70594542321
 20
-19600.88832838861
 30
0.0
 11
36728.61690132668
 21
-19601.12786461419
 31
0.0
  0
LINE
  5
1C0
330
1F
100
AcDbEntity
  8
Calm 815
  6
Continuous
 62
    18
420
        0
 48
0.9999999962747097
370
    25
100
AcDbLine
 10
36728.61690132668
 20
-19601.12786461419
 30
0.0
 11
36728.59386137353
 21
-19601.19392168789
 31
0.0
  0
LINE
  5
1C1
330
1F
100
AcDbEntity
  8
Calm 815
  6
Continuous
 62
    18
420
        0
 48
0.9999999962747097
370
    25
100
AcDbLine
 10
36728.59386137353
 20
-19601.19392168789
 30
0.0
 11
36728.58281910068
 21
-19601.22580954849
 31
0.0
  0
LINE
  5
1C2
330
1F
100
AcDbEntity
  8
Calm 815
  6
Continuous
 62
    18
420
        0
 48
0.9999999962747097
370
    25
100
AcDbLine
 10
36728.58281910068
 20
-19601.22580954849
 30
0.0
 11
36728.53864953246
 21
-19601.35336051078
 31
0.0
  0
LINE
  5
1C3
330
1F
100
AcDbEntity
  8
Calm 815
  6
Continuous
 62
    18
420
        0
 48
0.9999999962747097
370
    25
100
AcDbLine
 10
36728.53864953246
 20
-19601.35336051078
 30
0.0
 11
36728.45030810713
 21
-19601.60846013085
 31
0.0
  0
LINE
  5
1C4
330
1F
100
AcDbEntity
  8
Calm 815
  6
Continuous
 62
    18
420
        0
 48
0.9999999962747097
370
    25
100
AcDbLine
 10
36728.45030810713
 20
-19601.60846013085
 30
0.0
 11
36728.2736161009
 21
-19602.11865015296
 31
0.0
  0
LINE
  5
1C5
330
1F
100
AcDbEntity
  8
Calm 815
  6
Continuous
 62
    18
420
        0
 48
0.9999999962747097
370
    25
100
AcDbLine
 10
36728.2736161009
 20
-19602.11865015296
 30
0.0
 11
36727.92775866234
 21
-19603.1114467483
 31
0.0
  0
LINE
  5
1C6
330
1F
100
AcDbEntity
  8
Calm 815
  6
Continuous
 62
    18
420
        0
 48
0.9999999962747097
370
    25
100
AcDbLine
 10
36727.92775866234
 20
-19603.1114467483
 30
0.0
 11
36727.72625021316
 21
-19603.4649551796
 31
0.0
  0
LINE
  5
1C7
330
1F
100
AcDbEntity
  8
Calm 815
  6
Continuous
 62
    18
420
        0
 48
0.9999999962747097
370
    25
100
AcDbLine
 10
36727.72625021316
 20
-19603.4649551796
 30
0.0
 11
36727.42374105281
 21
-19603.76293609252
 31
0.0
  0
LINE
  5
1C8
330
1F
100
AcDbEntity
  8
Calm 815
  6
Continuous
 62
    18
420
        0
 48
0.9999999962747097
370
    25
100
AcDbLine
 10
36727.42374105281
 20
-19603.76293609252
 30
0.0
 11
36727.04899012881
 21
-19603.96658218552
 31
0.0
  0
LINE
  5
1C9
330
1F
100
AcDbEntity
  8
Calm 815
  6
Continuous
 62
    18
420
        0
 48
0.9999999962747097
370
    25
100
AcDbLine
 10
36727.04899012881
 20
-19603.96658218552
 30
0.0
 11
36726.64717220976
 21
-19604.05767570724
 31
0.0
  0
LINE
  5
1CA
330
1F
100
AcDbEntity
  8
Calm 815
  6
Continuous
 62
    18
420
        0
 48
0.9999999962747097
370
    25
100
AcDbLine
 10
36726.64717220976
 20
-19604.05767570724
 30
0.0
 11
36726.54800086565
 21
-19604.06321031395
 31
0.0
  0
LINE
  5
1CB
330
1F
100
AcDbEntity
  8
Calm 815
  6
Continuous
 62
    18
420
        0
 48
0.9999999962747097
370
    25
100
AcDbLine
 10
36726.54800086565
 20
-19604.06321031395
 30
0.0
 11
36726.52346655622
 21
-19604.06358735383
 31
0.0
  0
LINE
  5
1CC
330
1F
100
AcDbEntity
  8
Calm 815
  6
Continuous
 62
    18
420
        0
 48
0.9999999962747097
370
    25
100
AcDbLine
 10
36726.52346655622
 20
-19604.06358735383
 30
0.0
 11
36726.50441015637
 21
-19604.06362898578
 31
0.0
  0
LINE
  5
1CD
330
1F
100
AcDbEntity
  8
Calm 815
  6
Continuous
 62
    18
420
        0
 48
0.9999999962747097
370
    25
100
AcDbLine
 10
36726.50441015637
 20
-19604.06362898578
 30
0.0
 11
36726.39951678179
 21
-19604.06362898704
 31
0.0
  0
LINE
  5
1CE
330
1F
100
AcDbEntity
  8
Calm 815
  6
Continuous
 62
    18
420
        0
 48
0.9999999962747097
370
    25
100
AcDbLine
 10
36726.39951678179
 20
-19604.06362898704
 30
0.0
 11
36725.97994327853
 21
-19604.06362901395
 31
0.0
  0
LINE
  5
1CF
330
1F
100
AcDbEntity
  8
Calm 815
  6
Continuous
 62
    18
420
        0
 48
0.9999999962747097
370
    25
100
AcDbLine
 10
36725.97994327853
 20
-19604.06362901395
 30
0.0
 11
36724.30164918584
 21
-19604.0636294718
 31
0.0
  0
LINE
  5
1D0
330
1F
100
AcDbEntity
  8
Calm 815
  6
Continuous
 62
    18
420
        0
 48
0.9999999962747097
370
    25
100
AcDbLine
 10
36724.30164918584
 20
-19604.0636294718
 30
0.0
 11
36720.94506061813
 21
-19604.06363206847
 31
0.0
  0
LINE
  5
1D1
330
1F
100
AcDbEntity
  8
Calm 815
  6
Continuous
 62
    18
420
        0
 48
0.9999999962747097
370
    25
100
AcDbLine
 10
36720.94506061813
 20
-19604.06363206847
 30
0.0
 11
36714.23188195335
 21
-19604.06364398573
 31
0.0
  0
LINE
  5
1D2
330
1F
100
AcDbEntity
  8
Calm 815
  6
Continuous
 62
    18
420
        0
 48
0.9999999962747097
370
    25
100
AcDbLine
 10
36735.30871163766
 20
-19583.33136719656
 30
0.0
 11
36739.54500787787
 21
-19583.30617753607
 31
0.0
  0
LINE
  5
1D3
330
1F
100
AcDbEntity
  8
Calm 815
  6
Continuous
 62
    18
420
        0
 48
0.9999999962747097
370
    25
100
AcDbLine
 10
36739.54500787787
 20
-19583.30617753607
 30
0.0
 11
36743.53141692526
 21
-19583.28109347795
 31
0.0
  0
LINE
  5
1D4
330
1F
100
AcDbEntity
  8
Calm 815
  6
Continuous
 62
    18
420
        0
 48
0.9999999962747097
370
    25
100
AcDbLine
 10
36743.53141692526
 20
-19583.28109347795
 30
0.0
 11
36747.267938246
 21
-19583.25611503211
 31
0.0
  0
LINE
  5
1D5
330
1F
100
AcDbEntity
  8
Calm 815
  6
Continuous
 62
    18
420
        0
 48
0.9999999962747097
370
    25
100
AcDbLine
 10
36747.267938246
 20
-19583.25611503211
 30
0.0
 11
36750.75457151284
 21
-19583.23124220837
 31
0.0
  0
LINE
  5
1D6
330
1F
100
AcDbEntity
  8
Calm 815
  6
Continuous
 62
    18
420
        0
 48
0.9999999962747097
370
    25
100
AcDbLine
 10
36750.75457151284
 20
-19583.23124220837
 30
0.0
 11
36753.99131660524
 21
-19583.20647501645
 31
0.0
  0
LINE
  5
1D7
330
1F
100
AcDbEntity
  8
Calm 815
  6
Continuous
 62
    18
420
        0
 48
0.9999999962747097
370
    25
100
AcDbLine
 10
36753.99131660524
 20
-19583.20647501645
 30
0.0
 11
36756.97817360927
 21
-19583.18181346598
 31
0.0
  0
LINE
  5
1D8
330
1F
100
AcDbEntity
  8
Calm 815
  6
Continuous
 62
    18
420
        0
 48
0.9999999962747097
370
    25
100
AcDbLine
 10
36756.97817360927
 20
-19583.18181346598
 30
0.0
 11
36759.71514281767
 21
-19583.15725756653
 31
0.0
  0
LINE
  5
1D9
330
1F
100
AcDbEntity
  8
Calm 815
  6
Continuous
 62
    18
420
        0
 48
0.9999999962747097
370
    25
100
AcDbLine
 10
36759.71514281767
 20
-19583.15725756653
 30
0.0
 11
36762.20222472984
 21
-19583.13280732755
 31
0.0
  0
LINE
  5
1DA
330
1F
100
AcDbEntity
  8
Calm 815
  6
Continuous
 62
    18
420
        0
 48
0.9999999962747097
370
    25
100
AcDbLine
 10
36762.20222472984
 20
-19583.13280732755
 30
0.0
 11
36764.43942005181
 21
-19583.10846275843
 31
0.0
  0
LINE
  5
1DB
330
1F
100
AcDbEntity
  8
Calm 815
  6
Continuous
 62
    18
420
        0
 48
0.9999999962747097
370
    25
100
AcDbLine
 10
36764.43942005181
 20
-19583.10846275843
 30
0.0
 11
36766.42672969625
 21
-19583.08422386844
 31
0.0
  0
LINE
  5
1DC
330
1F
100
AcDbEntity
  8
Calm 815
  6
Continuous
 62
    18
420
        0
 48
0.9999999962747097
370
    25
100
AcDbLine
 10
36766.42672969625
 20
-19583.08422386844
 30
0.0
 11
36768.16415478247
 21
-19583.06009066679
 31
0.0
  0
LINE
  5
1DD
330
1F
100
AcDbEntity
  8
Calm 815
  6
Continuous
 62
    18
420
        0
 48
0.9999999962747097
370
    25
100
AcDbLine
 10
36768.16415478247
 20
-19583.06009066679
 30
0.0
 11
36769.6516966364
 21
-19583.03606316259
 31
0.0
  0
LINE
  5
1DE
330
1F
100
AcDbEntity
  8
Calm 815
  6
Continuous
 62
    18
420
        0
 48
0.9999999962747097
370
    25
100
AcDbLine
 10
36769.6516966364
 20
-19583.03606316259
 30
0.0
 11
36770.88935679063
 21
-19583.01214136488
 31
0.0
  0
LINE
  5
1DF
330
1F
100
AcDbEntity
  8
Calm 815
  6
Continuous
 62
    18
420
        0
 48
0.9999999962747097
370
    25
100
AcDbLine
 10
36770.88935679063
 20
-19583.01214136488
 30
0.0
 11
36771.87713698436
 21
-19582.98832528259
 31
0.0
  0
LINE
  5
1E0
330
1F
100
AcDbEntity
  8
Calm 815
  6
Continuous
 62
    18
420
        0
 48
0.9999999962747097
370
    25
100
AcDbLine
 10
36771.87713698436
 20
-19582.98832528259
 30
0.0
 11
36772.61503916341
 21
-19582.96461492457
 31
0.0
  0
LINE
  5
1E1
330
1F
100
AcDbEntity
  8
Calm 815
  6
Continuous
 62
    18
420
        0
 48
0.9999999962747097
370
    25
100
AcDbLine
 10
36772.61503916341
 20
-19582.96461492457
 30
0.0
 11
36773.10306548018
 21
-19582.94101029959
 31
0.0
  0
LINE
  5
1E2
330
1F
100
AcDbEntity
  8
Calm 815
  6
Continuous
 62
    18
420
        0
 48
0.9999999962747097
370
    25
100
AcDbLine
 10
36952.56513990654
 20
-19466.27530360356
 30
0.0
 11
36953.96534156131
 21
-19455.33730360831
 31
0.0
  0
LINE
  5
1E3
330
1F
100
AcDbEntity
  8
Calm 815
  6
Continuous
 62
    18
420
        0
 48
0.9999999962747097
370
    25
100
AcDbLine
 10
36953.96534156131
 20
-19455.33730360831
 30
0.0
 11
36954.65556648241
 21
-19449.86706086619
 31
0.0
  0
LINE
  5
1E4
330
1F
100
AcDbEntity
  8
Calm 815
  6
Continuous
 62
    18
420
        0
 48
0.9999999962747097
370
    25
100
AcDbLine
 10
36954.65556648241
 20
-19449.86706086619
 30
0.0
 11
36954.99820931708
 21
-19447.13163395092
 31
0.0
  0
LINE
  5
1E5
330
1F
100
AcDbEntity
  8
Calm 815
  6
Continuous
 62
    18
420
        0
 48
0.9999999962747097
370
    25
100
AcDbLine
 10
36954.99820931708
 20
-19447.13163395092
 30
0.0
 11
36955.08361274217
 21
-19446.44774564332
 31
0.0
  0
LINE
  5
1E6
330
1F
100
AcDbEntity
  8
Calm 815
  6
Continuous
 62
    18
420
        0
 48
0.9999999962747097
370
    25
100
AcDbLine
 10
36955.08361274217
 20
-19446.44774564332
 30
0.0
 11
36955.10494751745
 21
-19446.27677159904
 31
0.0
  0
LINE
  5
1E7
330
1F
100
AcDbEntity
  8
Calm 815
  6
Continuous
 62
    18
420
        0
 48
0.9999999962747097
370
    25
100
AcDbLine
 10
36955.10494751745
 20
-19446.27677159904
 30
0.0
 11
36955.11394581426
 21
-19446.20464475264
 31
0.0
  0
LINE
  5
1E8
330
1F
100
AcDbEntity
  8
Calm 815
  6
Continuous
 62
    18
420
        0
 48
0.9999999962747097
370
    25
100
AcDbLine
 10
36955.11394581426
 20
-19446.20464475264
 30
0.0
 11
36955.11396276172
 21
-19446.20450891197
 31
0.0
  0
LINE
  5
1E9
330
1F
100
AcDbEntity
  8
Calm 815
  6
Continuous
 62
    18
420
        0
 48
0.9999999962747097
370
    25
100
AcDbLine
 10
36955.11396276172
 20
-19446.20450891197
 30
0.0
 11
36955.11403057594
 21
-19446.20396554341
 31
0.0
  0
LINE
  5
1EA
330
1F
100
AcDbEntity
  8
Calm 815
  6
Continuous
 62
    18
420
        0
 48
0.9999999962747097
370
    25
100
AcDbLine
 10
36955.11403057594
 20
-19446.20396554341
 30
0.0
 11
36955.11430222235
 21
-19446.20179197494
 31
0.0
  0
LINE
  5
1EB
330
1F
100
AcDbEntity
  8
Calm 815
  6
Continuous
 62
    18
420
        0
 48
0.9999999962747097
370
    25
100
AcDbLine
 10
36955.11430222235
 20
-19446.20179197494
 30
0.0
 11
36955.11873344838
 21
-19446.16699455933
 31
0.0
  0
LINE
  5
1EC
330
1F
100
AcDbEntity
  8
Calm 815
  6
Continuous
 62
    18
420
        0
 48
0.9999999962747097
370
    25
100
AcDbLine
 10
36955.11873344838
 20
-19446.16699455933
 30
0.0
 11
36955.12807721426
 21
-19446.09728792417
 31
0.0
  0
LINE
  5
1ED
330
1F
100
AcDbEntity
  8
Calm 815
  6
Continuous
 62
    18
420
        0
 48
0.9999999962747097
370
    25
100
AcDbLine
 10
36955.12807721426
 20
-19446.09728792417
 30
0.0
 11
36955.14870770459
 21
-19445.95745479735
 31
0.0
  0
LINE
  5
1EE
330
1F
100
AcDbEntity
  8
Calm 815
  6
Continuous
 62
    18
420
        0
 48
0.9999999962747097
370
    25
100
AcDbLine
 10
36955.14870770459
 20
-19445.95745479735
 30
0.0
 11
36955.19787640301
 21
-19445.67633526689
 31
0.0
  0
LINE
  5
1EF
330
1F
100
AcDbEntity
  8
Calm 815
  6
Continuous
 62
    18
420
        0
 48
0.9999999962747097
370
    25
100
AcDbLine
 10
36955.19787640301
 20
-19445.67633526689
 30
0.0
 11
36955.32882960295
 21
-19445.1102046343
 31
0.0
  0
LINE
  5
1F0
330
1F
100
AcDbEntity
  8
Calm 815
  6
Continuous
 62
    18
420
        0
 48
0.9999999962747097
370
    25
100
AcDbLine
 10
36955.32882960295
 20
-19445.1102046343
 30
0.0
 11
36955.72712507638
 21
-19443.97936358075
 31
0.0
  0
LINE
  5
1F1
330
1F
100
AcDbEntity
  8
Calm 815
  6
Continuous
 62
    18
420
        0
 48
0.9999999962747097
370
    25
100
AcDbLine
 10
36955.72712507638
 20
-19443.97936358075
 30
0.0
 11
36956.31191070523
 21
-19442.88619089048
 31
0.0
  0
LINE
  5
1F2
330
1F
100
AcDbEntity
  8
Calm 815
  6
Continuous
 62
    18
420
        0
 48
0.9999999962747097
370
    25
100
AcDbLine
 10
36956.31191070523
 20
-19442.88619089048
 30
0.0
 11
36957.07685060116
 21
-19441.87589261159
 31
0.0
  0
LINE
  5
1F3
330
1F
100
AcDbEntity
  8
Calm 815
  6
Continuous
 62
    18
420
        0
 48
0.9999999962747097
370
    25
100
AcDbLine
 10
36957.07685060116
 20
-19441.87589261159
 30
0.0
 11
36958.00116750936
 21
-19440.99135553052
 31
0.0
  0
LINE
  5
1F4
330
1F
100
AcDbEntity
  8
Calm 815
  6
Continuous
 62
    18
420
        0
 48
0.9999999962747097
370
    25
100
AcDbLine
 10
36958.00116750936
 20
-19440.99135553052
 30
0.0
 11
36959.05113612458
 21
-19440.26751142127
 31
0.0
  0
LINE
  5
1F5
330
1F
100
AcDbEntity
  8
Calm 815
  6
Continuous
 62
    18
420
        0
 48
0.9999999962747097
370
    25
100
AcDbLine
 10
36959.05113612458
 20
-19440.26751142127
 30
0.0
 11
36960.18407509157
 21
-19439.72686951389
 31
0.0
  0
LINE
  5
1F6
330
1F
100
AcDbEntity
  8
Calm 815
  6
Continuous
 62
    18
420
        0
 48
0.9999999962747097
370
    25
100
AcDbLine
 10
36960.18407509157
 20
-19439.72686951389
 30
0.0
 11
36961.35388240141
 21
-19439.37736984064
 31
0.0
  0
LINE
  5
1F7
330
1F
100
AcDbEntity
  8
Calm 815
  6
Continuous
 62
    18
420
        0
 48
0.9999999962747097
370
    25
100
AcDbLine
 10
36961.35388240141
 20
-19439.37736984064
 30
0.0
 11
36962.51668364937
 21
-19439.21293600286
 31
0.0
  0
LINE
  5
1F8
330
1F
100
AcDbEntity
  8
Calm 815
  6
Continuous
 62
    18
420
        0
 48
0.9999999962747097
370
    25
100
AcDbLine
 10
36962.51668364937
 20
-19439.21293600286
 30
0.0
 11
36963.11157945808
 21
-19439.19497806629
 31
0.0
  0
LINE
  5
1F9
330
1F
100
AcDbEntity
  8
Calm 815
  6
Continuous
 62
    18
420
        0
 48
0.9999999962747097
370
    25
100
AcDbLine
 10
36963.11157945808
 20
-19439.19497806629
 30
0.0
 11
36964.16409927187
 21
-19439.19497806629
 31
0.0
  0
LINE
  5
1FA
330
1F
100
AcDbEntity
  8
Calm 815
  6
Continuous
 62
    18
420
        0
 48
0.9999999962747097
370
    25
100
AcDbLine
 10
36964.16409927187
 20
-19439.19497806629
 30
0.0
 11
36966.18832473712
 21
-19439.19497806629
 31
0.0
  0
LINE
  5
1FB
330
1F
100
AcDbEntity
  8
Calm 815
  6
Continuous
 62
    18
420
        0
 48
0.9999999962747097
370
    25
100
AcDbLine
 10
36966.18832473712
 20
-19439.19497806629
 30
0.0
 11
36968.10479798594
 21
-19439.19497806629
 31
0.0
  0
LINE
  5
1FC
330
1F
100
AcDbEntity
  8
Calm 815
  6
Continuous
 62
    18
420
        0
 48
0.9999999962747097
370
    25
100
AcDbLine
 10
36968.10479798594
 20
-19439.19497806629
 30
0.0
 11
36969.91351901829
 21
-19439.19497806629
 31
0.0
  0
LINE
  5
1FD
330
1F
100
AcDbEntity
  8
Calm 815
  6
Continuous
 62
    18
420
        0
 48
0.9999999962747097
370
    25
100
AcDbLine
 10
36969.91351901829
 20
-19439.19497806629
 30
0.0
 11
36971.61448783422
 21
-19439.19497806629
 31
0.0
  0
LINE
  5
1FE
330
1F
100
AcDbEntity
  8
Calm 815
  6
Continuous
 62
    18
420
        0
 48
0.9999999962747097
370
    25
100
AcDbLine
 10
36971.61448783422
 20
-19439.19497806629
 30
0.0
 11
36973.20770443368
 21
-19439.19497806629
 31
0.0
  0
LINE
  5
1FF
330
1F
100
AcDbEntity
  8
Calm 815
  6
Continuous
 62
    18
420
        0
 48
0.9999999962747097
370
    25
100
AcDbLine
 10
36973.20770443368
 20
-19439.19497806629
 30
0.0
 11
36974.69316881669
 21
-19439.19497806629
 31
0.0
  0
LINE
  5
200
330
1F
100
AcDbEntity
  8
Calm 815
  6
Continuous
 62
    18
420
        0
 48
0.9999999962747097
370
    25
100
AcDbLine
 10
36943.77046565295
 20
-19458.13520278918
 30
0.0
 11
36944.48818455535
 21
-19452.46190828583
 31
0.0
  0
LINE
  5
201
330
1F
100
AcDbEntity
  8
Calm 815
  6
Continuous
 62
    18
420
        0
 48
0.9999999962747097
370
    25
100
AcDbLine
 10
36944.48818455535
 20
-19452.46190828583
 30
0.0
 11
36945.27091606511
 21
-19446.79711842933
 31
0.0
  0
LINE
  5
202
330
1F
100
AcDbEntity
  8
Calm 815
  6
Continuous
 62
    18
420
        0
 48
0.9999999962747097
370
    25
100
AcDbLine
 10
36945.27091606511
 20
-19446.79711842933
 30
0.0
 11
36944.48818455535
 21
-19452.46190828583
 31
0.0
  0
LINE
  5
203
330
1F
100
AcDbEntity
  8
Calm 815
  6
Continuous
 62
    18
420
        0
 48
0.9999999962747097
370
    25
100
AcDbLine
 10
36944.48818455535
 20
-19452.46190828583
 30
0.0
 11
36943.77046565295
 21
-19458.13520278918
 31
0.0
  0
LINE
  5
204
330
1F
100
AcDbEntity
  8
Calm 815
  6
Continuous
 62
    18
420
        0
 48
0.9999999962747097
370
    25
100
AcDbLine
 10
36943.77046681992
 20
-19458.1351932063
 30
0.0
 11
36943.32555845773
 21
-19461.10959619555
 31
0.0
  0
LINE
  5
205
330
1F
100
AcDbEntity
  8
Calm 815
  6
Continuous
 62
    18
420
        0
 48
0.9999999962747097
370
    25
100
AcDbLine
 10
36943.32555845773
 20
-19461.10959619555
 30
0.0
 11
36942.80455574449
 21
-19464.07470136138
 31
0.0
  0
LINE
  5
206
330
1F
100
AcDbEntity
  8
Calm 815
  6
Continuous
 62
    18
420
        0
 48
0.9999999962747097
370
    25
100
AcDbLine
 10
36942.80455574449
 20
-19464.07470136138
 30
0.0
 11
36942.20777762423
 21
-19467.02762716875
 31
0.0
  0
LINE
  5
207
330
1F
100
AcDbEntity
  8
Calm 815
  6
Continuous
 62
    18
420
        0
 48
0.9999999962747097
370
    25
100
AcDbLine
 10
36942.20777762423
 20
-19467.02762716875
 30
0.0
 11
36941.53569001851
 21
-19469.96550816379
 31
0.0
  0
LINE
  5
208
330
1F
100
AcDbEntity
  8
Calm 815
  6
Continuous
 62
    18
420
        0
 48
0.9999999962747097
370
    25
100
AcDbLine
 10
36941.53569001851
 20
-19469.96550816379
 30
0.0
 11
36940.78890468322
 21
-19472.88550422271
 31
0.0
  0
LINE
  5
209
330
1F
100
AcDbEntity
  8
Calm 815
  6
Continuous
 62
    18
420
        0
 48
0.9999999962747097
370
    25
100
AcDbLine
 10
36940.78890468322
 20
-19472.88550422271
 30
0.0
 11
36939.96817736034
 21
-19475.78480969644
 31
0.0
  0
LINE
  5
20A
330
1F
100
AcDbEntity
  8
Calm 815
  6
Continuous
 62
    18
420
        0
 48
0.9999999962747097
370
    25
100
AcDbLine
 10
36939.96817736034
 20
-19475.78480969644
 30
0.0
 11
36939.0744052364
 21
-19478.66066238923
 31
0.0
  0
LINE
  5
20B
330
1F
100
AcDbEntity
  8
Calm 815
  6
Continuous
 62
    18
420
        0
 48
0.9999999962747097
370
    25
100
AcDbLine
 10
36939.0744052364
 20
-19478.66066238923
 30
0.0
 11
36938.10862372558
 21
-19481.51035231101
 31
0.0
  0
LINE
  5
20C
330
1F
100
AcDbEntity
  8
Calm 815
  6
Continuous
 62
    18
420
        0
 48
0.9999999962747097
370
    25
100
AcDbLine
 10
36938.10862372558
 20
-19481.51035231101
 30
0.0
 11
36939.0744052364
 21
-19478.66066238923
 31
0.0
  0
LINE
  5
20D
330
1F
100
AcDbEntity
  8
Calm 815
  6
Continuous
 62
    18
420
        0
 48
0.9999999962747097
370
    25
100
AcDbLine
 10
36939.0744052364
 20
-19478.66066238923
 30
0.0
 11
36939.96817736034
 21
-19475.78480969644
 31
0.0
  0
LINE
  5
20E
330
1F
100
AcDbEntity
  8
Calm 815
  6
Continuous
 62
    18
420
        0
 48
0.9999999962747097
370
    25
100
AcDbLine
 10
36939.96817736034
 20
-19475.78480969644
 30
0.0
 11
36940.78890468322
 21
-19472.88550422271
 31
0.0
  0
LINE
  5
20F
330
1F
100
AcDbEntity
  8
Calm 815
  6
Continuous
 62
    18
420
        0
 48
0.9999999962747097
370
    25
100
AcDbLine
 10
36940.78890468322
 20
-19472.88550422271
 30
0.0
 11
36941.53569001851
 21
-19469.96550816379
 31
0.0
  0
LINE
  5
210
330
1F
100
AcDbEntity
  8
Calm 815
  6
Continuous
 62
    18
420
        0
 48
0.9999999962747097
370
    25
100
AcDbLine
 10
36941.53569001851
 20
-19469.96550816379
 30
0.0
 11
36942.20777762423
 21
-19467.02762716875
 31
0.0
  0
LINE
  5
211
330
1F
100
AcDbEntity
  8
Calm 815
  6
Continuous
 62
    18
420
        0
 48
0.9999999962747097
370
    25
100
AcDbLine
 10
36942.20777762423
 20
-19467.02762716875
 30
0.0
 11
36942.80455574449
 21
-19464.07470136138
 31
0.0
  0
LINE
  5
212
330
1F
100
AcDbEntity
  8
Calm 815
  6
Continuous
 62
    18
420
        0
 48
0.9999999962747097
370
    25
100
AcDbLine
 10
36942.80455574449
 20
-19464.07470136138
 30
0.0
 11
36943.32555845773
 21
-19461.10959619555
 31
0.0
  0
LINE
  5
213
330
1F
100
AcDbEntity
  8
Calm 815
  6
Continuous
 62
    18
420
        0
 48
0.9999999962747097
370
    25
100
AcDbLine
 10
36943.32555845773
 20
-19461.10959619555
 30
0.0
 11
36943.77046681992
 21
-19458.1351932063
 31
0.0
  0
LINE
  5
214
330
1F
100
AcDbEntity
  8
Calm 815
  6
Continuous
 62
    18
420
        0
 48
0.9999999962747097
370
    25
100
AcDbLine
 10
36938.1086220232
 20
-19481.51035621139
 30
0.0
 11
36936.15723323029
 21
-19485.73778665965
 31
0.0
  0
LINE
  5
215
330
1F
100
AcDbEntity
  8
Calm 815
  6
Continuous
 62
    18
420
        0
 48
0.9999999962747097
370
    25
100
AcDbLine
 10
36936.15723323029
 20
-19485.73778665965
 30
0.0
 11
36934.05840579869
 21
-19489.90391385744
 31
0.0
  0
LINE
  5
216
330
1F
100
AcDbEntity
  8
Calm 815
  6
Continuous
 62
    18
420
        0
 48
0.9999999962747097
370
    25
100
AcDbLine
 10
36934.05840579869
 20
-19489.90391385744
 30
0.0
 11
36931.81517089411
 21
-19494.00117073767
 31
0.0
  0
LINE
  5
217
330
1F
100
AcDbEntity
  8
Calm 815
  6
Continuous
 62
    18
420
        0
 48
0.9999999962747097
370
    25
100
AcDbLine
 10
36931.81517089411
 20
-19494.00117073767
 30
0.0
 11
36929.43107996554
 21
-19498.02219624814
 31
0.0
  0
LINE
  5
218
330
1F
100
AcDbEntity
  8
Calm 815
  6
Continuous
 62
    18
420
        0
 48
0.9999999962747097
370
    25
100
AcDbLine
 10
36929.43107996554
 20
-19498.02219624814
 30
0.0
 11
36926.91018628472
 21
-19501.95987923959
 31
0.0
  0
LINE
  5
219
330
1F
100
AcDbEntity
  8
Calm 815
  6
Continuous
 62
    18
420
        0
 48
0.9999999962747097
370
    25
100
AcDbLine
 10
36926.91018628472
 20
-19501.95987923959
 30
0.0
 11
36924.25702202933
 21
-19505.80740032025
 31
0.0
  0
LINE
  5
21A
330
1F
100
AcDbEntity
  8
Calm 815
  6
Continuous
 62
    18
420
        0
 48
0.9999999962747097
370
    25
100
AcDbLine
 10
36924.25702202933
 20
-19505.80740032025
 30
0.0
 11
36921.47657118095
 21
-19509.55827116068
 31
0.0
  0
LINE
  5
21B
330
1F
100
AcDbEntity
  8
Calm 815
  6
Continuous
 62
    18
420
        0
 48
0.9999999962747097
370
    25
100
AcDbLine
 10
36921.47657118095
 20
-19509.55827116068
 30
0.0
 11
36918.57423857731
 21
-19513.20637077438
 31
0.0
  0
LINE
  5
21C
330
1F
100
AcDbEntity
  8
Calm 815
  6
Continuous
 62
    18
420
        0
 48
0.9999999962747097
370
    25
100
AcDbLine
 10
36918.57423857731
 20
-19513.20637077438
 30
0.0
 11
36921.47657118095
 21
-19509.55827116068
 31
0.0
  0
LINE
  5
21D
330
1F
100
AcDbEntity
  8
Calm 815
  6
Continuous
 62
    18
420
        0
 48
0.9999999962747097
370
    25
100
AcDbLine
 10
36921.47657118095
 20
-19509.55827116068
 30
0.0
 11
36924.25702202933
 21
-19505.80740032025
 31
0.0
  0
LINE
  5
21E
330
1F
100
AcDbEntity
  8
Calm 815
  6
Continuous
 62
    18
420
        0
 48
0.9999999962747097
370
    25
100
AcDbLine
 10
36924.25702202933
 20
-19505.80740032025
 30
0.0
 11
36926.91018628472
 21
-19501.95987923959
 31
0.0
  0
LINE
  5
21F
330
1F
100
AcDbEntity
  8
Calm 815
  6
Continuous
 62
    18
420
        0
 48
0.9999999962747097
370
    25
100
AcDbLine
 10
36926.91018628472
 20
-19501.95987923959
 30
0.0
 11
36929.43107996554
 21
-19498.02219624814
 31
0.0
  0
LINE
  5
220
330
1F
100
AcDbEntity
  8
Calm 815
  6
Continuous
 62
    18
420
        0
 48
0.9999999962747097
370
    25
100
AcDbLine
 10
36929.43107996554
 20
-19498.02219624814
 30
0.0
 11
36931.81517089411
 21
-19494.00117073767
 31
0.0
  0
LINE
  5
221
330
1F
100
AcDbEntity
  8
Calm 815
  6
Continuous
 62
    18
420
        0
 48
0.9999999962747097
370
    25
100
AcDbLine
 10
36931.81517089411
 20
-19494.00117073767
 30
0.0
 11
36934.05840579869
 21
-19489.90391385744
 31
0.0
  0
LINE
  5
222
330
1F
100
AcDbEntity
  8
Calm 815
  6
Continuous
 62
    18
420
        0
 48
0.9999999962747097
370
    25
100
AcDbLine
 10
36934.05840579869
 20
-19489.90391385744
 30
0.0
 11
36936.15723323029
 21
-19485.73778665965
 31
0.0
  0
LINE
  5
223
330
1F
100
AcDbEntity
  8
Calm 815
  6
Continuous
 62
    18
420
        0
 48
0.9999999962747097
370
    25
100
AcDbLine
 10
36936.15723323029
 20
-19485.73778665965
 30
0.0
 11
36938.1086220232
 21
-19481.51035621139
 31
0.0
  0
LINE
  5
224
330
1F
100
AcDbEntity
  8
Calm 815
  6
Continuous
 62
    18
420
        0
 48
0.9999999962747097
370
    25
100
AcDbLine
 10
36947.25830973085
 20
-19485.54560277786
 30
0.0
 11
36947.88073496182
 21
-19483.77940802046
 31
0.0
  0
LINE
  5
225
330
1F
100
AcDbEntity
  8
Calm 815
  6
Continuous
 62
    18
420
        0
 48
0.9999999962747097
370
    25
100
AcDbLine
 10
36947.88073496182
 20
-19483.77940802046
 30
0.0
 11
36948.46251077324
 21
-19482.05937011572
 31
0.0
  0
LINE
  5
226
330
1F
100
AcDbEntity
  8
Calm 815
  6
Continuous
 62
    18
420
        0
 48
0.9999999962747097
370
    25
100
AcDbLine
 10
36948.46251077324
 20
-19482.05937011572
 30
0.0
 11
36949.00640690265
 21
-19480.37854632101
 31
0.0
  0
LINE
  5
227
330
1F
100
AcDbEntity
  8
Calm 815
  6
Continuous
 62
    18
420
        0
 48
0.9999999962747097
370
    25
100
AcDbLine
 10
36949.00640690265
 20
-19480.37854632101
 30
0.0
 11
36949.51519308757
 21
-19478.72999389368
 31
0.0
  0
LINE
  5
228
330
1F
100
AcDbEntity
  8
Calm 815
  6
Continuous
 62
    18
420
        0
 48
0.9999999962747097
370
    25
100
AcDbLine
 10
36949.51519308757
 20
-19478.72999389368
 30
0.0
 11
36950.43851457409
 21
-19475.50193217058
 31
0.0
  0
LINE
  5
229
330
1F
100
AcDbEntity
  8
Calm 815
  6
Continuous
 62
    18
420
        0
 48
0.9999999962747097
370
    25
100
AcDbLine
 10
36950.43851457409
 20
-19475.50193217058
 30
0.0
 11
36951.25463313302
 21
-19472.31964300525
 31
0.0
  0
LINE
  5
22A
330
1F
100
AcDbEntity
  8
Calm 815
  6
Continuous
 62
    18
420
        0
 48
0.9999999962747097
370
    25
100
AcDbLine
 10
36951.25463313302
 20
-19472.31964300525
 30
0.0
 11
36951.44348497503
 21
-19471.52998293646
 31
0.0
  0
LINE
  5
22B
330
1F
100
AcDbEntity
  8
Calm 815
  6
Continuous
 62
    18
420
        0
 48
0.9999999962747097
370
    25
100
AcDbLine
 10
36951.44348497503
 20
-19471.52998293646
 30
0.0
 11
36951.61351356057
 21
-19470.81039646489
 31
0.0
  0
LINE
  5
22C
330
1F
100
AcDbEntity
  8
Calm 815
  6
Continuous
 62
    18
420
        0
 48
0.9999999962747097
370
    25
100
AcDbLine
 10
36951.61351356057
 20
-19470.81039646489
 30
0.0
 11
36951.76230930021
 21
-19470.17501458948
 31
0.0
  0
LINE
  5
22D
330
1F
100
AcDbEntity
  8
Calm 815
  6
Continuous
 62
    18
420
        0
 48
0.9999999962747097
370
    25
100
AcDbLine
 10
36951.76230930021
 20
-19470.17501458948
 30
0.0
 11
36951.89163191914
 21
-19469.61657936549
 31
0.0
  0
LINE
  5
22E
330
1F
100
AcDbEntity
  8
Calm 815
  6
Continuous
 62
    18
420
        0
 48
0.9999999962747097
370
    25
100
AcDbLine
 10
36951.89163191914
 20
-19469.61657936549
 30
0.0
 11
36952.00324114256
 21
-19469.12783284818
 31
0.0
  0
LINE
  5
22F
330
1F
100
AcDbEntity
  8
Calm 815
  6
Continuous
 62
    18
420
        0
 48
0.9999999962747097
370
    25
100
AcDbLine
 10
36952.00324114256
 20
-19469.12783284818
 30
0.0
 11
36952.09889669571
 21
-19468.70151709281
 31
0.0
  0
LINE
  5
230
330
1F
100
AcDbEntity
  8
Calm 815
  6
Continuous
 62
    18
420
        0
 48
0.9999999962747097
370
    25
100
AcDbLine
 10
36952.09889669571
 20
-19468.70151709281
 30
0.0
 11
36952.18035830375
 21
-19468.33037415465
 31
0.0
  0
LINE
  5
231
330
1F
100
AcDbEntity
  8
Calm 815
  6
Continuous
 62
    18
420
        0
 48
0.9999999962747097
370
    25
100
AcDbLine
 10
36952.18035830375
 20
-19468.33037415465
 30
0.0
 11
36952.24938569193
 21
-19468.00714608896
 31
0.0
  0
LINE
  5
232
330
1F
100
AcDbEntity
  8
Calm 815
  6
Continuous
 62
    18
420
        0
 48
0.9999999962747097
370
    25
100
AcDbLine
 10
36952.24938569193
 20
-19468.00714608896
 30
0.0
 11
36952.35717670948
 21
-19467.475402796
 31
0.0
  0
LINE
  5
233
330
1F
100
AcDbEntity
  8
Calm 815
  6
Continuous
 62
    18
420
        0
 48
0.9999999962747097
370
    25
100
AcDbLine
 10
36952.35717670948
 20
-19467.475402796
 30
0.0
 11
36952.43634754999
 21
-19467.04822365606
 31
0.0
  0
LINE
  5
234
330
1F
100
AcDbEntity
  8
Calm 815
  6
Continuous
 62
    18
420
        0
 48
0.9999999962747097
370
    25
100
AcDbLine
 10
36952.43634754999
 20
-19467.04822365606
 30
0.0
 11
36952.56513990654
 21
-19466.27530360356
 31
0.0
  0
LINE
  5
235
330
1F
100
AcDbEntity
  8
Calm 815
  6
Continuous
 62
    18
420
        0
 48
0.9999999962747097
370
    25
100
AcDbLine
 10
36926.29251587577
 20
-19519.56468781146
 30
0.0
 11
36929.40707938909
 21
-19515.64966392345
 31
0.0
  0
LINE
  5
236
330
1F
100
AcDbEntity
  8
Calm 815
  6
Continuous
 62
    18
420
        0
 48
0.9999999962747097
370
    25
100
AcDbLine
 10
36929.40707938909
 20
-19515.64966392345
 30
0.0
 11
36932.39103207487
 21
-19511.62426525376
 31
0.0
  0
LINE
  5
237
330
1F
100
AcDbEntity
  8
Calm 815
  6
Continuous
 62
    18
420
        0
 48
0.9999999962747097
370
    25
100
AcDbLine
 10
36932.39103207487
 20
-19511.62426525376
 30
0.0
 11
36935.2385638249
 21
-19507.49505108257
 31
0.0
  0
LINE
  5
238
330
1F
100
AcDbEntity
  8
Calm 815
  6
Continuous
 62
    18
420
        0
 48
0.9999999962747097
370
    25
100
AcDbLine
 10
36935.2385638249
 20
-19507.49505108257
 30
0.0
 11
36937.9438034424
 21
-19503.26867178348
 31
0.0
  0
LINE
  5
239
330
1F
100
AcDbEntity
  8
Calm 815
  6
Continuous
 62
    18
420
        0
 48
0.9999999962747097
370
    25
100
AcDbLine
 10
36937.9438034424
 20
-19503.26867178348
 30
0.0
 11
36940.5022149353
 21
-19498.95265913632
 31
0.0
  0
LINE
  5
23A
330
1F
100
AcDbEntity
  8
Calm 815
  6
Continuous
 62
    18
420
        0
 48
0.9999999962747097
370
    25
100
AcDbLine
 10
36940.5022149353
 20
-19498.95265913632
 30
0.0
 11
36942.90998121003
 21
-19494.55489130825
 31
0.0
  0
LINE
  5
23B
330
1F
100
AcDbEntity
  8
Calm 815
  6
Continuous
 62
    18
420
        0
 48
0.9999999962747097
370
    25
100
AcDbLine
 10
36942.90998121003
 20
-19494.55489130825
 30
0.0
 11
36945.16328517306
 21
-19490.08324646639
 31
0.0
  0
LINE
  5
23C
330
1F
100
AcDbEntity
  8
Calm 815
  6
Continuous
 62
    18
420
        0
 48
0.9999999962747097
370
    25
100
AcDbLine
 10
36945.16328517306
 20
-19490.08324646639
 30
0.0
 11
36947.25830973085
 21
-19485.54560277786
 31
0.0
  0
LINE
  5
23D
330
1F
100
AcDbEntity
  8
Calm 815
  6
Continuous
 62
    18
420
        0
 48
0.9999999962747097
370
    25
100
AcDbLine
 10
36879.99680642385
 20
-19558.94799365488
 30
0.0
 11
36886.27935188093
 21
-19554.70749407043
 31
0.0
  0
LINE
  5
23E
330
1F
100
AcDbEntity
  8
Calm 815
  6
Continuous
 62
    18
420
        0
 48
0.9999999962747097
370
    25
100
AcDbLine
 10
36886.27935188093
 20
-19554.70749407043
 30
0.0
 11
36892.45922438087
 21
-19550.31955820378
 31
0.0
  0
LINE
  5
23F
330
1F
100
AcDbEntity
  8
Calm 815
  6
Continuous
 62
    18
420
        0
 48
0.9999999962747097
370
    25
100
AcDbLine
 10
36892.45922438087
 20
-19550.31955820378
 30
0.0
 11
36898.50165987909
 21
-19545.74867964913
 31
0.0
  0
LINE
  5
240
330
1F
100
AcDbEntity
  8
Calm 815
  6
Continuous
 62
    18
420
        0
 48
0.9999999962747097
370
    25
100
AcDbLine
 10
36898.50165987909
 20
-19545.74867964913
 30
0.0
 11
36904.3807363515
 21
-19540.9660930403
 31
0.0
  0
LINE
  5
241
330
1F
100
AcDbEntity
  8
Calm 815
  6
Continuous
 62
    18
420
        0
 48
0.9999999962747097
370
    25
100
AcDbLine
 10
36904.3807363515
 20
-19540.9660930403
 30
0.0
 11
36910.09568688397
 21
-19535.96237743895
 31
0.0
  0
LINE
  5
242
330
1F
100
AcDbEntity
  8
Calm 815
  6
Continuous
 62
    18
420
        0
 48
0.9999999962747097
370
    25
100
AcDbLine
 10
36910.09568688397
 20
-19535.96237743895
 30
0.0
 11
36915.65018477989
 21
-19530.73155595825
 31
0.0
  0
LINE
  5
243
330
1F
100
AcDbEntity
  8
Calm 815
  6
Continuous
 62
    18
420
        0
 48
0.9999999962747097
370
    25
100
AcDbLine
 10
36915.65018477989
 20
-19530.73155595825
 30
0.0
 11
36921.04790334269
 21
-19525.26765171137
 31
0.0
  0
LINE
  5
244
330
1F
100
AcDbEntity
  8
Calm 815
  6
Continuous
 62
    18
420
        0
 48
0.9999999962747097
370
    25
100
AcDbLine
 10
36921.04790334269
 20
-19525.26765171137
 30
0.0
 11
36926.29251587577
 21
-19519.56468781146
 31
0.0
  0
LINE
  5
245
330
1F
100
AcDbEntity
  8
Calm 815
  6
Continuous
 62
    18
420
        0
 48
0.9999999962747097
370
    25
100
AcDbLine
 10
36495.64521523305
 20
-19558.94799365488
 30
0.0
 11
36489.36266977598
 21
-19554.70749407043
 31
0.0
  0
LINE
  5
246
330
1F
100
AcDbEntity
  8
Calm 815
  6
Continuous
 62
    18
420
        0
 48
0.9999999962747097
370
    25
100
AcDbLine
 10
36489.36266977598
 20
-19554.70749407043
 30
0.0
 11
36483.18279727604
 21
-19550.31955820378
 31
0.0
  0
LINE
  5
247
330
1F
100
AcDbEntity
  8
Calm 815
  6
Continuous
 62
    18
420
        0
 48
0.9999999962747097
370
    25
100
AcDbLine
 10
36483.18279727604
 20
-19550.31955820378
 30
0.0
 11
36477.14036177781
 21
-19545.74867964913
 31
0.0
  0
LINE
  5
248
330
1F
100
AcDbEntity
  8
Calm 815
  6
Continuous
 62
    18
420
        0
 48
0.9999999962747097
370
    25
100
AcDbLine
 10
36477.14036177781
 20
-19545.74867964913
 30
0.0
 11
36471.26128530541
 21
-19540.9660930403
 31
0.0
  0
LINE
  5
249
330
1F
100
AcDbEntity
  8
Calm 815
  6
Continuous
 62
    18
420
        0
 48
0.9999999962747097
370
    25
100
AcDbLine
 10
36471.26128530541
 20
-19540.9660930403
 30
0.0
 11
36465.54633477294
 21
-19535.96237743895
 31
0.0
  0
LINE
  5
24A
330
1F
100
AcDbEntity
  8
Calm 815
  6
Continuous
 62
    18
420
        0
 48
0.9999999962747097
370
    25
100
AcDbLine
 10
36465.54633477294
 20
-19535.96237743895
 30
0.0
 11
36459.99183687701
 21
-19530.73155595825
 31
0.0
  0
LINE
  5
24B
330
1F
100
AcDbEntity
  8
Calm 815
  6
Continuous
 62
    18
420
        0
 48
0.9999999962747097
370
    25
100
AcDbLine
 10
36459.99183687701
 20
-19530.73155595825
 30
0.0
 11
36454.59411831421
 21
-19525.26765171137
 31
0.0
  0
LINE
  5
24C
330
1F
100
AcDbEntity
  8
Calm 815
  6
Continuous
 62
    18
420
        0
 48
0.9999999962747097
370
    25
100
AcDbLine
 10
36454.59411831421
 20
-19525.26765171137
 30
0.0
 11
36449.34950578114
 21
-19519.56468781146
 31
0.0
  0
LINE
  5
24D
330
1F
100
AcDbEntity
  8
Calm 815
  6
Continuous
 62
    18
420
        0
 48
0.9999999962747097
370
    25
100
AcDbLine
 10
36661.41013970355
 20
-19604.06364398573
 30
0.0
 11
36661.5708003507
 21
-19604.05960308437
 31
0.0
  0
LINE
  5
24E
330
1F
100
AcDbEntity
  8
Calm 815
  6
Continuous
 62
    18
420
        0
 48
0.9999999962747097
370
    25
100
AcDbLine
 10
36661.5708003507
 20
-19604.05960308437
 30
0.0
 11
36661.73255137976
 21
-19604.04733882391
 31
0.0
  0
LINE
  5
24F
330
1F
100
AcDbEntity
  8
Calm 815
  6
Continuous
 62
    18
420
        0
 48
0.9999999962747097
370
    25
100
AcDbLine
 10
36661.73255137976
 20
-19604.04733882391
 30
0.0
 11
36661.89476296944
 21
-19604.02668348021
 31
0.0
  0
LINE
  5
250
330
1F
100
AcDbEntity
  8
Calm 815
  6
Continuous
 62
    18
420
        0
 48
0.9999999962747097
370
    25
100
AcDbLine
 10
36661.89476296944
 20
-19604.02668348021
 30
0.0
 11
36662.05678088016
 21
-19603.99753259188
 31
0.0
  0
LINE
  5
251
330
1F
100
AcDbEntity
  8
Calm 815
  6
Continuous
 62
    18
420
        0
 48
0.9999999962747097
370
    25
100
AcDbLine
 10
36662.05678088016
 20
-19603.99753259188
 30
0.0
 11
36662.21793451086
 21
-19603.95984878123
 31
0.0
  0
LINE
  5
252
330
1F
100
AcDbEntity
  8
Calm 815
  6
Continuous
 62
    18
420
        0
 48
0.9999999962747097
370
    25
100
AcDbLine
 10
36662.21793451086
 20
-19603.95984878123
 30
0.0
 11
36662.37754562624
 21
-19603.91366434748
 31
0.0
  0
LINE
  5
253
330
1F
100
AcDbEntity
  8
Calm 815
  6
Continuous
 62
    18
420
        0
 48
0.9999999962747097
370
    25
100
AcDbLine
 10
36662.37754562624
 20
-19603.91366434748
 30
0.0
 11
36662.53493753133
 21
-19603.85908250355
 31
0.0
  0
LINE
  5
254
330
1F
100
AcDbEntity
  8
Calm 815
  6
Continuous
 62
    18
420
        0
 48
0.9999999962747097
370
    25
100
AcDbLine
 10
36662.53493753133
 20
-19603.85908250355
 30
0.0
 11
36662.68944444213
 21
-19603.79627717496
 31
0.0
  0
LINE
  5
255
330
1F
100
AcDbEntity
  8
Calm 815
  6
Continuous
 62
    18
420
        0
 48
0.9999999962747097
370
    25
100
AcDbLine
 10
36662.68944444213
 20
-19603.79627717496
 30
0.0
 11
36662.8404207854
 21
-19603.72549133153
 31
0.0
  0
LINE
  5
256
330
1F
100
AcDbEntity
  8
Calm 815
  6
Continuous
 62
    18
420
        0
 48
0.9999999962747097
370
    25
100
AcDbLine
 10
36662.8404207854
 20
-19603.72549133153
 30
0.0
 11
36662.98725015803
 21
-19603.64703387947
 31
0.0
  0
LINE
  5
257
330
1F
100
AcDbEntity
  8
Calm 815
  6
Continuous
 62
    18
420
        0
 48
0.9999999962747097
370
    25
100
AcDbLine
 10
36662.98725015803
 20
-19603.64703387947
 30
0.0
 11
36663.12935368594
 21
-19603.56127519596
 31
0.0
  0
LINE
  5
258
330
1F
100
AcDbEntity
  8
Calm 815
  6
Continuous
 62
    18
420
        0
 48
0.9999999962747097
370
    25
100
AcDbLine
 10
36663.12935368594
 20
-19603.56127519596
 30
0.0
 11
36663.26619754547
 21
-19603.46864144106
 31
0.0
  0
LINE
  5
259
330
1F
100
AcDbEntity
  8
Calm 815
  6
Continuous
 62
    18
420
        0
 48
0.9999999962747097
370
    25
100
AcDbLine
 10
36663.26619754547
 20
-19603.46864144106
 30
0.0
 11
36663.39729944523
 21
-19603.36960782662
 31
0.0
  0
LINE
  5
25A
330
1F
100
AcDbEntity
  8
Calm 815
  6
Continuous
 62
    18
420
        0
 48
0.9999999962747097
370
    25
100
AcDbLine
 10
36663.39729944523
 20
-19603.36960782662
 30
0.0
 11
36663.52223390908
 21
-19603.26469105687
 31
0.0
  0
LINE
  5
25B
330
1F
100
AcDbEntity
  8
Calm 815
  6
Continuous
 62
    18
420
        0
 48
0.9999999962747097
370
    25
100
AcDbLine
 10
36663.52223390908
 20
-19603.26469105687
 30
0.0
 11
36663.64063625165
 21
-19603.15444118024
 31
0.0
  0
LINE
  5
25C
330
1F
100
AcDbEntity
  8
Calm 815
  6
Continuous
 62
    18
420
        0
 48
0.9999999962747097
370
    25
100
AcDbLine
 10
36663.64063625165
 20
-19603.15444118024
 30
0.0
 11
36663.75220519013
 21
-19603.03943310289
 31
0.0
  0
LINE
  5
25D
330
1F
100
AcDbEntity
  8
Calm 815
  6
Continuous
 62
    18
420
        0
 48
0.9999999962747097
370
    25
100
AcDbLine
 10
36663.75220519013
 20
-19603.03943310289
 30
0.0
 11
36663.857782541
 21
-19602.9189634097
 31
0.0
  0
LINE
  5
25E
330
1F
100
AcDbEntity
  8
Calm 815
  6
Continuous
 62
    18
420
        0
 48
0.9999999962747097
370
    25
100
AcDbLine
 10
36663.857782541
 20
-19602.9189634097
 30
0.0
 11
36663.95800023003
 21
-19602.79213736027
 31
0.0
  0
LINE
  5
25F
330
1F
100
AcDbEntity
  8
Calm 815
  6
Continuous
 62
    18
420
        0
 48
0.9999999962747097
370
    25
100
AcDbLine
 10
36663.95800023003
 20
-19602.79213736027
 30
0.0
 11
36664.05230828391
 21
-19602.65930316756
 31
0.0
  0
LINE
  5
260
330
1F
100
AcDbEntity
  8
Calm 815
  6
Continuous
 62
    18
420
        0
 48
0.9999999962747097
370
    25
100
AcDbLine
 10
36664.05230828391
 20
-19602.65930316756
 30
0.0
 11
36664.14018712864
 21
-19602.5208696917
 31
0.0
  0
LINE
  5
261
330
1F
100
AcDbEntity
  8
Calm 815
  6
Continuous
 62
    18
420
        0
 48
0.9999999962747097
370
    25
100
AcDbLine
 10
36664.14018712864
 20
-19602.5208696917
 30
0.0
 11
36664.2211558669
 21
-19602.37730311788
 31
0.0
  0
LINE
  5
262
330
1F
100
AcDbEntity
  8
Calm 815
  6
Continuous
 62
    18
420
        0
 48
0.9999999962747097
370
    25
100
AcDbLine
 10
36664.2211558669
 20
-19602.37730311788
 30
0.0
 11
36664.29478009844
 21
-19602.22912231301
 31
0.0
  0
LINE
  5
263
330
1F
100
AcDbEntity
  8
Calm 815
  6
Continuous
 62
    18
420
        0
 48
0.9999999962747097
370
    25
100
AcDbLine
 10
36664.29478009844
 20
-19602.22912231301
 30
0.0
 11
36664.36067903713
 21
-19602.07689293806
 31
0.0
  0
LINE
  5
264
330
1F
100
AcDbEntity
  8
Calm 815
  6
Continuous
 62
    18
420
        0
 48
0.9999999962747097
370
    25
100
AcDbLine
 10
36664.36067903713
 20
-19602.07689293806
 30
0.0
 11
36664.41853169432
 21
-19601.92122044505
 31
0.0
  0
LINE
  5
265
330
1F
100
AcDbEntity
  8
Calm 815
  6
Continuous
 62
    18
420
        0
 48
0.9999999962747097
370
    25
100
AcDbLine
 10
36664.41853169432
 20
-19601.92122044505
 30
0.0
 11
36664.46808192694
 21
-19601.76274213422
 31
0.0
  0
LINE
  5
266
330
1F
100
AcDbEntity
  8
Calm 815
  6
Continuous
 62
    18
420
        0
 48
0.9999999962747097
370
    25
100
AcDbLine
 10
36664.46808192694
 20
-19601.76274213422
 30
0.0
 11
36664.50914218794
 21
-19601.60211848799
 31
0.0
  0
LINE
  5
267
330
1F
100
AcDbEntity
  8
Calm 815
  6
Continuous
 62
    18
420
        0
 48
0.9999999962747097
370
    25
100
AcDbLine
 10
36664.50914218794
 20
-19601.60211848799
 30
0.0
 11
36664.54159586462
 21
-19601.44002402751
 31
0.0
  0
LINE
  5
268
330
1F
100
AcDbEntity
  8
Calm 815
  6
Continuous
 62
    18
420
        0
 48
0.9999999962747097
370
    25
100
AcDbLine
 10
36664.54159586462
 20
-19601.44002402751
 30
0.0
 11
36664.56539814469
 21
-19601.27713795671
 31
0.0
  0
LINE
  5
269
330
1F
100
AcDbEntity
  8
Calm 815
  6
Continuous
 62
    18
420
        0
 48
0.9999999962747097
370
    25
100
AcDbLine
 10
36664.56539814469
 20
-19601.27713795671
 30
0.0
 11
36664.58057540627
 21
-19601.11413486326
 31
0.0
  0
LINE
  5
26A
330
1F
100
AcDbEntity
  8
Calm 815
  6
Continuous
 62
    18
420
        0
 48
0.9999999962747097
370
    25
100
AcDbLine
 10
36664.58057540627
 20
-19601.11413486326
 30
0.0
 11
36664.58722318397
 21
-19600.95167573846
 31
0.0
  0
LINE
  5
26B
330
1F
100
AcDbEntity
  8
Calm 815
  6
Continuous
 62
    18
420
        0
 48
0.9999999962747097
370
    25
100
AcDbLine
 10
36664.58722318397
 20
-19600.95167573846
 30
0.0
 11
36664.58550281453
 21
-19600.79039955732
 31
0.0
  0
LINE
  5
26C
330
1F
100
AcDbEntity
  8
Calm 815
  6
Continuous
 62
    18
420
        0
 48
0.9999999962747097
370
    25
100
AcDbLine
 10
36664.58550281453
 20
-19600.79039955732
 30
0.0
 11
36664.57563691036
 21
-19600.63091562941
 31
0.0
  0
LINE
  5
26D
330
1F
100
AcDbEntity
  8
Calm 815
  6
Continuous
 62
    18
420
        0
 48
0.9999999962747097
370
    25
100
AcDbLine
 10
36664.57563691036
 20
-19600.63091562941
 30
0.0
 11
36664.58550281453
 21
-19600.79039955732
 31
0.0
  0
LINE
  5
26E
330
1F
100
AcDbEntity
  8
Calm 815
  6
Continuous
 62
    18
420
        0
 48
0.9999999962747097
370
    25
100
AcDbLine
 10
36664.58550281453
 20
-19600.79039955732
 30
0.0
 11
36664.58722318397
 21
-19600.95167573846
 31
0.0
  0
LINE
  5
26F
330
1F
100
AcDbEntity
  8
Calm 815
  6
Continuous
 62
    18
420
        0
 48
0.9999999962747097
370
    25
100
AcDbLine
 10
36664.58722318397
 20
-19600.95167573846
 30
0.0
 11
36664.58057540627
 21
-19601.11413486326
 31
0.0
  0
LINE
  5
270
330
1F
100
AcDbEntity
  8
Calm 815
  6
Continuous
 62
    18
420
        0
 48
0.9999999962747097
370
    25
100
AcDbLine
 10
36664.58057540627
 20
-19601.11413486326
 30
0.0
 11
36664.56539814469
 21
-19601.27713795671
 31
0.0
  0
LINE
  5
271
330
1F
100
AcDbEntity
  8
Calm 815
  6
Continuous
 62
    18
420
        0
 48
0.9999999962747097
370
    25
100
AcDbLine
 10
36664.56539814469
 20
-19601.27713795671
 30
0.0
 11
36664.54159586462
 21
-19601.44002402751
 31
0.0
  0
LINE
  5
272
330
1F
100
AcDbEntity
  8
Calm 815
  6
Continuous
 62
    18
420
        0
 48
0.9999999962747097
370
    25
100
AcDbLine
 10
36664.54159586462
 20
-19601.44002402751
 30
0.0
 11
36664.50914218794
 21
-19601.60211848799
 31
0.0
  0
LINE
  5
273
330
1F
100
AcDbEntity
  8
Calm 815
  6
Continuous
 62
    18
420
        0
 48
0.9999999962747097
370
    25
100
AcDbLine
 10
36664.50914218794
 20
-19601.60211848799
 30
0.0
 11
36664.46808192694
 21
-19601.76274213422
 31
0.0
  0
LINE
  5
274
330
1F
100
AcDbEntity
  8
Calm 815
  6
Continuous
 62
    18
420
        0
 48
0.9999999962747097
370
    25
100
AcDbLine
 10
36664.46808192694
 20
-19601.76274213422
 30
0.0
 11
36664.41853169432
 21
-19601.92122044505
 31
0.0
  0
LINE
  5
275
330
1F
100
AcDbEntity
  8
Calm 815
  6
Continuous
 62
    18
420
        0
 48
0.9999999962747097
370
    25
100
AcDbLine
 10
36664.41853169432
 20
-19601.92122044505
 30
0.0
 11
36664.36067903713
 21
-19602.07689293806
 31
0.0
  0
LINE
  5
276
330
1F
100
AcDbEntity
  8
Calm 815
  6
Continuous
 62
    18
420
        0
 48
0.9999999962747097
370
    25
100
AcDbLine
 10
36664.36067903713
 20
-19602.07689293806
 30
0.0
 11
36664.29478009844
 21
-19602.22912231301
 31
0.0
  0
LINE
  5
277
330
1F
100
AcDbEntity
  8
Calm 815
  6
Continuous
 62
    18
420
        0
 48
0.9999999962747097
370
    25
100
AcDbLine
 10
36664.29478009844
 20
-19602.22912231301
 30
0.0
 11
36664.2211558669
 21
-19602.37730311788
 31
0.0
  0
LINE
  5
278
330
1F
100
AcDbEntity
  8
Calm 815
  6
Continuous
 62
    18
420
        0
 48
0.9999999962747097
370
    25
100
AcDbLine
 10
36664.2211558669
 20
-19602.37730311788
 30
0.0
 11
36664.14018712864
 21
-19602.5208696917
 31
0.0
  0
LINE
  5
279
330
1F
100
AcDbEntity
  8
Calm 815
  6
Continuous
 62
    18
420
        0
 48
0.9999999962747097
370
    25
100
AcDbLine
 10
36664.14018712864
 20
-19602.5208696917
 30
0.0
 11
36664.05230828391
 21
-19602.65930316756
 31
0.0
  0
LINE
  5
27A
330
1F
100
AcDbEntity
  8
Calm 815
  6
Continuous
 62
    18
420
        0
 48
0.9999999962747097
370
    25
100
AcDbLine
 10
36664.05230828391
 20
-19602.65930316756
 30
0.0
 11
36663.95800023003
 21
-19602.79213736027
 31
0.0
  0
LINE
  5
27B
330
1F
100
AcDbEntity
  8
Calm 815
  6
Continuous
 62
    18
420
        0
 48
0.9999999962747097
370
    25
100
AcDbLine
 10
36663.95800023003
 20
-19602.79213736027
 30
0.0
 11
36663.857782541
 21
-19602.9189634097
 31
0.0
  0
LINE
  5
27C
330
1F
100
AcDbEntity
  8
Calm 815
  6
Continuous
 62
    18
420
        0
 48
0.9999999962747097
370
    25
100
AcDbLine
 10
36663.857782541
 20
-19602.9189634097
 30
0.0
 11
36663.75220519013
 21
-19603.03943310289
 31
0.0
  0
LINE
  5
27D
330
1F
100
AcDbEntity
  8
Calm 815
  6
Continuous
 62
    18
420
        0
 48
0.9999999962747097
370
    25
100
AcDbLine
 10
36663.75220519013
 20
-19603.03943310289
 30
0.0
 11
36663.64063625165
 21
-19603.15444118024
 31
0.0
  0
LINE
  5
27E
330
1F
100
AcDbEntity
  8
Calm 815
  6
Continuous
 62
    18
420
        0
 48
0.9999999962747097
370
    25
100
AcDbLine
 10
36663.64063625165
 20
-19603.15444118024
 30
0.0
 11
36663.52223390908
 21
-19603.26469105687
 31
0.0
  0
LINE
  5
27F
330
1F
100
AcDbEntity
  8
Calm 815
  6
Continuous
 62
    18
420
        0
 48
0.9999999962747097
370
    25
100
AcDbLine
 10
36663.52223390908
 20
-19603.26469105687
 30
0.0
 11
36663.39729944523
 21
-19603.36960782662
 31
0.0
  0
LINE
  5
280
330
1F
100
AcDbEntity
  8
Calm 815
  6
Continuous
 62
    18
420
        0
 48
0.9999999962747097
370
    25
100
AcDbLine
 10
36663.39729944523
 20
-19603.36960782662
 30
0.0
 11
36663.26619754547
 21
-19603.46864144106
 31
0.0
  0
LINE
  5
281
330
1F
100
AcDbEntity
  8
Calm 815
  6
Continuous
 62
    18
420
        0
 48
0.9999999962747097
370
    25
100
AcDbLine
 10
36663.26619754547
 20
-19603.46864144106
 30
0.0
 11
36663.12935368594
 21
-19603.56127519596
 31
0.0
  0
LINE
  5
282
330
1F
100
AcDbEntity
  8
Calm 815
  6
Continuous
 62
    18
420
        0
 48
0.9999999962747097
370
    25
100
AcDbLine
 10
36663.12935368594
 20
-19603.56127519596
 30
0.0
 11
36662.98725015803
 21
-19603.64703387947
 31
0.0
  0
LINE
  5
283
330
1F
100
AcDbEntity
  8
Calm 815
  6
Continuous
 62
    18
420
        0
 48
0.9999999962747097
370
    25
100
AcDbLine
 10
36662.98725015803
 20
-19603.64703387947
 30
0.0
 11
36662.8404207854
 21
-19603.72549133153
 31
0.0
  0
LINE
  5
284
330
1F
100
AcDbEntity
  8
Calm 815
  6
Continuous
 62
    18
420
        0
 48
0.9999999962747097
370
    25
100
AcDbLine
 10
36662.8404207854
 20
-19603.72549133153
 30
0.0
 11
36662.68944444213
 21
-19603.79627717494
 31
0.0
  0
LINE
  5
285
330
1F
100
AcDbEntity
  8
Calm 815
  6
Continuous
 62
    18
420
        0
 48
0.9999999962747097
370
    25
100
AcDbLine
 10
36662.68944444213
 20
-19603.79627717494
 30
0.0
 11
36662.53493753133
 21
-19603.85908250355
 31
0.0
  0
LINE
  5
286
330
1F
100
AcDbEntity
  8
Calm 815
  6
Continuous
 62
    18
420
        0
 48
0.9999999962747097
370
    25
100
AcDbLine
 10
36662.53493753133
 20
-19603.85908250355
 30
0.0
 11
36662.37754562624
 21
-19603.91366434748
 31
0.0
  0
LINE
  5
287
330
1F
100
AcDbEntity
  8
Calm 815
  6
Continuous
 62
    18
420
        0
 48
0.9999999962747097
370
    25
100
AcDbLine
 10
36662.37754562624
 20
-19603.91366434748
 30
0.0
 11
36662.21793451086
 21
-19603.95984878123
 31
0.0
  0
LINE
  5
288
330
1F
100
AcDbEntity
  8
Calm 815
  6
Continuous
 62
    18
420
        0
 48
0.9999999962747097
370
    25
100
AcDbLine
 10
36662.21793451086
 20
-19603.95984878123
 30
0.0
 11
36662.05678088016
 21
-19603.99753259188
 31
0.0
  0
LINE
  5
289
330
1F
100
AcDbEntity
  8
Calm 815
  6
Continuous
 62
    18
420
        0
 48
0.9999999962747097
370
    25
100
AcDbLine
 10
36662.05678088016
 20
-19603.99753259188
 30
0.0
 11
36661.89476296944
 21
-19604.02668348021
 31
0.0
  0
LINE
  5
28A
330
1F
100
AcDbEntity
  8
Calm 815
  6
Continuous
 62
    18
420
        0
 48
0.9999999962747097
370
    25
100
AcDbLine
 10
36661.89476296944
 20
-19604.02668348021
 30
0.0
 11
36661.73255137976
 21
-19604.04733882391
 31
0.0
  0
LINE
  5
28B
330
1F
100
AcDbEntity
  8
Calm 815
  6
Continuous
 62
    18
420
        0
 48
0.9999999962747097
370
    25
100
AcDbLine
 10
36661.73255137976
 20
-19604.04733882391
 30
0.0
 11
36661.5708003507
 21
-19604.05960308437
 31
0.0
  0
LINE
  5
28C
330
1F
100
AcDbEntity
  8
Calm 815
  6
Continuous
 62
    18
420
        0
 48
0.9999999962747097
370
    25
100
AcDbLine
 10
36661.5708003507
 20
-19604.05960308437
 30
0.0
 11
36661.41013970355
 21
-19604.06364398573
 31
0.0
  0
LINE
  5
28D
330
1F
100
AcDbEntity
  8
Calm 815
  6
Continuous
 62
    18
420
        0
 48
0.9999999962747097
370
    25
100
AcDbLine
 10
36602.53897082771
 20
-19582.9410112449
 30
0.0
 11
36593.84163747115
 21
-19582.17961269273
 31
0.0
  0
LINE
  5
28E
330
1F
100
AcDbEntity
  8
Calm 815
  6
Continuous
 62
    18
420
        0
 48
0.9999999962747097
370
    25
100
AcDbLine
 10
36593.84163747115
 20
-19582.17961269273
 30
0.0
 11
36589.51356170717
 21
-19581.6019915496
 31
0.0
  0
LINE
  5
28F
330
1F
100
AcDbEntity
  8
Calm 815
  6
Continuous
 62
    18
420
        0
 48
0.9999999962747097
370
    25
100
AcDbLine
 10
36589.51356170717
 20
-19581.6019915496
 30
0.0
 11
36587.35729915572
 21
-19581.26428396266
 31
0.0
  0
LINE
  5
290
330
1F
100
AcDbEntity
  8
Calm 815
  6
Continuous
 62
    18
420
        0
 48
0.9999999962747097
370
    25
100
AcDbLine
 10
36587.35729915572
 20
-19581.26428396266
 30
0.0
 11
36586.2814372654
 21
-19581.08326614061
 31
0.0
  0
LINE
  5
291
330
1F
100
AcDbEntity
  8
Calm 815
  6
Continuous
 62
    18
420
        0
 48
0.9999999962747097
370
    25
100
AcDbLine
 10
36586.2814372654
 20
-19581.08326614061
 30
0.0
 11
36585.74411411128
 21
-19580.989724897
 31
0.0
  0
LINE
  5
292
330
1F
100
AcDbEntity
  8
Calm 815
  6
Continuous
 62
    18
420
        0
 48
0.9999999962747097
370
    25
100
AcDbLine
 10
36585.74411411128
 20
-19580.989724897
 30
0.0
 11
36585.50583283915
 21
-19580.94865890729
 31
0.0
  0
LINE
  5
293
330
1F
100
AcDbEntity
  8
Calm 815
  6
Continuous
 62
    18
420
        0
 48
0.9999999962747097
370
    25
100
AcDbLine
 10
36585.50583283915
 20
-19580.94865890729
 30
0.0
 11
36585.41070993024
 21
-19580.93787401403
 31
0.0
  0
LINE
  5
294
330
1F
100
AcDbEntity
  8
Calm 815
  6
Continuous
 62
    18
420
        0
 48
0.9999999962747097
370
    25
100
AcDbLine
 10
36585.41070993024
 20
-19580.93787401403
 30
0.0
 11
36582.37788306261
 21
-19580.4978643316
 31
0.0
  0
LINE
  5
295
330
1F
100
AcDbEntity
  8
Calm 815
  6
Continuous
 62
    18
420
        0
 48
0.9999999962747097
370
    25
100
AcDbLine
 10
36582.37788306261
 20
-19580.4978643316
 30
0.0
 11
36580.8727719353
 21
-19580.20927637515
 31
0.0
  0
LINE
  5
296
330
1F
100
AcDbEntity
  8
Calm 815
  6
Continuous
 62
    18
420
        0
 48
0.9999999962747097
370
    25
100
AcDbLine
 10
36580.8727719353
 20
-19580.20927637515
 30
0.0
 11
36580.12395544992
 21
-19580.04800892072
 31
0.0
  0
LINE
  5
297
330
1F
100
AcDbEntity
  8
Calm 815
  6
Continuous
 62
    18
420
        0
 48
0.9999999962747097
370
    25
100
AcDbLine
 10
36580.12395544992
 20
-19580.04800892072
 30
0.0
 11
36579.75059474212
 21
-19579.9631597954
 31
0.0
  0
LINE
  5
298
330
1F
100
AcDbEntity
  8
Calm 815
  6
Continuous
 62
    18
420
        0
 48
0.9999999962747097
370
    25
100
AcDbLine
 10
36579.75059474212
 20
-19579.9631597954
 30
0.0
 11
36579.46626881439
 21
-19579.91269111713
 31
0.0
  0
LINE
  5
299
330
1F
100
AcDbEntity
  8
Calm 815
  6
Continuous
 62
    18
420
        0
 48
0.9999999962747097
370
    25
100
AcDbLine
 10
36579.46626881439
 20
-19579.91269111713
 30
0.0
 11
36579.07320120833
 21
-19579.84516768753
 31
0.0
  0
LINE
  5
29A
330
1F
100
AcDbEntity
  8
Calm 815
  6
Continuous
 62
    18
420
        0
 48
0.9999999962747097
370
    25
100
AcDbLine
 10
36579.07320120833
 20
-19579.84516768753
 30
0.0
 11
36578.28732005219
 21
-19579.70787506897
 31
0.0
  0
LINE
  5
29B
330
1F
100
AcDbEntity
  8
Calm 815
  6
Continuous
 62
    18
420
        0
 48
0.9999999962747097
370
    25
100
AcDbLine
 10
36578.28732005219
 20
-19579.70787506897
 30
0.0
 11
36572.01443124892
 21
-19578.50187096616
 31
0.0
  0
LINE
  5
29C
330
1F
100
AcDbEntity
  8
Calm 815
  6
Continuous
 62
    18
420
        0
 48
0.9999999962747097
370
    25
100
AcDbLine
 10
36572.01443124892
 20
-19578.50187096616
 30
0.0
 11
36565.77296199844
 21
-19577.10509701309
 31
0.0
  0
LINE
  5
29D
330
1F
100
AcDbEntity
  8
Calm 815
  6
Continuous
 62
    18
420
        0
 48
0.9999999962747097
370
    25
100
AcDbLine
 10
36565.77296199844
 20
-19577.10509701309
 30
0.0
 11
36559.57169239613
 21
-19575.51886197491
 31
0.0
  0
LINE
  5
29E
330
1F
100
AcDbEntity
  8
Calm 815
  6
Continuous
 62
    18
420
        0
 48
0.9999999962747097
370
    25
100
AcDbLine
 10
36559.57169239613
 20
-19575.51886197491
 30
0.0
 11
36553.41932146104
 21
-19573.74500600337
 31
0.0
  0
LINE
  5
29F
330
1F
100
AcDbEntity
  8
Calm 815
  6
Continuous
 62
    18
420
        0
 48
0.9999999962747097
370
    25
100
AcDbLine
 10
36553.41932146104
 20
-19573.74500600337
 30
0.0
 11
36547.32442657319
 21
-19571.78589381794
 31
0.0
  0
LINE
  5
2A0
330
1F
100
AcDbEntity
  8
Calm 815
  6
Continuous
 62
    18
420
        0
 48
0.9999999962747097
370
    25
100
AcDbLine
 10
36547.32442657319
 20
-19571.78589381794
 30
0.0
 11
36541.29542365577
 21
-19569.64440422739
 31
0.0
  0
LINE
  5
2A1
330
1F
100
AcDbEntity
  8
Calm 815
  6
Continuous
 62
    18
420
        0
 48
0.9999999962747097
370
    25
100
AcDbLine
 10
36541.29542365577
 20
-19569.64440422739
 30
0.0
 11
36535.34052848965
 21
-19567.32391608911
 31
0.0
  0
LINE
  5
2A2
330
1F
100
AcDbEntity
  8
Calm 815
  6
Continuous
 62
    18
420
        0
 48
0.9999999962747097
370
    25
100
AcDbLine
 10
36535.34052848965
 20
-19567.32391608911
 30
0.0
 11
36529.46771953323
 21
-19564.82829084922
 31
0.0
  0
LINE
  5
2A3
330
1F
100
AcDbEntity
  8
Calm 815
  6
Continuous
 62
    18
420
        0
 48
0.9999999962747097
370
    25
100
AcDbLine
 10
36653.84547710924
 20
-19584.78481980357
 30
0.0
 11
36653.62476079736
 21
-19584.58508448186
 31
0.0
  0
LINE
  5
2A4
330
1F
100
AcDbEntity
  8
Calm 815
  6
Continuous
 62
    18
420
        0
 48
0.9999999962747097
370
    25
100
AcDbLine
 10
36653.62476079736
 20
-19584.58508448186
 30
0.0
 11
36653.38286478817
 21
-19584.40458708865
 31
0.0
  0
LINE
  5
2A5
330
1F
100
AcDbEntity
  8
Calm 815
  6
Continuous
 62
    18
420
        0
 48
0.9999999962747097
370
    25
100
AcDbLine
 10
36653.38286478817
 20
-19584.40458708865
 30
0.0
 11
36653.12245037708
 21
-19584.24649336949
 31
0.0
  0
LINE
  5
2A6
330
1F
100
AcDbEntity
  8
Calm 815
  6
Continuous
 62
    18
420
        0
 48
0.9999999962747097
370
    25
100
AcDbLine
 10
36653.12245037708
 20
-19584.24649336949
 30
0.0
 11
36652.84679143824
 21
-19584.11345570585
 31
0.0
  0
LINE
  5
2A7
330
1F
100
AcDbEntity
  8
Calm 815
  6
Continuous
 62
    18
420
        0
 48
0.9999999962747097
370
    25
100
AcDbLine
 10
36652.84679143824
 20
-19584.11345570585
 30
0.0
 11
36652.55964243035
 21
-19584.00747301625
 31
0.0
  0
LINE
  5
2A8
330
1F
100
AcDbEntity
  8
Calm 815
  6
Continuous
 62
    18
420
        0
 48
0.9999999962747097
370
    25
100
AcDbLine
 10
36652.55964243035
 20
-19584.00747301625
 30
0.0
 11
36652.26506981524
 21
-19583.92979232412
 31
0.0
  0
LINE
  5
2A9
330
1F
100
AcDbEntity
  8
Calm 815
  6
Continuous
 62
    18
420
        0
 48
0.9999999962747097
370
    25
100
AcDbLine
 10
36652.26506981524
 20
-19583.92979232412
 30
0.0
 11
36651.96726254281
 21
-19583.88086196418
 31
0.0
  0
LINE
  5
2AA
330
1F
100
AcDbEntity
  8
Calm 815
  6
Continuous
 62
    18
420
        0
 48
0.9999999962747097
370
    25
100
AcDbLine
 10
36651.96726254281
 20
-19583.88086196418
 30
0.0
 11
36651.81844090663
 21
-19583.86710082121
 31
0.0
  0
LINE
  5
2AB
330
1F
100
AcDbEntity
  8
Calm 815
  6
Continuous
 62
    18
420
        0
 48
0.9999999962747097
370
    25
100
AcDbLine
 10
36651.81844090663
 20
-19583.86710082121
 30
0.0
 11
36651.74427008121
 21
-19583.86285413148
 31
0.0
  0
LINE
  5
2AC
330
1F
100
AcDbEntity
  8
Calm 815
  6
Continuous
 62
    18
420
        0
 48
0.9999999962747097
370
    25
100
AcDbLine
 10
36651.74427008121
 20
-19583.86285413148
 30
0.0
 11
36651.72576264753
 21
-19583.86206392499
 31
0.0
  0
LINE
  5
2AD
330
1F
100
AcDbEntity
  8
Calm 815
  6
Continuous
 62
    18
420
        0
 48
0.9999999962747097
370
    25
100
AcDbLine
 10
36651.72576264753
 20
-19583.86206392499
 30
0.0
 11
36651.72345032221
 21
-19583.86197274795
 31
0.0
  0
LINE
  5
2AE
330
1F
100
AcDbEntity
  8
Calm 815
  6
Continuous
 62
    18
420
        0
 48
0.9999999962747097
370
    25
100
AcDbLine
 10
36651.72345032221
 20
-19583.86197274795
 30
0.0
 11
36651.72229425369
 21
-19583.86192779192
 31
0.0
  0
LINE
  5
2AF
330
1F
100
AcDbEntity
  8
Calm 815
  6
Continuous
 62
    18
420
        0
 48
0.9999999962747097
370
    25
100
AcDbLine
 10
36651.72229425369
 20
-19583.86192779192
 30
0.0
 11
36651.72171624306
 21
-19583.86190547199
 31
0.0
  0
LINE
  5
2B0
330
1F
100
AcDbEntity
  8
Calm 815
  6
Continuous
 62
    18
420
        0
 48
0.9999999962747097
370
    25
100
AcDbLine
 10
36651.72171624306
 20
-19583.86190547199
 30
0.0
 11
36651.72142724367
 21
-19583.86189435155
 31
0.0
  0
LINE
  5
2B1
330
1F
100
AcDbEntity
  8
Calm 815
  6
Continuous
 62
    18
420
        0
 48
0.9999999962747097
370
    25
100
AcDbLine
 10
36651.72142724367
 20
-19583.86189435155
 30
0.0
 11
36651.7176391656
 21
-19583.86174890129
 31
0.0
  0
LINE
  5
2B2
330
1F
100
AcDbEntity
  8
Calm 815
  6
Continuous
 62
    18
420
        0
 48
0.9999999962747097
370
    25
100
AcDbLine
 10
36651.7176391656
 20
-19583.86174890129
 30
0.0
 11
36651.68537830083
 21
-19583.86050937171
 31
0.0
  0
LINE
  5
2B3
330
1F
100
AcDbEntity
  8
Calm 815
  6
Continuous
 62
    18
420
        0
 48
0.9999999962747097
370
    25
100
AcDbLine
 10
36651.68537830083
 20
-19583.86050937171
 30
0.0
 11
36650.65305663426
 21
-19583.82005531865
 31
0.0
  0
LINE
  5
2B4
330
1F
100
AcDbEntity
  8
Calm 815
  6
Continuous
 62
    18
420
        0
 48
0.9999999962747097
370
    25
100
AcDbLine
 10
36650.65305663426
 20
-19583.82005531865
 30
0.0
 11
36648.58857504412
 21
-19583.73455634142
 31
0.0
  0
LINE
  5
2B5
330
1F
100
AcDbEntity
  8
Calm 815
  6
Continuous
 62
    18
420
        0
 48
0.9999999962747097
370
    25
100
AcDbLine
 10
36648.58857504412
 20
-19583.73455634142
 30
0.0
 11
36640.33331001923
 21
-19583.33136719656
 31
0.0
  0
LINE
  5
2B6
330
1F
100
AcDbEntity
  8
Calm 815
  6
Continuous
 62
    18
420
        0
 48
0.9999999962747097
370
    25
100
AcDbLine
 10
36640.33331001923
 20
-19583.33136719656
 30
0.0
 11
36636.09701377904
 21
-19583.30617753607
 31
0.0
  0
LINE
  5
2B7
330
1F
100
AcDbEntity
  8
Calm 815
  6
Continuous
 62
    18
420
        0
 48
0.9999999962747097
370
    25
100
AcDbLine
 10
36636.09701377904
 20
-19583.30617753607
 30
0.0
 11
36632.11060473164
 21
-19583.28109347795
 31
0.0
  0
LINE
  5
2B8
330
1F
100
AcDbEntity
  8
Calm 815
  6
Continuous
 62
    18
420
        0
 48
0.9999999962747097
370
    25
100
AcDbLine
 10
36632.11060473164
 20
-19583.28109347795
 30
0.0
 11
36628.3740834109
 21
-19583.25611503211
 31
0.0
  0
LINE
  5
2B9
330
1F
100
AcDbEntity
  8
Calm 815
  6
Continuous
 62
    18
420
        0
 48
0.9999999962747097
370
    25
100
AcDbLine
 10
36628.3740834109
 20
-19583.25611503211
 30
0.0
 11
36624.88745014407
 21
-19583.23124220837
 31
0.0
  0
LINE
  5
2BA
330
1F
100
AcDbEntity
  8
Calm 815
  6
Continuous
 62
    18
420
        0
 48
0.9999999962747097
370
    25
100
AcDbLine
 10
36624.88745014407
 20
-19583.23124220837
 30
0.0
 11
36621.65070505167
 21
-19583.20647501645
 31
0.0
  0
LINE
  5
2BB
330
1F
100
AcDbEntity
  8
Calm 815
  6
Continuous
 62
    18
420
        0
 48
0.9999999962747097
370
    25
100
AcDbLine
 10
36621.65070505167
 20
-19583.20647501645
 30
0.0
 11
36618.66384804764
 21
-19583.18181346598
 31
0.0
  0
LINE
  5
2BC
330
1F
100
AcDbEntity
  8
Calm 815
  6
Continuous
 62
    18
420
        0
 48
0.9999999962747097
370
    25
100
AcDbLine
 10
36618.66384804764
 20
-19583.18181346598
 30
0.0
 11
36615.92687883924
 21
-19583.15725756653
 31
0.0
  0
LINE
  5
2BD
330
1F
100
AcDbEntity
  8
Calm 815
  6
Continuous
 62
    18
420
        0
 48
0.9999999962747097
370
    25
100
AcDbLine
 10
36615.92687883924
 20
-19583.15725756653
 30
0.0
 11
36613.43979692706
 21
-19583.13280732755
 31
0.0
  0
LINE
  5
2BE
330
1F
100
AcDbEntity
  8
Calm 815
  6
Continuous
 62
    18
420
        0
 48
0.9999999962747097
370
    25
100
AcDbLine
 10
36613.43979692706
 20
-19583.13280732755
 30
0.0
 11
36611.20260160509
 21
-19583.10846275843
 31
0.0
  0
LINE
  5
2BF
330
1F
100
AcDbEntity
  8
Calm 815
  6
Continuous
 62
    18
420
        0
 48
0.9999999962747097
370
    25
100
AcDbLine
 10
36611.20260160509
 20
-19583.10846275843
 30
0.0
 11
36609.21529196065
 21
-19583.08422386844
 31
0.0
  0
LINE
  5
2C0
330
1F
100
AcDbEntity
  8
Calm 815
  6
Continuous
 62
    18
420
        0
 48
0.9999999962747097
370
    25
100
AcDbLine
 10
36609.21529196065
 20
-19583.08422386844
 30
0.0
 11
36607.47786687444
 21
-19583.06009066679
 31
0.0
  0
LINE
  5
2C1
330
1F
100
AcDbEntity
  8
Calm 815
  6
Continuous
 62
    18
420
        0
 48
0.9999999962747097
370
    25
100
AcDbLine
 10
36607.47786687444
 20
-19583.06009066679
 30
0.0
 11
36605.9903250205
 21
-19583.03606316259
 31
0.0
  0
LINE
  5
2C2
330
1F
100
AcDbEntity
  8
Calm 815
  6
Continuous
 62
    18
420
        0
 48
0.9999999962747097
370
    25
100
AcDbLine
 10
36605.9903250205
 20
-19583.03606316259
 30
0.0
 11
36604.75266486626
 21
-19583.01214136488
 31
0.0
  0
LINE
  5
2C3
330
1F
100
AcDbEntity
  8
Calm 815
  6
Continuous
 62
    18
420
        0
 48
0.9999999962747097
370
    25
100
AcDbLine
 10
36604.75266486626
 20
-19583.01214136488
 30
0.0
 11
36603.76488467254
 21
-19582.98832528259
 31
0.0
  0
LINE
  5
2C4
330
1F
100
AcDbEntity
  8
Calm 815
  6
Continuous
 62
    18
420
        0
 48
0.9999999962747097
370
    25
100
AcDbLine
 10
36603.76488467254
 20
-19582.98832528259
 30
0.0
 11
36603.02698249349
 21
-19582.96461492457
 31
0.0
  0
LINE
  5
2C5
330
1F
100
AcDbEntity
  8
Calm 815
  6
Continuous
 62
    18
420
        0
 48
0.9999999962747097
370
    25
100
AcDbLine
 10
36603.02698249349
 20
-19582.96461492457
 30
0.0
 11
36602.53895617672
 21
-19582.94101029959
 31
0.0
  0
LINE
  5
2C6
330
1F
100
AcDbEntity
  8
Calm 815
  6
Continuous
 62
    18
420
        0
 48
0.9999999962747097
370
    25
100
AcDbLine
 10
36529.07376841228
 20
-19576.5439240777
 30
0.0
 11
36539.79919707093
 21
-19580.88778715553
 31
0.0
  0
LINE
  5
2C7
330
1F
100
AcDbEntity
  8
Calm 815
  6
Continuous
 62
    18
420
        0
 48
0.9999999962747097
370
    25
100
AcDbLine
 10
36539.79919707093
 20
-19580.88778715553
 30
0.0
 11
36550.74868287209
 21
-19584.70918611134
 31
0.0
  0
LINE
  5
2C8
330
1F
100
AcDbEntity
  8
Calm 815
  6
Continuous
 62
    18
420
        0
 48
0.9999999962747097
370
    25
100
AcDbLine
 10
36550.74868287209
 20
-19584.70918611134
 30
0.0
 11
36561.88320142096
 21
-19587.99196453881
 31
0.0
  0
LINE
  5
2C9
330
1F
100
AcDbEntity
  8
Calm 815
  6
Continuous
 62
    18
420
        0
 48
0.9999999962747097
370
    25
100
AcDbLine
 10
36561.88320142096
 20
-19587.99196453881
 30
0.0
 11
36573.1622541461
 21
-19590.72384282066
 31
0.0
  0
LINE
  5
2CA
330
1F
100
AcDbEntity
  8
Calm 815
  6
Continuous
 62
    18
420
        0
 48
0.9999999962747097
370
    25
100
AcDbLine
 10
36573.1622541461
 20
-19590.72384282066
 30
0.0
 11
36584.5443580859
 21
-19592.89657075211
 31
0.0
  0
LINE
  5
2CB
330
1F
100
AcDbEntity
  8
Calm 815
  6
Continuous
 62
    18
420
        0
 48
0.9999999962747097
370
    25
100
AcDbLine
 10
36584.5443580859
 20
-19592.89657075211
 30
0.0
 11
36587.40107172504
 21
-19593.35180949907
 31
0.0
  0
LINE
  5
2CC
330
1F
100
AcDbEntity
  8
Calm 815
  6
Continuous
 62
    18
420
        0
 48
0.9999999962747097
370
    25
100
AcDbLine
 10
36587.40107172504
 20
-19593.35180949907
 30
0.0
 11
36589.94434842799
 21
-19593.73030874273
 31
0.0
  0
LINE
  5
2CD
330
1F
100
AcDbEntity
  8
Calm 815
  6
Continuous
 62
    18
420
        0
 48
0.9999999962747097
370
    25
100
AcDbLine
 10
36589.94434842799
 20
-19593.73030874273
 30
0.0
 11
36592.80381068125
 21
-19594.06689782533
 31
0.0
  0
LINE
  5
2CE
330
1F
100
AcDbEntity
  8
Calm 815
  6
Continuous
 62
    18
420
        0
 48
0.9999999962747097
370
    25
100
AcDbLine
 10
36592.80381068125
 20
-19594.06689782533
 30
0.0
 11
36596.14969232376
 21
-19594.37682927414
 31
0.0
  0
LINE
  5
2CF
330
1F
100
AcDbEntity
  8
Calm 815
  6
Continuous
 62
    18
420
        0
 48
0.9999999962747097
370
    25
100
AcDbLine
 10
36596.14969232376
 20
-19594.37682927414
 30
0.0
 11
36599.98159244267
 21
-19594.66001275321
 31
0.0
  0
LINE
  5
2D0
330
1F
100
AcDbEntity
  8
Calm 815
  6
Continuous
 62
    18
420
        0
 48
0.9999999962747097
370
    25
100
AcDbLine
 10
36599.98159244267
 20
-19594.66001275321
 30
0.0
 11
36604.29888846805
 21
-19594.91637003128
 31
0.0
  0
LINE
  5
2D1
330
1F
100
AcDbEntity
  8
Calm 815
  6
Continuous
 62
    18
420
        0
 48
0.9999999962747097
370
    25
100
AcDbLine
 10
36604.29888846805
 20
-19594.91637003128
 30
0.0
 11
36609.10073645551
 21
-19595.14583505164
 31
0.0
  0
LINE
  5
2D2
330
1F
100
AcDbEntity
  8
Calm 815
  6
Continuous
 62
    18
420
        0
 48
0.9999999962747097
370
    25
100
AcDbLine
 10
36609.10073645551
 20
-19595.14583505164
 30
0.0
 11
36614.38607162089
 21
-19595.34835398801
 31
0.0
  0
LINE
  5
2D3
330
1F
100
AcDbEntity
  8
Calm 815
  6
Continuous
 62
    18
420
        0
 48
0.9999999962747097
370
    25
100
AcDbLine
 10
36614.38607162089
 20
-19595.34835398801
 30
0.0
 11
36620.1536091267
 21
-19595.5238852866
 31
0.0
  0
LINE
  5
2D4
330
1F
100
AcDbEntity
  8
Calm 815
  6
Continuous
 62
    18
420
        0
 48
0.9999999962747097
370
    25
100
AcDbLine
 10
36620.1536091267
 20
-19595.5238852866
 30
0.0
 11
36626.40184511874
 21
-19595.67239969417
 31
0.0
  0
LINE
  5
2D5
330
1F
100
AcDbEntity
  8
Calm 815
  6
Continuous
 62
    18
420
        0
 48
0.9999999962747097
370
    25
100
AcDbLine
 10
36626.40184511874
 20
-19595.67239969417
 30
0.0
 11
36633.1290580114
 21
-19595.7938802721
 31
0.0
  0
LINE
  5
2D6
330
1F
100
AcDbEntity
  8
Calm 815
  6
Continuous
 62
    18
420
        0
 48
0.9999999962747097
370
    25
100
AcDbLine
 10
36633.1290580114
 20
-19595.7938802721
 30
0.0
 11
36640.33331001923
 21
-19595.88832239645
 31
0.0
  0
LINE
  5
2D7
330
1F
100
AcDbEntity
  8
Calm 815
  6
Continuous
 62
    18
420
        0
 48
0.9999999962747097
370
    25
100
AcDbLine
 10
36640.33331001923
 20
-19595.88832239645
 30
0.0
 11
36641.3776099009
 21
-19596.06435436401
 31
0.0
  0
LINE
  5
2D8
330
1F
100
AcDbEntity
  8
Calm 815
  6
Continuous
 62
    18
420
        0
 48
0.9999999962747097
370
    25
100
AcDbLine
 10
36641.3776099009
 20
-19596.06435436401
 30
0.0
 11
36642.4164226576
 21
-19596.38750402579
 31
0.0
  0
LINE
  5
2D9
330
1F
100
AcDbEntity
  8
Calm 815
  6
Continuous
 62
    18
420
        0
 48
0.9999999962747097
370
    25
100
AcDbLine
 10
36642.4164226576
 20
-19596.38750402579
 30
0.0
 11
36643.4184977299
 21
-19596.85851690083
 31
0.0
  0
LINE
  5
2DA
330
1F
100
AcDbEntity
  8
Calm 815
  6
Continuous
 62
    18
420
        0
 48
0.9999999962747097
370
    25
100
AcDbLine
 10
36643.4184977299
 20
-19596.85851690083
 30
0.0
 11
36644.35245568681
 21
-19597.4693753251
 31
0.0
  0
LINE
  5
2DB
330
1F
100
AcDbEntity
  8
Calm 815
  6
Continuous
 62
    18
420
        0
 48
0.9999999962747097
370
    25
100
AcDbLine
 10
36644.35245568681
 20
-19597.4693753251
 30
0.0
 11
36645.18987912762
 21
-19598.20349873525
 31
0.0
  0
LINE
  5
2DC
330
1F
100
AcDbEntity
  8
Calm 815
  6
Continuous
 62
    18
420
        0
 48
0.9999999962747097
370
    25
100
AcDbLine
 10
36645.18987912762
 20
-19598.20349873525
 30
0.0
 11
36645.90812799466
 21
-19599.03720268359
 31
0.0
  0
LINE
  5
2DD
330
1F
100
AcDbEntity
  8
Calm 815
  6
Continuous
 62
    18
420
        0
 48
0.9999999962747097
370
    25
100
AcDbLine
 10
36645.90812799466
 20
-19599.03720268359
 30
0.0
 11
36646.49231220503
 21
-19599.94215683009
 31
0.0
  0
LINE
  5
2DE
330
1F
100
AcDbEntity
  8
Calm 815
  6
Continuous
 62
    18
420
        0
 48
0.9999999962747097
370
    25
100
AcDbLine
 10
36646.49231220503
 20
-19599.94215683009
 30
0.0
 11
36646.93607623369
 21
-19600.88832838861
 31
0.0
  0
LINE
  5
2DF
330
1F
100
AcDbEntity
  8
Calm 815
  6
Continuous
 62
    18
420
        0
 48
0.9999999962747097
370
    25
100
AcDbLine
 10
36646.93607623369
 20
-19600.88832838861
 30
0.0
 11
36647.02512033023
 21
-19601.12786461419
 31
0.0
  0
LINE
  5
2E0
330
1F
100
AcDbEntity
  8
Calm 815
  6
Continuous
 62
    18
420
        0
 48
0.9999999962747097
370
    25
100
AcDbLine
 10
36647.02512033023
 20
-19601.12786461419
 30
0.0
 11
36647.04816028338
 21
-19601.19392168789
 31
0.0
  0
LINE
  5
2E1
330
1F
100
AcDbEntity
  8
Calm 815
  6
Continuous
 62
    18
420
        0
 48
0.9999999962747097
370
    25
100
AcDbLine
 10
36647.04816028338
 20
-19601.19392168789
 30
0.0
 11
36647.05920255621
 21
-19601.22580954849
 31
0.0
  0
LINE
  5
2E2
330
1F
100
AcDbEntity
  8
Calm 815
  6
Continuous
 62
    18
420
        0
 48
0.9999999962747097
370
    25
100
AcDbLine
 10
36647.05920255621
 20
-19601.22580954849
 30
0.0
 11
36647.10337212445
 21
-19601.35336051078
 31
0.0
  0
LINE
  5
2E3
330
1F
100
AcDbEntity
  8
Calm 815
  6
Continuous
 62
    18
420
        0
 48
0.9999999962747097
370
    25
100
AcDbLine
 10
36647.10337212445
 20
-19601.35336051078
 30
0.0
 11
36647.19171354978
 21
-19601.60846013085
 31
0.0
  0
LINE
  5
2E4
330
1F
100
AcDbEntity
  8
Calm 815
  6
Continuous
 62
    18
420
        0
 48
0.9999999962747097
370
    25
100
AcDbLine
 10
36647.19171354978
 20
-19601.60846013085
 30
0.0
 11
36647.36840555599
 21
-19602.11865015296
 31
0.0
  0
LINE
  5
2E5
330
1F
100
AcDbEntity
  8
Calm 815
  6
Continuous
 62
    18
420
        0
 48
0.9999999962747097
370
    25
100
AcDbLine
 10
36647.36840555599
 20
-19602.11865015296
 30
0.0
 11
36647.71426299456
 21
-19603.1114467483
 31
0.0
  0
LINE
  5
2E6
330
1F
100
AcDbEntity
  8
Calm 815
  6
Continuous
 62
    18
420
        0
 48
0.9999999962747097
370
    25
100
AcDbLine
 10
36647.71426299456
 20
-19603.1114467483
 30
0.0
 11
36647.91577144373
 21
-19603.4649551796
 31
0.0
  0
LINE
  5
2E7
330
1F
100
AcDbEntity
  8
Calm 815
  6
Continuous
 62
    18
420
        0
 48
0.9999999962747097
370
    25
100
AcDbLine
 10
36647.91577144373
 20
-19603.4649551796
 30
0.0
 11
36648.21828060409
 21
-19603.76293609252
 31
0.0
  0
LINE
  5
2E8
330
1F
100
AcDbEntity
  8
Calm 815
  6
Continuous
 62
    18
420
        0
 48
0.9999999962747097
370
    25
100
AcDbLine
 10
36648.21828060409
 20
-19603.76293609252
 30
0.0
 11
36648.59303152809
 21
-19603.96658218552
 31
0.0
  0
LINE
  5
2E9
330
1F
100
AcDbEntity
  8
Calm 815
  6
Continuous
 62
    18
420
        0
 48
0.9999999962747097
370
    25
100
AcDbLine
 10
36648.59303152809
 20
-19603.96658218552
 30
0.0
 11
36648.99484944713
 21
-19604.05767570724
 31
0.0
  0
LINE
  5
2EA
330
1F
100
AcDbEntity
  8
Calm 815
  6
Continuous
 62
    18
420
        0
 48
0.9999999962747097
370
    25
100
AcDbLine
 10
36648.99484944713
 20
-19604.05767570724
 30
0.0
 11
36649.09402079125
 21
-19604.06321031395
 31
0.0
  0
LINE
  5
2EB
330
1F
100
AcDbEntity
  8
Calm 815
  6
Continuous
 62
    18
420
        0
 48
0.9999999962747097
370
    25
100
AcDbLine
 10
36649.09402079125
 20
-19604.06321031395
 30
0.0
 11
36649.11855510068
 21
-19604.06358735383
 31
0.0
  0
LINE
  5
2EC
330
1F
100
AcDbEntity
  8
Calm 815
  6
Continuous
 62
    18
420
        0
 48
0.9999999962747097
370
    25
100
AcDbLine
 10
36649.11855510068
 20
-19604.06358735383
 30
0.0
 11
36649.13761150054
 21
-19604.06362898578
 31
0.0
  0
LINE
  5
2ED
330
1F
100
AcDbEntity
  8
Calm 815
  6
Continuous
 62
    18
420
        0
 48
0.9999999962747097
370
    25
100
AcDbLine
 10
36649.13761150054
 20
-19604.06362898578
 30
0.0
 11
36649.2425048751
 21
-19604.06362898704
 31
0.0
  0
LINE
  5
2EE
330
1F
100
AcDbEntity
  8
Calm 815
  6
Continuous
 62
    18
420
        0
 48
0.9999999962747097
370
    25
100
AcDbLine
 10
36649.2425048751
 20
-19604.06362898704
 30
0.0
 11
36649.66207837837
 21
-19604.06362901395
 31
0.0
  0
LINE
  5
2EF
330
1F
100
AcDbEntity
  8
Calm 815
  6
Continuous
 62
    18
420
        0
 48
0.9999999962747097
370
    25
100
AcDbLine
 10
36649.66207837837
 20
-19604.06362901395
 30
0.0
 11
36651.34037247106
 21
-19604.0636294718
 31
0.0
  0
LINE
  5
2F0
330
1F
100
AcDbEntity
  8
Calm 815
  6
Continuous
 62
    18
420
        0
 48
0.9999999962747097
370
    25
100
AcDbLine
 10
36651.34037247106
 20
-19604.0636294718
 30
0.0
 11
36654.69696103878
 21
-19604.06363206847
 31
0.0
  0
LINE
  5
2F1
330
1F
100
AcDbEntity
  8
Calm 815
  6
Continuous
 62
    18
420
        0
 48
0.9999999962747097
370
    25
100
AcDbLine
 10
36654.69696103878
 20
-19604.06363206847
 30
0.0
 11
36661.41013970355
 21
-19604.06364398573
 31
0.0
  0
LINE
  5
2F2
330
1F
100
AcDbEntity
  8
Calm 815
  6
Continuous
 62
    18
420
        0
 48
0.9999999962747097
370
    25
100
AcDbLine
 10
36663.26131083117
 20
-19594.14635661201
 30
0.0
 11
36663.48419224793
 21
-19594.39250570761
 31
0.0
  0
LINE
  5
2F3
330
1F
100
AcDbEntity
  8
Calm 815
  6
Continuous
 62
    18
420
        0
 48
0.9999999962747097
370
    25
100
AcDbLine
 10
36663.48419224793
 20
-19594.39250570761
 30
0.0
 11
36663.68229175099
 21
-19594.66412834858
 31
0.0
  0
LINE
  5
2F4
330
1F
100
AcDbEntity
  8
Calm 815
  6
Continuous
 62
    18
420
        0
 48
0.9999999962747097
370
    25
100
AcDbLine
 10
36663.68229175099
 20
-19594.66412834858
 30
0.0
 11
36663.85142604586
 21
-19594.95732515179
 31
0.0
  0
LINE
  5
2F5
330
1F
100
AcDbEntity
  8
Calm 815
  6
Continuous
 62
    18
420
        0
 48
0.9999999962747097
370
    25
100
AcDbLine
 10
36663.85142604586
 20
-19594.95732515179
 30
0.0
 11
36663.98828606825
 21
-19595.26733758569
 31
0.0
  0
LINE
  5
2F6
330
1F
100
AcDbEntity
  8
Calm 815
  6
Continuous
 62
    18
420
        0
 48
0.9999999962747097
370
    25
100
AcDbLine
 10
36663.98828606825
 20
-19595.26733758569
 30
0.0
 11
36664.09064545535
 21
-19595.58880004629
 31
0.0
  0
LINE
  5
2F7
330
1F
100
AcDbEntity
  8
Calm 815
  6
Continuous
 62
    18
420
        0
 48
0.9999999962747097
370
    25
100
AcDbLine
 10
36664.09064545535
 20
-19595.58880004629
 30
0.0
 11
36664.15747957442
 21
-19595.91604570594
 31
0.0
  0
LINE
  5
2F8
330
1F
100
AcDbEntity
  8
Calm 815
  6
Continuous
 62
    18
420
        0
 48
0.9999999962747097
370
    25
100
AcDbLine
 10
36664.15747957442
 20
-19595.91604570594
 30
0.0
 11
36664.17758921914
 21
-19596.080063885
 31
0.0
  0
LINE
  5
2F9
330
1F
100
AcDbEntity
  8
Calm 815
  6
Continuous
 62
    18
420
        0
 48
0.9999999962747097
370
    25
100
AcDbLine
 10
36664.17758921914
 20
-19596.080063885
 30
0.0
 11
36664.18187188634
 21
-19596.12774627477
 31
0.0
  0
LINE
  5
2FA
330
1F
100
AcDbEntity
  8
Calm 815
  6
Continuous
 62
    18
420
        0
 48
0.9999999962747097
370
    25
100
AcDbLine
 10
36664.18187188634
 20
-19596.12774627477
 30
0.0
 11
36664.18712209583
 21
-19596.18778863749
 31
0.0
  0
LINE
  5
2FB
330
1F
100
AcDbEntity
  8
Calm 815
  6
Continuous
 62
    18
420
        0
 48
0.9999999962747097
370
    25
100
AcDbLine
 10
36664.18712209583
 20
-19596.18778863749
 30
0.0
 11
36664.19762251403
 21
-19596.30787335445
 31
0.0
  0
LINE
  5
2FC
330
1F
100
AcDbEntity
  8
Calm 815
  6
Continuous
 62
    18
420
        0
 48
0.9999999962747097
370
    25
100
AcDbLine
 10
36664.19762251403
 20
-19596.30787335445
 30
0.0
 11
36664.23962417694
 21
-19596.78821210912
 31
0.0
  0
LINE
  5
2FD
330
1F
100
AcDbEntity
  8
Calm 815
  6
Continuous
 62
    18
420
        0
 48
0.9999999962747097
370
    25
100
AcDbLine
 10
36664.23962417694
 20
-19596.78821210912
 30
0.0
 11
36664.57563691038
 21
-19600.63091562948
 31
0.0
  0
LINE
  5
2FE
330
1F
100
AcDbEntity
  8
Calm 815
  6
Continuous
 62
    18
420
        0
 48
0.9999999962747097
370
    25
100
AcDbLine
 10
36437.5333996337
 20
-19481.51035621139
 30
0.0
 11
36439.48478842662
 21
-19485.73778665965
 31
0.0
  0
LINE
  5
2FF
330
1F
100
AcDbEntity
  8
Calm 815
  6
Continuous
 62
    18
420
        0
 48
0.9999999962747097
370
    25
100
AcDbLine
 10
36439.48478842662
 20
-19485.73778665965
 30
0.0
 11
36441.58361585822
 21
-19489.90391385744
 31
0.0
  0
LINE
  5
300
330
1F
100
AcDbEntity
  8
Calm 815
  6
Continuous
 62
    18
420
        0
 48
0.9999999962747097
370
    25
100
AcDbLine
 10
36441.58361585822
 20
-19489.90391385744
 30
0.0
 11
36443.82685076279
 21
-19494.00117073767
 31
0.0
  0
LINE
  5
301
330
1F
100
AcDbEntity
  8
Calm 815
  6
Continuous
 62
    18
420
        0
 48
0.9999999962747097
370
    25
100
AcDbLine
 10
36443.82685076279
 20
-19494.00117073767
 30
0.0
 11
36446.21094169136
 21
-19498.02219624814
 31
0.0
  0
LINE
  5
302
330
1F
100
AcDbEntity
  8
Calm 815
  6
Continuous
 62
    18
420
        0
 48
0.9999999962747097
370
    25
100
AcDbLine
 10
36446.21094169136
 20
-19498.02219624814
 30
0.0
 11
36448.73183537218
 21
-19501.95987923959
 31
0.0
  0
LINE
  5
303
330
1F
100
AcDbEntity
  8
Calm 815
  6
Continuous
 62
    18
420
        0
 48
0.9999999962747097
370
    25
100
AcDbLine
 10
36448.73183537218
 20
-19501.95987923959
 30
0.0
 11
36451.38499962757
 21
-19505.80740032025
 31
0.0
  0
LINE
  5
304
330
1F
100
AcDbEntity
  8
Calm 815
  6
Continuous
 62
    18
420
        0
 48
0.9999999962747097
370
    25
100
AcDbLine
 10
36451.38499962757
 20
-19505.80740032025
 30
0.0
 11
36454.16545047594
 21
-19509.55827116068
 31
0.0
  0
LINE
  5
305
330
1F
100
AcDbEntity
  8
Calm 815
  6
Continuous
 62
    18
420
        0
 48
0.9999999962747097
370
    25
100
AcDbLine
 10
36454.16545047594
 20
-19509.55827116068
 30
0.0
 11
36457.0677830796
 21
-19513.20637077438
 31
0.0
  0
LINE
  5
306
330
1F
100
AcDbEntity
  8
Calm 815
  6
Continuous
 62
    18
420
        0
 48
0.9999999962747097
370
    25
100
AcDbLine
 10
36457.0677830796
 20
-19513.20637077438
 30
0.0
 11
36454.16545047594
 21
-19509.55827116068
 31
0.0
  0
LINE
  5
307
330
1F
100
AcDbEntity
  8
Calm 815
  6
Continuous
 62
    18
420
        0
 48
0.9999999962747097
370
    25
100
AcDbLine
 10
36454.16545047594
 20
-19509.55827116068
 30
0.0
 11
36451.38499962757
 21
-19505.80740032025
 31
0.0
  0
LINE
  5
308
330
1F
100
AcDbEntity
  8
Calm 815
  6
Continuous
 62
    18
420
        0
 48
0.9999999962747097
370
    25
100
AcDbLine
 10
36451.38499962757
 20
-19505.80740032025
 30
0.0
 11
36448.73183537218
 21
-19501.95987923959
 31
0.0
  0
LINE
  5
309
330
1F
100
AcDbEntity
  8
Calm 815
  6
Continuous
 62
    18
420
        0
 48
0.9999999962747097
370
    25
100
AcDbLine
 10
36448.73183537218
 20
-19501.95987923959
 30
0.0
 11
36446.21094169136
 21
-19498.02219624814
 31
0.0
  0
LINE
  5
30A
330
1F
100
AcDbEntity
  8
Calm 815
  6
Continuous
 62
    18
420
        0
 48
0.9999999962747097
370
    25
100
AcDbLine
 10
36446.21094169136
 20
-19498.02219624814
 30
0.0
 11
36443.82685076279
 21
-19494.00117073767
 31
0.0
  0
LINE
  5
30B
330
1F
100
AcDbEntity
  8
Calm 815
  6
Continuous
 62
    18
420
        0
 48
0.9999999962747097
370
    25
100
AcDbLine
 10
36443.82685076279
 20
-19494.00117073767
 30
0.0
 11
36441.58361585822
 21
-19489.90391385744
 31
0.0
  0
LINE
  5
30C
330
1F
100
AcDbEntity
  8
Calm 815
  6
Continuous
 62
    18
420
        0
 48
0.9999999962747097
370
    25
100
AcDbLine
 10
36441.58361585822
 20
-19489.90391385744
 30
0.0
 11
36439.48478842662
 21
-19485.73778665965
 31
0.0
  0
LINE
  5
30D
330
1F
100
AcDbEntity
  8
Calm 815
  6
Continuous
 62
    18
420
        0
 48
0.9999999962747097
370
    25
100
AcDbLine
 10
36439.48478842662
 20
-19485.73778665965
 30
0.0
 11
36437.5333996337
 21
-19481.51035621139
 31
0.0
  0
LINE
  5
30E
330
1F
100
AcDbEntity
  8
Calm 815
  6
Continuous
 62
    18
420
        0
 48
0.9999999962747097
370
    25
100
AcDbLine
 10
36449.34950578114
 20
-19519.56468781146
 30
0.0
 11
36446.2349422678
 21
-19515.64966392345
 31
0.0
  0
LINE
  5
30F
330
1F
100
AcDbEntity
  8
Calm 815
  6
Continuous
 62
    18
420
        0
 48
0.9999999962747097
370
    25
100
AcDbLine
 10
36446.2349422678
 20
-19515.64966392345
 30
0.0
 11
36443.25098958203
 21
-19511.62426525376
 31
0.0
  0
LINE
  5
310
330
1F
100
AcDbEntity
  8
Calm 815
  6
Continuous
 62
    18
420
        0
 48
0.9999999962747097
370
    25
100
AcDbLine
 10
36443.25098958203
 20
-19511.62426525376
 30
0.0
 11
36440.40345783201
 21
-19507.49505108257
 31
0.0
  0
LINE
  5
311
330
1F
100
AcDbEntity
  8
Calm 815
  6
Continuous
 62
    18
420
        0
 48
0.9999999962747097
370
    25
100
AcDbLine
 10
36440.40345783201
 20
-19507.49505108257
 30
0.0
 11
36437.6982182145
 21
-19503.26867178348
 31
0.0
  0
LINE
  5
312
330
1F
100
AcDbEntity
  8
Calm 815
  6
Continuous
 62
    18
420
        0
 48
0.9999999962747097
370
    25
100
AcDbLine
 10
36437.6982182145
 20
-19503.26867178348
 30
0.0
 11
36435.13980672161
 21
-19498.95265913632
 31
0.0
  0
LINE
  5
313
330
1F
100
AcDbEntity
  8
Calm 815
  6
Continuous
 62
    18
420
        0
 48
0.9999999962747097
370
    25
100
AcDbLine
 10
36435.13980672161
 20
-19498.95265913632
 30
0.0
 11
36432.73204044686
 21
-19494.55489130825
 31
0.0
  0
LINE
  5
314
330
1F
100
AcDbEntity
  8
Calm 815
  6
Continuous
 62
    18
420
        0
 48
0.9999999962747097
370
    25
100
AcDbLine
 10
36432.73204044686
 20
-19494.55489130825
 30
0.0
 11
36430.47873648383
 21
-19490.08324646639
 31
0.0
  0
LINE
  5
315
330
1F
100
AcDbEntity
  8
Calm 815
  6
Continuous
 62
    18
420
        0
 48
0.9999999962747097
370
    25
100
AcDbLine
 10
36430.47873648383
 20
-19490.08324646639
 30
0.0
 11
36428.38371192604
 21
-19485.54560277786
 31
0.0
  0
LINE
  5
316
330
1F
100
AcDbEntity
  8
Calm 815
  6
Continuous
 62
    18
420
        0
 48
0.9999999962747097
370
    25
100
AcDbLine
 10
36431.87155483697
 20
-19458.1351932063
 30
0.0
 11
36432.31646319917
 21
-19461.10959619555
 31
0.0
  0
LINE
  5
317
330
1F
100
AcDbEntity
  8
Calm 815
  6
Continuous
 62
    18
420
        0
 48
0.9999999962747097
370
    25
100
AcDbLine
 10
36432.31646319917
 20
-19461.10959619555
 30
0.0
 11
36432.83746591241
 21
-19464.07470136138
 31
0.0
  0
LINE
  5
318
330
1F
100
AcDbEntity
  8
Calm 815
  6
Continuous
 62
    18
420
        0
 48
0.9999999962747097
370
    25
100
AcDbLine
 10
36432.83746591241
 20
-19464.07470136138
 30
0.0
 11
36433.43424403267
 21
-19467.02762716875
 31
0.0
  0
LINE
  5
319
330
1F
100
AcDbEntity
  8
Calm 815
  6
Continuous
 62
    18
420
        0
 48
0.9999999962747097
370
    25
100
AcDbLine
 10
36433.43424403267
 20
-19467.02762716875
 30
0.0
 11
36434.10633163839
 21
-19469.96550816379
 31
0.0
  0
LINE
  5
31A
330
1F
100
AcDbEntity
  8
Calm 815
  6
Continuous
 62
    18
420
        0
 48
0.9999999962747097
370
    25
100
AcDbLine
 10
36434.10633163839
 20
-19469.96550816379
 30
0.0
 11
36434.85311697369
 21
-19472.88550422271
 31
0.0
  0
LINE
  5
31B
330
1F
100
AcDbEntity
  8
Calm 815
  6
Continuous
 62
    18
420
        0
 48
0.9999999962747097
370
    25
100
AcDbLine
 10
36434.85311697369
 20
-19472.88550422271
 30
0.0
 11
36435.67384429657
 21
-19475.78480969644
 31
0.0
  0
LINE
  5
31C
330
1F
100
AcDbEntity
  8
Calm 815
  6
Continuous
 62
    18
420
        0
 48
0.9999999962747097
370
    25
100
AcDbLine
 10
36435.67384429657
 20
-19475.78480969644
 30
0.0
 11
36436.56761642051
 21
-19478.66066238923
 31
0.0
  0
LINE
  5
31D
330
1F
100
AcDbEntity
  8
Calm 815
  6
Continuous
 62
    18
420
        0
 48
0.9999999962747097
370
    25
100
AcDbLine
 10
36436.56761642051
 20
-19478.66066238923
 30
0.0
 11
36437.53339793133
 21
-19481.51035231101
 31
0.0
  0
LINE
  5
31E
330
1F
100
AcDbEntity
  8
Calm 815
  6
Continuous
 62
    18
420
        0
 48
0.9999999962747097
370
    25
100
AcDbLine
 10
36437.53339793133
 20
-19481.51035231101
 30
0.0
 11
36436.56761642051
 21
-19478.66066238923
 31
0.0
  0
LINE
  5
31F
330
1F
100
AcDbEntity
  8
Calm 815
  6
Continuous
 62
    18
420
        0
 48
0.9999999962747097
370
    25
100
AcDbLine
 10
36436.56761642051
 20
-19478.66066238923
 30
0.0
 11
36435.67384429657
 21
-19475.78480969644
 31
0.0
  0
LINE
  5
320
330
1F
100
AcDbEntity
  8
Calm 815
  6
Continuous
 62
    18
420
        0
 48
0.9999999962747097
370
    25
100
AcDbLine
 10
36435.67384429657
 20
-19475.78480969644
 30
0.0
 11
36434.85311697369
 21
-19472.88550422271
 31
0.0
  0
LINE
  5
321
330
1F
100
AcDbEntity
  8
Calm 815
  6
Continuous
 62
    18
420
        0
 48
0.9999999962747097
370
    25
100
AcDbLine
 10
36434.85311697369
 20
-19472.88550422271
 30
0.0
 11
36434.10633163839
 21
-19469.96550816379
 31
0.0
  0
LINE
  5
322
330
1F
100
AcDbEntity
  8
Calm 815
  6
Continuous
 62
    18
420
        0
 48
0.9999999962747097
370
    25
100
AcDbLine
 10
36434.10633163839
 20
-19469.96550816379
 30
0.0
 11
36433.43424403267
 21
-19467.02762716875
 31
0.0
  0
LINE
  5
323
330
1F
100
AcDbEntity
  8
Calm 815
  6
Continuous
 62
    18
420
        0
 48
0.9999999962747097
370
    25
100
AcDbLine
 10
36433.43424403267
 20
-19467.02762716875
 30
0.0
 11
36432.83746591241
 21
-19464.07470136138
 31
0.0
  0
LINE
  5
324
330
1F
100
AcDbEntity
  8
Calm 815
  6
Continuous
 62
    18
420
        0
 48
0.9999999962747097
370
    25
100
AcDbLine
 10
36432.83746591241
 20
-19464.07470136138
 30
0.0
 11
36432.31646319917
 21
-19461.10959619555
 31
0.0
  0
LINE
  5
325
330
1F
100
AcDbEntity
  8
Calm 815
  6
Continuous
 62
    18
420
        0
 48
0.9999999962747097
370
    25
100
AcDbLine
 10
36432.31646319917
 20
-19461.10959619555
 30
0.0
 11
36431.87155483697
 21
-19458.1351932063
 31
0.0
  0
LINE
  5
326
330
1F
100
AcDbEntity
  8
Calm 815
  6
Continuous
 62
    18
420
        0
 48
0.9999999962747097
370
    25
100
AcDbLine
 10
36428.38371192604
 20
-19485.54560277786
 30
0.0
 11
36427.76128669509
 21
-19483.77940802046
 31
0.0
  0
LINE
  5
327
330
1F
100
AcDbEntity
  8
Calm 815
  6
Continuous
 62
    18
420
        0
 48
0.9999999962747097
370
    25
100
AcDbLine
 10
36427.76128669509
 20
-19483.77940802046
 30
0.0
 11
36427.17951088367
 21
-19482.05937011572
 31
0.0
  0
LINE
  5
328
330
1F
100
AcDbEntity
  8
Calm 815
  6
Continuous
 62
    18
420
        0
 48
0.9999999962747097
370
    25
100
AcDbLine
 10
36427.17951088367
 20
-19482.05937011572
 30
0.0
 11
36426.63561475426
 21
-19480.37854632101
 31
0.0
  0
LINE
  5
329
330
1F
100
AcDbEntity
  8
Calm 815
  6
Continuous
 62
    18
420
        0
 48
0.9999999962747097
370
    25
100
AcDbLine
 10
36426.63561475426
 20
-19480.37854632101
 30
0.0
 11
36426.12682856932
 21
-19478.72999389368
 31
0.0
  0
LINE
  5
32A
330
1F
100
AcDbEntity
  8
Calm 815
  6
Continuous
 62
    18
420
        0
 48
0.9999999962747097
370
    25
100
AcDbLine
 10
36426.12682856932
 20
-19478.72999389368
 30
0.0
 11
36425.20350708281
 21
-19475.50193217058
 31
0.0
  0
LINE
  5
32B
330
1F
100
AcDbEntity
  8
Calm 815
  6
Continuous
 62
    18
420
        0
 48
0.9999999962747097
370
    25
100
AcDbLine
 10
36425.20350708281
 20
-19475.50193217058
 30
0.0
 11
36424.38738852388
 21
-19472.31964300525
 31
0.0
  0
LINE
  5
32C
330
1F
100
AcDbEntity
  8
Calm 815
  6
Continuous
 62
    18
420
        0
 48
0.9999999962747097
370
    25
100
AcDbLine
 10
36424.38738852388
 20
-19472.31964300525
 30
0.0
 11
36424.19853668187
 21
-19471.52998293646
 31
0.0
  0
LINE
  5
32D
330
1F
100
AcDbEntity
  8
Calm 815
  6
Continuous
 62
    18
420
        0
 48
0.9999999962747097
370
    25
100
AcDbLine
 10
36424.19853668187
 20
-19471.52998293646
 30
0.0
 11
36424.02850809632
 21
-19470.81039646489
 31
0.0
  0
LINE
  5
32E
330
1F
100
AcDbEntity
  8
Calm 815
  6
Continuous
 62
    18
420
        0
 48
0.9999999962747097
370
    25
100
AcDbLine
 10
36424.02850809632
 20
-19470.81039646489
 30
0.0
 11
36423.8797123567
 21
-19470.17501458948
 31
0.0
  0
LINE
  5
32F
330
1F
100
AcDbEntity
  8
Calm 815
  6
Continuous
 62
    18
420
        0
 48
0.9999999962747097
370
    25
100
AcDbLine
 10
36423.8797123567
 20
-19470.17501458948
 30
0.0
 11
36423.75038973777
 21
-19469.61657936549
 31
0.0
  0
LINE
  5
330
330
1F
100
AcDbEntity
  8
Calm 815
  6
Continuous
 62
    18
420
        0
 48
0.9999999962747097
370
    25
100
AcDbLine
 10
36423.75038973777
 20
-19469.61657936549
 30
0.0
 11
36423.63878051433
 21
-19469.12783284818
 31
0.0
  0
LINE
  5
331
330
1F
100
AcDbEntity
  8
Calm 815
  6
Continuous
 62
    18
420
        0
 48
0.9999999962747097
370
    25
100
AcDbLine
 10
36423.63878051433
 20
-19469.12783284818
 30
0.0
 11
36423.5431249612
 21
-19468.70151709281
 31
0.0
  0
LINE
  5
332
330
1F
100
AcDbEntity
  8
Calm 815
  6
Continuous
 62
    18
420
        0
 48
0.9999999962747097
370
    25
100
AcDbLine
 10
36423.5431249612
 20
-19468.70151709281
 30
0.0
 11
36423.46166335314
 21
-19468.33037415465
 31
0.0
  0
LINE
  5
333
330
1F
100
AcDbEntity
  8
Calm 815
  6
Continuous
 62
    18
420
        0
 48
0.9999999962747097
370
    25
100
AcDbLine
 10
36423.46166335314
 20
-19468.33037415465
 30
0.0
 11
36423.39263596496
 21
-19468.00714608896
 31
0.0
  0
LINE
  5
334
330
1F
100
AcDbEntity
  8
Calm 815
  6
Continuous
 62
    18
420
        0
 48
0.9999999962747097
370
    25
100
AcDbLine
 10
36423.39263596496
 20
-19468.00714608896
 30
0.0
 11
36423.28484494742
 21
-19467.475402796
 31
0.0
  0
LINE
  5
335
330
1F
100
AcDbEntity
  8
Calm 815
  6
Continuous
 62
    18
420
        0
 48
0.9999999962747097
370
    25
100
AcDbLine
 10
36423.28484494742
 20
-19467.475402796
 30
0.0
 11
36423.20567410691
 21
-19467.04822365606
 31
0.0
  0
LINE
  5
336
330
1F
100
AcDbEntity
  8
Calm 815
  6
Continuous
 62
    18
420
        0
 48
0.9999999962747097
370
    25
100
AcDbLine
 10
36423.20567410691
 20
-19467.04822365606
 30
0.0
 11
36423.07688175037
 21
-19466.27530360356
 31
0.0
  0
LINE
  5
337
330
1F
100
AcDbEntity
  8
Calm 815
  6
Continuous
 62
    18
420
        0
 48
0.9999999962747097
370
    25
100
AcDbLine
 10
36423.07688175037
 20
-19466.27530360356
 30
0.0
 11
36421.67668009559
 21
-19455.33730360831
 31
0.0
  0
LINE
  5
338
330
1F
100
AcDbEntity
  8
Calm 815
  6
Continuous
 62
    18
420
        0
 48
0.9999999962747097
370
    25
100
AcDbLine
 10
36421.67668009559
 20
-19455.33730360831
 30
0.0
 11
36420.98645517448
 21
-19449.86706086619
 31
0.0
  0
LINE
  5
339
330
1F
100
AcDbEntity
  8
Calm 815
  6
Continuous
 62
    18
420
        0
 48
0.9999999962747097
370
    25
100
AcDbLine
 10
36420.98645517448
 20
-19449.86706086619
 30
0.0
 11
36420.64381233983
 21
-19447.13163395092
 31
0.0
  0
LINE
  5
33A
330
1F
100
AcDbEntity
  8
Calm 815
  6
Continuous
 62
    18
420
        0
 48
0.9999999962747097
370
    25
100
AcDbLine
 10
36420.64381233983
 20
-19447.13163395092
 30
0.0
 11
36420.55840891473
 21
-19446.44774564332
 31
0.0
  0
LINE
  5
33B
330
1F
100
AcDbEntity
  8
Calm 815
  6
Continuous
 62
    18
420
        0
 48
0.9999999962747097
370
    25
100
AcDbLine
 10
36420.55840891473
 20
-19446.44774564332
 30
0.0
 11
36420.53707413944
 21
-19446.27677159904
 31
0.0
  0
LINE
  5
33C
330
1F
100
AcDbEntity
  8
Calm 815
  6
Continuous
 62
    18
420
        0
 48
0.9999999962747097
370
    25
100
AcDbLine
 10
36420.53707413944
 20
-19446.27677159904
 30
0.0
 11
36420.52807584264
 21
-19446.20464475264
 31
0.0
  0
LINE
  5
33D
330
1F
100
AcDbEntity
  8
Calm 815
  6
Continuous
 62
    18
420
        0
 48
0.9999999962747097
370
    25
100
AcDbLine
 10
36420.52807584264
 20
-19446.20464475264
 30
0.0
 11
36420.52805889517
 21
-19446.20450891197
 31
0.0
  0
LINE
  5
33E
330
1F
100
AcDbEntity
  8
Calm 815
  6
Continuous
 62
    18
420
        0
 48
0.9999999962747097
370
    25
100
AcDbLine
 10
36420.52805889517
 20
-19446.20450891197
 30
0.0
 11
36420.52799108095
 21
-19446.20396554341
 31
0.0
  0
LINE
  5
33F
330
1F
100
AcDbEntity
  8
Calm 815
  6
Continuous
 62
    18
420
        0
 48
0.9999999962747097
370
    25
100
AcDbLine
 10
36420.52799108095
 20
-19446.20396554341
 30
0.0
 11
36420.52771943455
 21
-19446.20179197494
 31
0.0
  0
LINE
  5
340
330
1F
100
AcDbEntity
  8
Calm 815
  6
Continuous
 62
    18
420
        0
 48
0.9999999962747097
370
    25
100
AcDbLine
 10
36420.52771943455
 20
-19446.20179197494
 30
0.0
 11
36420.52328820852
 21
-19446.16699455933
 31
0.0
  0
LINE
  5
341
330
1F
100
AcDbEntity
  8
Calm 815
  6
Continuous
 62
    18
420
        0
 48
0.9999999962747097
370
    25
100
AcDbLine
 10
36420.52328820852
 20
-19446.16699455933
 30
0.0
 11
36420.51394444264
 21
-19446.09728792417
 31
0.0
  0
LINE
  5
342
330
1F
100
AcDbEntity
  8
Calm 815
  6
Continuous
 62
    18
420
        0
 48
0.9999999962747097
370
    25
100
AcDbLine
 10
36420.51394444264
 20
-19446.09728792417
 30
0.0
 11
36420.49331395231
 21
-19445.95745479735
 31
0.0
  0
LINE
  5
343
330
1F
100
AcDbEntity
  8
Calm 815
  6
Continuous
 62
    18
420
        0
 48
0.9999999962747097
370
    25
100
AcDbLine
 10
36420.49331395231
 20
-19445.95745479735
 30
0.0
 11
36420.4441452539
 21
-19445.67633526689
 31
0.0
  0
LINE
  5
344
330
1F
100
AcDbEntity
  8
Calm 815
  6
Continuous
 62
    18
420
        0
 48
0.9999999962747097
370
    25
100
AcDbLine
 10
36420.4441452539
 20
-19445.67633526689
 30
0.0
 11
36420.31319205395
 21
-19445.1102046343
 31
0.0
  0
LINE
  5
345
330
1F
100
AcDbEntity
  8
Calm 815
  6
Continuous
 62
    18
420
        0
 48
0.9999999962747097
370
    25
100
AcDbLine
 10
36420.31319205395
 20
-19445.1102046343
 30
0.0
 11
36419.91489658052
 21
-19443.97936358075
 31
0.0
  0
LINE
  5
346
330
1F
100
AcDbEntity
  8
Calm 815
  6
Continuous
 62
    18
420
        0
 48
0.9999999962747097
370
    25
100
AcDbLine
 10
36419.91489658052
 20
-19443.97936358075
 30
0.0
 11
36419.33011095167
 21
-19442.88619089048
 31
0.0
  0
LINE
  5
347
330
1F
100
AcDbEntity
  8
Calm 815
  6
Continuous
 62
    18
420
        0
 48
0.9999999962747097
370
    25
100
AcDbLine
 10
36419.33011095167
 20
-19442.88619089048
 30
0.0
 11
36418.56517105574
 21
-19441.87589261159
 31
0.0
  0
LINE
  5
348
330
1F
100
AcDbEntity
  8
Calm 815
  6
Continuous
 62
    18
420
        0
 48
0.9999999962747097
370
    25
100
AcDbLine
 10
36418.56517105574
 20
-19441.87589261159
 30
0.0
 11
36417.64085414755
 21
-19440.99135553052
 31
0.0
  0
LINE
  5
349
330
1F
100
AcDbEntity
  8
Calm 815
  6
Continuous
 62
    18
420
        0
 48
0.9999999962747097
370
    25
100
AcDbLine
 10
36417.64085414755
 20
-19440.99135553052
 30
0.0
 11
36416.59088553232
 21
-19440.26751142127
 31
0.0
  0
LINE
  5
34A
330
1F
100
AcDbEntity
  8
Calm 815
  6
Continuous
 62
    18
420
        0
 48
0.9999999962747097
370
    25
100
AcDbLine
 10
36416.59088553232
 20
-19440.26751142127
 30
0.0
 11
36415.45794656532
 21
-19439.72686951389
 31
0.0
  0
LINE
  5
34B
330
1F
100
AcDbEntity
  8
Calm 815
  6
Continuous
 62
    18
420
        0
 48
0.9999999962747097
370
    25
100
AcDbLine
 10
36415.45794656532
 20
-19439.72686951389
 30
0.0
 11
36414.28813925548
 21
-19439.37736984064
 31
0.0
  0
LINE
  5
34C
330
1F
100
AcDbEntity
  8
Calm 815
  6
Continuous
 62
    18
420
        0
 48
0.9999999962747097
370
    25
100
AcDbLine
 10
36414.28813925548
 20
-19439.37736984064
 30
0.0
 11
36413.12533800753
 21
-19439.21293600286
 31
0.0
  0
LINE
  5
34D
330
1F
100
AcDbEntity
  8
Calm 815
  6
Continuous
 62
    18
420
        0
 48
0.9999999962747097
370
    25
100
AcDbLine
 10
36413.12533800753
 20
-19439.21293600286
 30
0.0
 11
36412.53044219882
 21
-19439.19497806629
 31
0.0
  0
LINE
  5
34E
330
1F
100
AcDbEntity
  8
Calm 815
  6
Continuous
 62
    18
420
        0
 48
0.9999999962747097
370
    25
100
AcDbLine
 10
36412.53044219882
 20
-19439.19497806629
 30
0.0
 11
36411.47792238503
 21
-19439.19497806629
 31
0.0
  0
LINE
  5
34F
330
1F
100
AcDbEntity
  8
Calm 815
  6
Continuous
 62
    18
420
        0
 48
0.9999999962747097
370
    25
100
AcDbLine
 10
36411.47792238503
 20
-19439.19497806629
 30
0.0
 11
36409.45369691977
 21
-19439.19497806629
 31
0.0
  0
LINE
  5
350
330
1F
100
AcDbEntity
  8
Calm 815
  6
Continuous
 62
    18
420
        0
 48
0.9999999962747097
370
    25
100
AcDbLine
 10
36409.45369691977
 20
-19439.19497806629
 30
0.0
 11
36407.53722367097
 21
-19439.19497806629
 31
0.0
  0
LINE
  5
351
330
1F
100
AcDbEntity
  8
Calm 815
  6
Continuous
 62
    18
420
        0
 48
0.9999999962747097
370
    25
100
AcDbLine
 10
36407.53722367097
 20
-19439.19497806629
 30
0.0
 11
36405.7285026386
 21
-19439.19497806629
 31
0.0
  0
LINE
  5
352
330
1F
100
AcDbEntity
  8
Calm 815
  6
Continuous
 62
    18
420
        0
 48
0.9999999962747097
370
    25
100
AcDbLine
 10
36405.7285026386
 20
-19439.19497806629
 30
0.0
 11
36404.02753382269
 21
-19439.19497806629
 31
0.0
  0
LINE
  5
353
330
1F
100
AcDbEntity
  8
Calm 815
  6
Continuous
 62
    18
420
        0
 48
0.9999999962747097
370
    25
100
AcDbLine
 10
36404.02753382269
 20
-19439.19497806629
 30
0.0
 11
36402.43431722323
 21
-19439.19497806629
 31
0.0
  0
LINE
  5
354
330
1F
100
AcDbEntity
  8
Calm 815
  6
Continuous
 62
    18
420
        0
 48
0.9999999962747097
370
    25
100
AcDbLine
 10
36402.43431722323
 20
-19439.19497806629
 30
0.0
 11
36400.94885284022
 21
-19439.19497806629
 31
0.0
  0
LINE
  5
355
330
1F
100
AcDbEntity
  8
Calm 815
  6
Continuous
 62
    18
420
        0
 48
0.9999999962747097
370
    25
100
AcDbLine
 10
36431.87155600395
 20
-19458.13520278918
 30
0.0
 11
36431.15383710156
 21
-19452.46190828583
 31
0.0
  0
LINE
  5
356
330
1F
100
AcDbEntity
  8
Calm 815
  6
Continuous
 62
    18
420
        0
 48
0.9999999962747097
370
    25
100
AcDbLine
 10
36431.15383710156
 20
-19452.46190828583
 30
0.0
 11
36430.3711055918
 21
-19446.79711842933
 31
0.0
  0
LINE
  5
357
330
1F
100
AcDbEntity
  8
Calm 815
  6
Continuous
 62
    18
420
        0
 48
0.9999999962747097
370
    25
100
AcDbLine
 10
36430.3711055918
 20
-19446.79711842933
 30
0.0
 11
36431.15383710156
 21
-19452.46190828583
 31
0.0
  0
LINE
  5
358
330
1F
100
AcDbEntity
  8
Calm 815
  6
Continuous
 62
    18
420
        0
 48
0.9999999962747097
370
    25
100
AcDbLine
 10
36431.15383710156
 20
-19452.46190828583
 30
0.0
 11
36431.87155600395
 21
-19458.13520278918
 31
0.0
  0
LINE
  5
359
330
1F
100
AcDbEntity
  8
Calm 815
  6
Continuous
 62
    18
420
        0
 48
0.9999999962747097
370
    25
100
AcDbLine
 10
36722.75088098623
 20
-19583.58205353139
 30
0.0
 11
36652.84521583225
 21
-19583.58205353139
 31
0.0
  0
LINE
  5
35A
330
1F
100
AcDbEntity
  8
Calm 815
  6
Continuous
 62
    18
420
        0
 48
50.00000038146973
370
    25
100
AcDbLine
 10
37203.70557797638
 20
-19197.38091963906
 30
0.0
 11
37209.01676236283
 21
-19195.87664870633
 31
0.0
  0
LINE
  5
35B
330
1F
100
AcDbEntity
  8
Calm 815
  6
Continuous
 62
    18
420
        0
 48
60.00000166893005
370
    25
100
AcDbLine
 10
35987.536109776
 20
-18532.3352891696
 30
0.0
 11
35987.536109776
 21
-19967.33529527311
 31
0.0
  0
LINE
  5
35C
330
1F
100
AcDbEntity
  8
Calm 815
  6
Continuous
 62
    18
420
        0
 48
120.0000033378601
370
    25
100
AcDbLine
 10
35987.536109776
 20
-19967.33529527311
 30
0.0
 11
38037.53617386291
 21
-19967.33529527311
 31
0.0
  0
LINE
  5
35D
330
1F
100
AcDbEntity
  8
Calm 815
  6
Continuous
 62
    18
420
        0
 48
60.00000166893005
370
    25
100
AcDbLine
 10
38037.53617386291
 20
-19967.33529527311
 30
0.0
 11
38037.53617386291
 21
-18532.3352891696
 31
0.0
  0
LINE
  5
35E
330
1F
100
AcDbEntity
  8
Calm 815
  6
Continuous
 62
    18
420
        0
 48
60.00000166893005
370
    25
100
AcDbLine
 10
36072.53615402649
 20
-19935.33520455484
 30
0.0
 11
38017.53584427306
 21
-19935.33520455484
 31
0.0
  0
LINE
  5
35F
330
1F
100
AcDbEntity
  8
Calm 815
  6
Continuous
 62
    18
420
        0
 48
60.00000166893005
370
    25
100
AcDbLine
 10
38017.53584427306
 20
-19935.33520455484
 30
0.0
 11
38017.53584427306
 21
-18544.33533189421
 31
0.0
  0
LINE
  5
360
330
1F
100
AcDbEntity
  8
Calm 815
  6
Continuous
 62
    18
420
        0
 48
60.00000166893005
370
    25
100
AcDbLine
 10
36072.53615402649
 20
-18544.33533189421
 30
0.0
 11
36072.53615402649
 21
-19935.33520455484
 31
0.0
  0
LINE
  5
361
330
1F
100
AcDbEntity
  8
Calm 815
  6
Continuous
 62
    18
420
        0
 48
60.00000166893005
370
    25
100
AcDbLine
 10
37162.536109776
 20
-19935.33520455484
 30
0.0
 11
37162.536109776
 21
-19944.8588144586
 31
0.0
  0
LINE
  5
362
330
1F
100
AcDbEntity
  8
Calm 815
  6
Continuous
 62
    18
420
        0
 48
60.00000166893005
370
    25
100
AcDbLine
 10
36637.536109776
 20
-19935.33520455484
 30
0.0
 11
36637.536109776
 21
-19944.8588144586
 31
0.0
  0
LINE
  5
363
330
1F
100
AcDbEntity
  8
Calm 815
  6
Continuous
 62
    18
420
        0
 48
60.00000166893005
370
    25
100
AcDbLine
 10
35987.536109776
 20
-19249.83529222136
 30
0.0
 11
36047.536109776
 21
-19249.83529222136
 31
0.0
  0
LINE
  5
364
330
1F
100
AcDbEntity
  8
Calm 815
  6
Continuous
 62
    18
420
        0
 48
60.00000166893005
370
    25
100
AcDbLine
 10
38037.53617386291
 20
-18532.3352891696
 30
0.0
 11
35987.536109776
 21
-18532.3352891696
 31
0.0
  0
LINE
  5
365
330
1F
100
AcDbEntity
  8
Calm 815
  6
Continuous
 62
    18
420
        0
 48
60.00000166893005
370
    25
100
AcDbLine
 10
38017.53584427306
 20
-18544.33533189421
 30
0.0
 11
36072.53615402649
 21
-18544.33533189421
 31
0.0
  0
LINE
  5
366
330
1F
100
AcDbEntity
  8
Calm 815
  6
Continuous
 62
    18
420
        0
 48
60.00000166893005
370
    25
100
AcDbLine
 10
37162.536109776
 20
-18544.33533189421
 30
0.0
 11
37162.536109776
 21
-18532.3352891696
 31
0.0
  0
LINE
  5
367
330
1F
100
AcDbEntity
  8
Calm 815
  6
Continuous
 62
    18
420
        0
 48
60.00000166893005
370
    25
100
AcDbLine
 10
36637.536109776
 20
-18544.33533189421
 30
0.0
 11
36637.536109776
 21
-18532.3352891696
 31
0.0
  0
TEXT
  5
369
330
1F
100
AcDbEntity
  8
Calm 815
  6
Continuous
 62
    18
420
        0
 48
50.00000038146973
370
    25
100
AcDbText
 10
36672.77940589849
 20
-19194.8320917805
 30
0.0
 40
32.0
  1
ü
 41
0.8125
  7
CENTURY GOTHIC
100
AcDbText
  0
INSERT
  5
36D
330
1F
100
AcDbEntity
  8
Calm 815
  6
Continuous
 62
    18
420
        0
 48
50.00000038146973
370
    25
100
AcDbBlockReference
  2
Dimension29
 10
0.0
 20
0.0
 30
0.0
  0
INSERT
  5
371
330
1F
100
AcDbEntity
  8
Calm 815
  6
Continuous
 62
    18
420
        0
 48
50.00000038146973
370
    25
100
AcDbBlockReference
  2
Dimension30
 10
0.0
 20
0.0
 30
0.0
  0
INSERT
  5
375
330
1F
100
AcDbEntity
  8
Calm 815
  6
Continuous
 62
    18
420
        0
 48
50.00000038146973
370
    25
100
AcDbBlockReference
  2
Dimension31
 10
0.0
 20
0.0
 30
0.0
  0
INSERT
  5
379
330
1F
100
AcDbEntity
  8
Calm 815
  6
Continuous
 62
    18
420
        0
 48
50.00000038146973
370
    25
100
AcDbBlockReference
  2
Dimension32
 10
0.0
 20
0.0
 30
0.0
  0
INSERT
  5
37D
330
1F
100
AcDbEntity
  8
Calm 815
  6
Continuous
 62
    18
420
        0
 48
50.00000038146973
370
    25
100
AcDbBlockReference
  2
Dimension33
 10
0.0
 20
0.0
 30
0.0
  0
INSERT
  5
381
330
1F
100
AcDbEntity
  8
Calm 815
  6
Continuous
 62
    18
420
        0
 48
50.00000038146973
370
    25
100
AcDbBlockReference
  2
Dimension34
 10
0.0
 20
0.0
 30
0.0
  0
DIMENSION
  5
383
330
1F
100
AcDbEntity
  8
Calm 815
  6
Continuous
 62
    18
420
        0
 48
50.00000038146973
370
    25
100
AcDbDimension
  2
*D35
 10
36947.76960401667
 20
-19285.09683977327
 30
0.0
 11
36688.63961796893
 21
-19244.67683568439
 31
0.0
 70
    32
 71
     5
 42
518.2599720954822
  3
ISO-25
100
AcDbAlignedDimension
 13
36429.50963192119
 23
-19024.79570642899
 33
0.0
 14
36947.76960401667
 24
-19024.79880701494
 34
0.0
100
AcDbRotatedDimension
1001
ACAD
1000
DSTYLE
1002
{
1070
   271
1070
     3
1070
   177
1070
    18
1070
   176
1070
    18
1070
   140
1040
40.0
1070
    76
1070
     0
1070
    75
1070
     0
1070
   282
1070
     0
1070
   281
1070
     0
1070
   174
1070
     1
1070
    42
1040
0.0
1070
    49
1040
19.9999995470047
1070
   290
1070
     1
1070
    44
1040
19.9999995470047
1070
    46
1040
0.0
1070
    41
1040
15.00000059604645
1070
   173
1070
     1
1070
   342
1005
0
1070
   344
1005
391
1070
   343
1005
391
1070
   147
1040
20.00000408887863
1070
    70
1070
    18
1070
    69
1070
     0
1070
   340
1005
382
1070
   278
1070
    46
1002
}
1001
ACAD_DSTYLE_DIMEXT_ENABLED
1070
   383
1070
     1
1001
ACAD_DSTYLE_DIMEXT_LENGTH
1070
   378
1040
19.9999995470047
  0
DIMENSION
  5
398
330
1F
100
AcDbEntity
  8
Calm 815
  6
Continuous
 62
    18
420
        0
 48
50.00000038146973
370
    25
100
AcDbDimension
  2
*D37
 10
36973.63913696656
 20
-19339.09683977327
 30
0.0
 11
36688.57462682021
 21
-19307.09683568439
 31
0.0
 70
    32
 71
     5
 42
570.1290202927121
  3
ISO-25
100
AcDbAlignedDimension
 13
36403.51011667385
 23
-19024.79648157546
 33
0.0
 14
36973.63913696656
 24
-19017.09695118744
 34
0.0
100
AcDbRotatedDimension
1001
ACAD
1000
DSTYLE
1002
{
1070
    69
1070
     0
1070
   271
1070
     3
1070
   177
1070
    18
1070
   176
1070
    18
1070
   140
1040
24.0
1070
    76
1070
     0
1070
    75
1070
     0
1070
   282
1070
     0
1070
   281
1070
     0
1070
   174
1070
     1
1070
    42
1040
0.0
1070
    49
1040
19.9999995470047
1070
   290
1070
     1
1070
    44
1040
19.9999995470047
1070
    46
1040
0.0
1070
    41
1040
9.000000357627869
1070
   173
1070
     1
1070
   342
1005
0
1070
   344
1005
391
1070
   343
1005
391
1070
   147
1040
20.00000408887863
1070
   178
1070
    18
1070
   340
1005
397
1070
   278
1070
    46
1002
}
1001
ACAD_DSTYLE_DIMEXT_ENABLED
1070
   383
1070
     1
1001
ACAD_DSTYLE_DIMEXT_LENGTH
1070
   378
1040
19.9999995470047
  0
DIMENSION
  5
3A5
330
1F
100
AcDbEntity
  8
Calm 815
  6
Continuous
 62
    18
420
        0
 48
50.00000038146973
370
    25
100
AcDbDimension
  2
*D38
 10
36344.63849068295
 20
-18834.09688135577
 30
0.0
 11
36304.21848659407
 21
-19017.09687887622
 31
0.0
 70
    32
 71
     5
 42
365.9999950408928
  3
ISO-25
100
AcDbAlignedDimension
 13
36688.68520021572
 23
-19200.09687639667
 33
0.0
 14
36688.63714113368
 24
-18834.09688135577
 34
0.0
 50
90.0
100
AcDbRotatedDimension
1001
ACAD
1000
DSTYLE
1002
{
1070
   271
1070
     3
1070
   177
1070
    18
1070
   176
1070
    18
1070
   140
1040
40.0
1070
    76
1070
     0
1070
    75
1070
     0
1070
   282
1070
     0
1070
   281
1070
     0
1070
   174
1070
     1
1070
    42
1040
0.0
1070
    49
1040
19.9999995470047
1070
   290
1070
     1
1070
    44
1040
19.9999995470047
1070
    46
1040
0.0
1070
    41
1040
15.00000059604645
1070
   173
1070
     1
1070
   342
1005
0
1070
   344
1005
391
1070
   343
1005
391
1070
   147
1040
20.00000408887863
1070
    70
1070
    18
1070
    69
1070
     0
1070
   340
1005
382
1070
   278
1070
    46
1002
}
1001
ACAD_DSTYLE_DIMEXT_ENABLED
1070
   383
1070
     1
1001
ACAD_DSTYLE_DIMEXT_LENGTH
1070
   378
1040
19.9999995470047
  0
DIMENSION
  5
3B2
330
1F
100
AcDbEntity
  8
Calm 815
  6
Continuous
 62
    18
420
        0
 48
50.00000038146973
370
    25
100
AcDbDimension
  2
*D39
 10
36290.63849068296
 20
-19226.09683977557
 30
0.0
 11
36258.63848659408
 21
-19017.09680620623
 31
0.0
 70
    32
 71
     5
 42
418.000067138677
  3
ISO-25
100
AcDbAlignedDimension
 13
36688.63869142665
 23
-18808.09677263689
 33
0.0
 14
36688.63869764229
 24
-19226.09683977557
 34
0.0
 50
-90.0
100
AcDbRotatedDimension
1001
ACAD
1000
DSTYLE
1002
{
1070
    69
1070
     0
1070
   271
1070
     3
1070
   177
1070
    18
1070
   176
1070
    18
1070
   140
1040
24.0
1070
    76
1070
     0
1070
    75
1070
     0
1070
   282
1070
     0
1070
   281
1070
     0
1070
   174
1070
     1
1070
    42
1040
0.0
1070
    49
1040
19.9999995470047
1070
   290
1070
     1
1070
    44
1040
19.9999995470047
1070
    46
1040
0.0
1070
    41
1040
9.000000357627869
1070
   173
1070
     1
1070
   342
1005
0
1070
   344
1005
391
1070
   343
1005
391
1070
   147
1040
20.00000408887863
1070
   178
1070
    18
1070
   340
1005
397
1070
   278
1070
    46
1002
}
1001
ACAD_DSTYLE_DIMEXT_ENABLED
1070
   383
1070
     1
1001
ACAD_DSTYLE_DIMEXT_LENGTH
1070
   378
1040
19.9999995470047
  0
DIMENSION
  5
3BF
330
1F
100
AcDbEntity
  8
Calm 815
  6
Continuous
 62
    18
420
        0
 48
50.00000038146973
370
    25
100
AcDbDimension
  2
*D40
 10
37331.6081908023
 20
-18761.40572307432
 30
0.0
 11
37252.68845600662
 21
-18720.98571898545
 31
0.0
 70
    32
 71
     5
 42
157.8394695913375
  3
ISO-25
100
AcDbAlignedDimension
 13
37173.76872121096
 23
-18834.10895174378
 33
0.0
 14
37331.6081908023
 24
-18920.63184626506
 34
0.0
100
AcDbRotatedDimension
1001
ACAD
1000
DSTYLE
1002
{
1070
   271
1070
     3
1070
   177
1070
    18
1070
   176
1070
    18
1070
   140
1040
40.0
1070
    76
1070
     0
1070
    75
1070
     0
1070
   282
1070
     0
1070
   281
1070
     0
1070
   174
1070
     1
1070
    42
1040
0.0
1070
    49
1040
19.9999995470047
1070
   290
1070
     1
1070
    44
1040
19.9999995470047
1070
    46
1040
0.0
1070
    41
1040
15.00000059604645
1070
   173
1070
     1
1070
   342
1005
0
1070
   344
1005
391
1070
   343
1005
391
1070
   147
1040
20.00000408887863
1070
    70
1070
    18
1070
    69
1070
     0
1070
   340
1005
382
1070
   278
1070
    46
1002
}
1001
ACAD_DSTYLE_DIMEXT_ENABLED
1070
   383
1070
     1
1001
ACAD_DSTYLE_DIMEXT_LENGTH
1070
   378
1040
19.9999995470047
  0
DIMENSION
  5
3CE
330
1F
100
AcDbEntity
  8
Calm 815
  6
Continuous
 62
    18
420
        0
 48
50.00000038146973
370
    25
100
AcDbDimension
  2
*D41
 10
37032.64016788729
 20
-18834.09688135577
 30
0.0
 11
37000.64016379841
 21
-18871.59711176348
 31
0.0
 70
    32
 71
     5
 42
75.00046081543405
  3
ISO-25
100
AcDbAlignedDimension
 13
36688.63714113368
 23
-18909.0973421712
 33
0.0
 14
36688.63714113368
 24
-18834.09688135577
 34
0.0
 50
90.0
100
AcDbRotatedDimension
1001
ACAD
1000
DSTYLE
1002
{
1070
    69
1070
     0
1070
   271
1070
     3
1070
   177
1070
    18
1070
   176
1070
    18
1070
   140
1040
24.0
1070
    76
1070
     0
1070
    75
1070
     0
1070
   282
1070
     0
1070
   281
1070
     0
1070
   174
1070
     1
1070
    42
1040
0.0
1070
    49
1040
19.9999995470047
1070
   290
1070
     1
1070
    44
1040
19.9999995470047
1070
    46
1040
0.0
1070
    41
1040
9.000000357627869
1070
   173
1070
     1
1070
   342
1005
0
1070
   344
1005
391
1070
   343
1005
391
1070
   147
1040
20.00000408887863
1070
   178
1070
    18
1070
   340
1005
397
1070
   278
1070
    46
1002
}
1001
ACAD_DSTYLE_DIMEXT_ENABLED
1070
   383
1070
     1
1001
ACAD_DSTYLE_DIMEXT_LENGTH
1070
   378
1040
19.9999995470047
  0
INSERT
  5
3E0
330
1F
100
AcDbEntity
  8
Calm 815
  6
Continuous
 62
    18
420
        0
 48
50.00000038146973
370
    25
100
AcDbBlockReference
  2
Dimension35
 10
0.0
 20
0.0
 30
0.0
  0
INSERT
  5
3E4
330
1F
100
AcDbEntity
  8
Calm 815
  6
Continuous
 62
    18
420
        0
 48
50.00000038146973
370
    25
100
AcDbBlockReference
  2
Dimension36
 10
0.0
 20
0.0
 30
0.0
  0
INSERT
  5
3E8
330
1F
100
AcDbEntity
  8
Calm 815
  6
Continuous
 62
    18
420
        0
 48
50.00000038146973
370
    25
100
AcDbBlockReference
  2
Dimension37
 10
0.0
 20
0.0
 30
0.0
  0
ELLIPSE
  5
3E9
330
1F
100
AcDbEntity
  8
Calm 815
  6
Continuous
 62
    18
420
        0
 48
0.9999999962747097
370
    25
100
AcDbEllipse
 10
36767.66997326658
 20
-19380.67807882202
 30
0.0
 11
201.345910720783
 21
-4.470777319926689E-14
 31
0.0
210
0.0
220
0.0
230
1.0
 40
0.9942334460131238
 41
5.272270969470386
 42
5.559661732240582
  0
ELLIPSE
  5
3EA
330
1F
100
AcDbEntity
  8
Calm 815
  6
Continuous
 62
    18
420
        0
 48
0.9999999962747097
370
    25
100
AcDbEllipse
 10
36972.34475543736
 20
-19427.77571682618
 30
0.0
 11
1.525169924555935
 21
0.0
 31
0.0
210
0.0
220
0.0
230
1.0
 40
0.9942334460131239
 41
0.1243530608380803
 42
1.56417197810032
  0
ELLIPSE
  5
3EB
330
1F
100
AcDbEntity
  8
Calm 815
  6
Continuous
 62
    18
420
        0
 48
0.9999999962747097
370
    25
100
AcDbEllipse
 10
36754.41780450529
 20
-19366.04949212661
 30
0.0
 11
231.112101378106
 21
-5.131719524389533E-14
 31
0.0
210
0.0
220
0.0
230
1.0
 40
0.9942334460131238
 41
5.17606061560019
 42
5.286833263198544
  0
ELLIPSE
  5
3EC
330
1F
100
AcDbEntity
  8
Calm 815
  6
Continuous
 62
    18
420
        0
 48
0.9999999962747097
370
    25
100
AcDbEllipse
 10
36768.16113869606
 20
-19386.95021660516
 30
0.0
 11
206.1834856718769
 21
-4.578193061807775E-14
 31
0.0
210
0.0
220
0.0
230
1.0
 40
0.9942334460131238
 41
5.102486164019635
 42
5.162041015976706
  0
ELLIPSE
  5
3ED
330
1F
100
AcDbEntity
  8
Calm 815
  6
Continuous
 62
    18
420
        0
 48
0.9999999962747097
370
    25
100
AcDbEllipse
 10
36811.48664434332
 20
-19472.7513757194
 30
0.0
 11
98.89400251875207
 21
-2.195887971873136E-14
 31
0.0
210
0.0
220
0.0
230
1.0
 40
0.994233446013124
 41
5.070767180451674
 42
5.190462878662174
  0
ELLIPSE
  5
3EE
330
1F
100
AcDbEntity
  8
Calm 815
  6
Continuous
 62
    18
420
        0
 48
0.9999999962747097
370
    25
100
AcDbEllipse
 10
36766.79229918142
 20
-19378.40288203766
 30
0.0
 11
203.7515732933476
 21
-4.524193759477493E-14
 31
0.0
210
0.0
220
0.0
230
1.0
 40
0.9942334460131238
 41
5.170951018770874
 42
5.269956081105823
  0
ELLIPSE
  5
3EF
330
1F
100
AcDbEntity
  8
Calm 815
  6
Continuous
 62
    18
420
        0
 48
0.9999999962747097
370
    25
100
AcDbEllipse
 10
36972.34475543736
 20
-19427.77571682618
 30
0.0
 11
1.525169924555935
 21
0.0
 31
0.0
210
0.0
220
0.0
230
1.0
 40
0.9942334460131239
 41
0.1243530608380802
 42
1.56417197810032
  0
ELLIPSE
  5
3F0
330
1F
100
AcDbEntity
  8
Calm 815
  6
Continuous
 62
    18
420
        0
 48
0.9999999962747097
370
    25
100
AcDbEllipse
 10
32221.60293142278
 20
-18894.41527282953
 30
0.0
 11
4756.229037569386
 21
-1.056094997580056E-12
 31
0.0
210
0.0
220
0.0
230
1.0
 40
0.9942334460131237
 41
6.166105809036456
 42
6.170512329065428
  0
ELLIPSE
  5
3F1
330
1F
100
AcDbEntity
  8
Calm 815
  6
Continuous
 62
    18
420
        0
 48
0.9999999962747097
370
    25
100
AcDbEllipse
 10
23167.31534400909
 20
-135009.3585620571
 30
0.0
 11
7.166130255979526E-12
 21
117035.6536794343
 31
0.0
210
0.0
220
0.0
230
1.0
 40
0.9945300845350571
 41
6.161444567899427
 42
6.16222186967435
  0
ELLIPSE
  5
3F2
330
1F
100
AcDbEntity
  8
Calm 815
  6
Continuous
 62
    18
420
        0
 48
0.9999999962747097
370
    25
100
AcDbEllipse
 10
37277.65231478513
 20
-19001.86389311788
 30
0.0
 11
1.003261493647822E-14
 21
163.850447209641
 31
0.0
210
0.0
220
0.0
230
1.0
 40
0.9945300845350572
 41
6.076002556144463
 42
6.130659093074445
  0
ELLIPSE
  5
3F3
330
1F
100
AcDbEntity
  8
Calm 815
  6
Continuous
 62
    18
420
        0
 48
0.9999999962747097
370
    25
100
AcDbEllipse
 10
37302.90564728899
 20
-18883.25889106183
 30
0.0
 11
2.606024529942705E-15
 21
42.56101598376478
 31
0.0
210
0.0
220
0.0
230
1.0
 40
0.9945300845350572
 41
5.879403142323857
 42
6.086615854844474
  0
ELLIPSE
  5
3F4
330
1F
100
AcDbEntity
  8
Calm 815
  6
Continuous
 62
    18
420
        0
 48
0.9999999962747097
370
    25
100
AcDbEllipse
 10
37289.82136416197
 20
-18910.88430631363
 30
0.0
 11
4.478660987564203E-15
 21
73.14450024834363
 31
0.0
210
0.0
220
0.0
230
1.0
 40
0.9945300845350571
 41
5.776669523411599
 42
5.862391612030139
  0
ELLIPSE
  5
3F5
330
1F
100
AcDbEntity
  8
Calm 815
  6
Continuous
 62
    18
420
        0
 48
0.9999999962747097
370
    25
100
AcDbEllipse
 10
37307.08987301999
 20
-18876.81289200567
 30
0.0
 11
2.140207842190180E-15
 21
34.95340091140187
 31
0.0
210
0.0
220
0.0
230
1.0
 40
0.9945300845350572
 41
5.158215448181809
 42
5.738155730658784
  0
ELLIPSE
  5
3F6
330
1F
100
AcDbEntity
  8
Calm 815
  6
Continuous
 62
    18
420
        0
 48
0.9999999962747097
370
    25
100
AcDbEllipse
 10
37303.28793509091
 20
-18880.43119751205
 30
0.0
 11
2.448935883184503E-15
 21
39.99547896416856
 31
0.0
210
0.0
220
0.0
230
1.0
 40
0.9945300845350574
 41
4.891885767420898
 42
5.198636158586531
  0
ELLIPSE
  5
3F7
330
1F
100
AcDbEntity
  8
Calm 815
  6
Continuous
 62
    18
420
        0
 48
0.9999999962747097
370
    25
100
AcDbEllipse
 10
37350.20019361688
 20
-18871.87216510981
 30
0.0
 11
4.864764356733463E-16
 21
7.94502550398995
 31
0.0
210
0.0
220
0.0
230
1.0
 40
0.9945300845350572
 41
1.750293113831114
 42
2.809980532043178
  0
ELLIPSE
  5
3F8
330
1F
100
AcDbEntity
  8
Calm 815
  6
Continuous
 62
    18
420
        0
 48
0.9999999962747097
370
    25
100
AcDbEllipse
 10
37350.33132346188
 20
-18881.93374675235
 30
0.0
 11
9.340347564928252E-17
 21
1.525444896766071
 31
0.0
210
0.0
220
0.0
230
1.0
 40
0.9945300845350572
 41
4.71238898038469
 42
5.951575221850449
  0
ELLIPSE
  5
3F9
330
1F
100
AcDbEntity
  8
Calm 815
  6
Continuous
 62
    18
420
        0
 48
0.9999999962747097
370
    25
100
AcDbEllipse
 10
37348.68779754957
 20
-18894.21630904567
 30
0.0
 11
1.945905742693387E-16
 21
-3.178010201595982
 31
0.0
210
0.0
220
0.0
230
1.0
 40
0.9945300845350572
 41
6.19644229791135
 42
7.853981633974483
  0
ELLIPSE
  5
3FA
330
1F
100
AcDbEntity
  8
Calm 815
  6
Continuous
 62
    18
420
        0
 48
0.9999999962747097
370
    25
100
AcDbEllipse
 10
37344.12625889652
 20
-18893.89583631019
 30
0.0
 11
1.898170069985249E-16
 21
-3.100049357183997
 31
0.0
210
0.0
220
0.0
230
1.0
 40
0.9945300845350572
 41
5.488606033177484
 42
6.187266083924913
  0
ELLIPSE
  5
3FB
330
1F
100
AcDbEntity
  8
Calm 815
  6
Continuous
 62
    18
420
        0
 48
0.9999999962747097
370
    25
100
AcDbEllipse
 10
37334.73223612646
 20
-18884.33961535996
 30
0.0
 11
1.945905742693387E-16
 21
3.178010201595982
 31
0.0
210
0.0
220
0.0
230
1.0
 40
0.9945300845350572
 41
1.667086723403858
 42
2.356189642055552
  0
ELLIPSE
  5
3FC
330
1F
100
AcDbEntity
  8
Calm 815
  6
Continuous
 62
    18
420
        0
 48
0.9999999962747097
370
    25
100
AcDbEllipse
 10
37271.94475474727
 20
-18890.43755695207
 30
0.0
 11
3.689041897109114E-15
 21
60.2486159833234
 31
0.0
210
0.0
220
0.0
230
1.0
 40
0.9945300845350572
 41
4.808679522437739
 42
4.910826371351747
  0
ELLIPSE
  5
3FD
330
1F
100
AcDbEntity
  8
Calm 815
  6
Continuous
 62
    18
420
        0
 48
0.9999999962747097
370
    25
100
AcDbEllipse
 10
37262.11223566551
 20
-18891.54140746034
 30
0.0
 11
4.296173979695944E-15
 21
70.16416281503437
 31
0.0
210
0.0
220
0.0
230
1.0
 40
0.9945300845350575
 41
4.89847171887193
 42
5.052301887853784
  0
ELLIPSE
  5
3FE
330
1F
100
AcDbEntity
  8
Calm 815
  6
Continuous
 62
    18
420
        0
 48
0.9999999962747097
370
    25
100
AcDbEllipse
 10
37303.2479713488
 20
-18877.7182945932
 30
0.0
 11
1.626943532267010E-15
 21
26.57088177256002
 31
0.0
210
0.0
220
0.0
230
1.0
 40
0.9945300845350572
 41
5.080836469720111
 42
5.914731224378098
  0
ELLIPSE
  5
3FF
330
1F
100
AcDbEntity
  8
Calm 815
  6
Continuous
 62
    18
420
        0
 48
0.9999999962747097
370
    25
100
AcDbEllipse
 10
37295.65711464616
 20
-18898.06822760697
 30
0.0
 11
2.957703018660002E-15
 21
48.30455124502811
 31
0.0
210
0.0
220
0.0
230
1.0
 40
0.9945300845350572
 41
5.919061337770931
 42
6.027922225910521
  0
ELLIPSE
  5
400
330
1F
100
AcDbEntity
  8
Calm 815
  6
Continuous
 62
    18
420
        0
 48
0.9999999962747097
370
    25
100
AcDbEllipse
 10
37293.42302908036
 20
-18902.35396317613
 30
0.0
 11
3.247035035592395E-15
 21
53.02985772460495
 31
0.0
210
0.0
220
0.0
230
1.0
 40
0.9945300845350568
 41
6.007339218672177
 42
6.195727246213096
  0
ELLIPSE
  5
401
330
1F
100
AcDbEntity
  8
Calm 815
  6
Continuous
 62
    18
420
        0
 48
0.9999999962747097
370
    25
100
AcDbEllipse
 10
37187.5879256787
 20
-18808.6396815605
 30
0.0
 11
7.247645431359315E-17
 21
1.183669414867424
 31
0.0
210
0.0
220
0.0
230
1.0
 40
0.9945300845350571
 41
0.623234338125483
 42
1.546927640276968
  0
ELLIPSE
  5
402
330
1F
100
AcDbEntity
  8
Calm 815
  6
Continuous
 62
    18
420
        0
 48
0.9999999962747097
370
    25
100
AcDbEllipse
 10
37187.16978786913
 20
-18810.41357596843
 30
0.0
 11
4.671146310465226E-17
 21
0.7628812795042464
 31
0.0
210
0.0
220
0.0
230
1.0
 40
0.9945300845350572
 41
1.570796326794896
 42
2.39971180254097
  0
ELLIPSE
  5
403
330
1F
100
AcDbEntity
  8
Calm 815
  6
Continuous
 62
    18
420
        0
 48
0.9999999962747097
370
    25
100
AcDbEllipse
 10
37185.58917320201
 20
-18812.14758104383
 30
0.0
 11
9.731554813469219E-17
 21
1.58933599896718
 31
0.0
210
0.0
220
0.0
230
1.0
 40
0.9945300845350572
 41
4.71238898038469
 42
5.541304456130873
  0
ELLIPSE
  5
404
330
1F
100
AcDbEntity
  8
Calm 815
  6
Continuous
 62
    18
420
        0
 48
0.9999999962747097
370
    25
100
AcDbEllipse
 10
37191.97376923957
 20
-18820.67363235652
 30
0.0
 11
3.424794107140360E-16
 21
-5.593297954808928
 31
0.0
210
0.0
220
0.0
230
1.0
 40
0.9945300845350572
 41
5.2408186819084
 42
6.15883030708679
  0
ELLIPSE
  5
405
330
1F
100
AcDbEntity
  8
Calm 815
  6
Continuous
 62
    18
420
        0
 48
0.9999999962747097
370
    25
100
AcDbEllipse
 10
37293.42302908036
 20
-18902.35396317613
 30
0.0
 11
3.247035035592395E-15
 21
53.02985772460495
 31
0.0
210
0.0
220
0.0
230
1.0
 40
0.9945300845350568
 41
6.007339218672177
 42
6.195727246213096
  0
ELLIPSE
  5
406
330
1F
100
AcDbEntity
  8
Calm 815
  6
Continuous
 62
    18
420
        0
 48
0.9999999962747097
370
    25
100
AcDbEllipse
 10
37295.65711464616
 20
-18898.06822760697
 30
0.0
 11
2.957703018660002E-15
 21
48.30455124502811
 31
0.0
210
0.0
220
0.0
230
1.0
 40
0.9945300845350572
 41
5.919061337770931
 42
6.027922225910521
  0
ELLIPSE
  5
407
330
1F
100
AcDbEntity
  8
Calm 815
  6
Continuous
 62
    18
420
        0
 48
0.9999999962747097
370
    25
100
AcDbEllipse
 10
37303.2479713488
 20
-18877.7182945932
 30
0.0
 11
1.626943532267010E-15
 21
26.57088177256002
 31
0.0
210
0.0
220
0.0
230
1.0
 40
0.9945300845350572
 41
5.080836469720113
 42
5.914731224378098
  0
ELLIPSE
  5
408
330
1F
100
AcDbEntity
  8
Calm 815
  6
Continuous
 62
    18
420
        0
 48
0.9999999962747097
370
    25
100
AcDbEllipse
 10
37262.11223566551
 20
-18891.54140746034
 30
0.0
 11
4.296173979695944E-15
 21
70.16416281503437
 31
0.0
210
0.0
220
0.0
230
1.0
 40
0.9945300845350575
 41
4.89847171887193
 42
5.052301887853784
  0
ELLIPSE
  5
409
330
1F
100
AcDbEntity
  8
Calm 815
  6
Continuous
 62
    18
420
        0
 48
0.9999999962747097
370
    25
100
AcDbEllipse
 10
37271.94475474727
 20
-18890.43755695207
 30
0.0
 11
3.689041897109114E-15
 21
60.2486159833234
 31
0.0
210
0.0
220
0.0
230
1.0
 40
0.9945300845350572
 41
4.808679522437739
 42
4.910826371351747
  0
ELLIPSE
  5
40A
330
1F
100
AcDbEntity
  8
Calm 815
  6
Continuous
 62
    18
420
        0
 48
0.9999999962747097
370
    25
100
AcDbEllipse
 10
37334.73223612646
 20
-18884.33961535996
 30
0.0
 11
1.945905742693387E-16
 21
3.178010201595982
 31
0.0
210
0.0
220
0.0
230
1.0
 40
0.9945300845350572
 41
1.667086723403858
 42
2.356189642055552
  0
ELLIPSE
  5
40B
330
1F
100
AcDbEntity
  8
Calm 815
  6
Continuous
 62
    18
420
        0
 48
0.9999999962747097
370
    25
100
AcDbEllipse
 10
37344.12625889652
 20
-18893.89583631019
 30
0.0
 11
1.898170069985249E-16
 21
-3.100049357183997
 31
0.0
210
0.0
220
0.0
230
1.0
 40
0.9945300845350572
 41
5.488606033177484
 42
6.187266083924913
  0
ELLIPSE
  5
40C
330
1F
100
AcDbEntity
  8
Calm 815
  6
Continuous
 62
    18
420
        0
 48
0.9999999962747097
370
    25
100
AcDbEllipse
 10
37348.68779754957
 20
-18894.21630904567
 30
0.0
 11
1.945905742693387E-16
 21
-3.178010201595982
 31
0.0
210
0.0
220
0.0
230
1.0
 40
0.9945300845350572
 41
6.19644229791135
 42
7.853981633974483
  0
ELLIPSE
  5
40D
330
1F
100
AcDbEntity
  8
Calm 815
  6
Continuous
 62
    18
420
        0
 48
0.9999999962747097
370
    25
100
AcDbEllipse
 10
37350.33132346188
 20
-18881.93374675235
 30
0.0
 11
9.340347564928252E-17
 21
1.525444896766071
 31
0.0
210
0.0
220
0.0
230
1.0
 40
0.9945300845350572
 41
4.71238898038469
 42
5.951575221850449
  0
ELLIPSE
  5
40E
330
1F
100
AcDbEntity
  8
Calm 815
  6
Continuous
 62
    18
420
        0
 48
0.9999999962747097
370
    25
100
AcDbEllipse
 10
37350.20019361688
 20
-18871.87216510981
 30
0.0
 11
4.864764356733463E-16
 21
7.94502550398995
 31
0.0
210
0.0
220
0.0
230
1.0
 40
0.9945300845350572
 41
1.750293113831114
 42
2.809980532043178
  0
ELLIPSE
  5
40F
330
1F
100
AcDbEntity
  8
Calm 815
  6
Continuous
 62
    18
420
        0
 48
0.9999999962747097
370
    25
100
AcDbEllipse
 10
37303.28793509091
 20
-18880.43119751205
 30
0.0
 11
2.448935883184503E-15
 21
39.99547896416856
 31
0.0
210
0.0
220
0.0
230
1.0
 40
0.9945300845350574
 41
4.891885767420898
 42
5.198636158586531
  0
ELLIPSE
  5
410
330
1F
100
AcDbEntity
  8
Calm 815
  6
Continuous
 62
    18
420
        0
 48
0.9999999962747097
370
    25
100
AcDbEllipse
 10
37307.08987301999
 20
-18876.81289200567
 30
0.0
 11
2.140207842190180E-15
 21
34.95340091140187
 31
0.0
210
0.0
220
0.0
230
1.0
 40
0.9945300845350572
 41
5.158215448181809
 42
5.738155730658784
  0
ELLIPSE
  5
411
330
1F
100
AcDbEntity
  8
Calm 815
  6
Continuous
 62
    18
420
        0
 48
0.9999999962747097
370
    25
100
AcDbEllipse
 10
37289.82136416197
 20
-18910.88430631363
 30
0.0
 11
4.478660987564203E-15
 21
73.14450024834363
 31
0.0
210
0.0
220
0.0
230
1.0
 40
0.9945300845350571
 41
5.776669523411599
 42
5.862391612030139
  0
ELLIPSE
  5
412
330
1F
100
AcDbEntity
  8
Calm 815
  6
Continuous
 62
    18
420
        0
 48
0.9999999962747097
370
    25
100
AcDbEllipse
 10
37302.90564728899
 20
-18883.25889106183
 30
0.0
 11
2.606024529942705E-15
 21
42.56101598376478
 31
0.0
210
0.0
220
0.0
230
1.0
 40
0.9945300845350572
 41
5.879403142323857
 42
6.086615854844474
  0
ELLIPSE
  5
413
330
1F
100
AcDbEntity
  8
Calm 815
  6
Continuous
 62
    18
420
        0
 48
0.9999999962747097
370
    25
100
AcDbEllipse
 10
37277.65231478513
 20
-19001.86389311788
 30
0.0
 11
1.003261493647822E-14
 21
163.850447209641
 31
0.0
210
0.0
220
0.0
230
1.0
 40
0.9945300845350572
 41
6.076002556144463
 42
6.130659093074445
  0
ELLIPSE
  5
414
330
1F
100
AcDbEntity
  8
Calm 815
  6
Continuous
 62
    18
420
        0
 48
0.9999999962747097
370
    25
100
AcDbEllipse
 10
23167.31534400909
 20
-135009.3585620571
 30
0.0
 11
7.166130255979526E-12
 21
117035.6536794343
 31
0.0
210
0.0
220
0.0
230
1.0
 40
0.9945300845350571
 41
6.161444567899427
 42
6.16222186967435
  0
ELLIPSE
  5
415
330
1F
100
AcDbEntity
  8
Calm 815
  6
Continuous
 62
    18
420
        0
 48
0.9999999962747097
370
    25
100
AcDbEllipse
 10
37191.97376923957
 20
-18820.67363235652
 30
0.0
 11
3.424794107140360E-16
 21
-5.593297954808928
 31
0.0
210
0.0
220
0.0
230
1.0
 40
0.9945300845350572
 41
5.240818681908392
 42
6.158830307086773
  0
ELLIPSE
  5
416
330
1F
100
AcDbEntity
  8
Calm 815
  6
Continuous
 62
    18
420
        0
 48
0.9999999962747097
370
    25
100
AcDbEllipse
 10
37185.58917320201
 20
-18812.14758104383
 30
0.0
 11
9.731554813469219E-17
 21
1.58933599896718
 31
0.0
210
0.0
220
0.0
230
1.0
 40
0.9945300845350572
 41
4.71238898038469
 42
5.541304456130873
  0
ELLIPSE
  5
417
330
1F
100
AcDbEntity
  8
Calm 815
  6
Continuous
 62
    18
420
        0
 48
0.9999999962747097
370
    25
100
AcDbEllipse
 10
37187.16978786913
 20
-18810.41357596843
 30
0.0
 11
4.671146310465226E-17
 21
0.7628812795042464
 31
0.0
210
0.0
220
0.0
230
1.0
 40
0.9945300845350572
 41
1.570796326794896
 42
2.39971180254097
  0
ELLIPSE
  5
418
330
1F
100
AcDbEntity
  8
Calm 815
  6
Continuous
 62
    18
420
        0
 48
0.9999999962747097
370
    25
100
AcDbEllipse
 10
37187.5879256787
 20
-18808.6396815605
 30
0.0
 11
7.247645431359315E-17
 21
1.183669414867424
 31
0.0
210
0.0
220
0.0
230
1.0
 40
0.9945300845350571
 41
0.623234338125483
 42
1.546927640276968
  0
ELLIPSE
  5
419
330
1F
100
AcDbEntity
  8
Calm 815
  6
Continuous
 62
    18
420
        0
 48
0.9999999962747097
370
    25
100
AcDbEllipse
 10
37147.03537545893
 20
-19046.88712851083
 30
0.0
 11
1.000701800956795E-14
 21
-163.4324038632159
 31
0.0
210
0.0
220
0.0
230
1.0
 40
0.9945300845350566
 41
0.588944630013489
 42
0.779192936130191
  0
ELLIPSE
  5
41A
330
1F
100
AcDbEntity
  8
Calm 815
  6
Continuous
 62
    18
420
        0
 48
0.9999999962747097
370
    25
100
AcDbEllipse
 10
37180.02447695751
 20
-19095.01094136819
 30
0.0
 11
6.428808685715030E-15
 21
-104.99388094221
 31
0.0
210
0.0
220
0.0
230
1.0
 40
0.9945300845350573
 41
0.2813489661948425
 42
0.5808467386165476
  0
ELLIPSE
  5
41B
330
1F
100
AcDbEntity
  8
Calm 815
  6
Continuous
 62
    18
420
        0
 48
0.9999999962747097
370
    25
100
AcDbEllipse
 10
37115.10619762397
 20
-18638.29674734982
 30
0.0
 11
3.463918247525045E-14
 21
-565.7194635179017
 31
0.0
210
0.0
220
0.0
230
1.0
 40
0.9945300845350572
 41
0.104455604237167
 42
0.1195558927058287
  0
ELLIPSE
  5
41C
330
1F
100
AcDbEntity
  8
Calm 815
  6
Continuous
 62
    18
420
        0
 48
0.9999999962747097
370
    25
100
AcDbEllipse
 10
37187.55577592948
 20
-19226.4179020878
 30
0.0
 11
7.052961011235777E-17
 21
-1.151873986154211
 31
0.0
210
0.0
220
0.0
230
1.0
 40
0.9945300845350571
 41
4.751219744322272
 42
5.674913046473612
  0
ELLIPSE
  5
41D
330
1F
100
AcDbEntity
  8
Calm 815
  6
Continuous
 62
    18
420
        0
 48
0.9999999962747097
370
    25
100
AcDbEllipse
 10
37187.16978786913
 20
-19224.66047463291
 30
0.0
 11
4.671146310465226E-17
 21
0.7628812795042464
 31
0.0
210
0.0
220
0.0
230
1.0
 40
0.9945300845350572
 41
0.7418808510488242
 42
1.570796326794896
  0
ELLIPSE
  5
41E
330
1F
100
AcDbEntity
  8
Calm 815
  6
Continuous
 62
    18
420
        0
 48
0.9999999962747097
370
    25
100
AcDbEllipse
 10
37185.58917320201
 20
-19222.92646955751
 30
0.0
 11
9.731554813469219E-17
 21
1.58933599896718
 31
0.0
210
0.0
220
0.0
230
1.0
 40
0.9945300845350572
 41
3.883473504638506
 42
4.71238898038469
  0
ELLIPSE
  5
41F
330
1F
100
AcDbEntity
  8
Calm 815
  6
Continuous
 62
    18
420
        0
 48
0.9999999962747097
370
    25
100
AcDbEllipse
 10
37192.12710697187
 20
-19211.7547760099
 30
0.0
 11
3.434446065333730E-16
 21
-5.6090613193599
 31
0.0
210
0.0
220
0.0
230
1.0
 40
0.9945300845350572
 41
0.0545554532774674
 42
1.450818854872962
  0
ELLIPSE
  5
420
330
1F
100
AcDbEntity
  8
Calm 815
  6
Continuous
 62
    18
420
        0
 48
0.9999999962747097
370
    25
100
AcDbEllipse
 10
37203.18956520126
 20
-19213.08344059432
 30
0.0
 11
3.424794107140356E-16
 21
-5.593297954808921
 31
0.0
210
0.0
220
0.0
230
1.0
 40
0.9945300845350572
 41
3.268531759084286
 42
4.594600490714299
  0
ELLIPSE
  5
421
330
1F
100
AcDbEntity
  8
Calm 815
  6
Continuous
 62
    18
420
        0
 48
0.9999999962747097
370
    25
100
AcDbEllipse
 10
37162.79622874952
 20
-19061.09600535941
 30
0.0
 11
9.433530758589402E-15
 21
-154.0663369766851
 31
0.0
210
0.0
220
0.0
230
1.0
 40
0.9945300845350571
 41
0.5077331024398848
 42
0.8748096841292338
  0
ELLIPSE
  5
422
330
1F
100
AcDbEntity
  8
Calm 815
  6
Continuous
 62
    18
420
        0
 48
0.9999999962747097
370
    25
100
AcDbEllipse
 10
37085.82918340668
 20
-18990.83358776313
 30
0.0
 11
1.583057339706360E-14
 21
-258.5414218642825
 31
0.0
210
0.0
220
0.0
230
1.0
 40
0.9945300845350574
 41
0.8581670970468422
 42
1.063508913572055
  0
ELLIPSE
  5
423
330
1F
100
AcDbEntity
  8
Calm 815
  6
Continuous
 62
    18
420
        0
 48
0.9999999962747097
370
    25
100
AcDbEllipse
 10
37073.06114948953
 20
-18985.01102377009
 30
0.0
 11
1.669101506783360E-14
 21
-272.5939648399789
 31
0.0
210
0.0
220
0.0
230
1.0
 40
0.9945300845350568
 41
1.067718938616074
 42
1.189694957975674
  0
ELLIPSE
  5
424
330
1F
100
AcDbEntity
  8
Calm 815
  6
Continuous
 62
    18
420
        0
 48
0.9999999962747097
370
    25
100
AcDbEllipse
 10
37098.79450470936
 20
-18995.38476793918
 30
0.0
 11
1.498410050053498E-14
 21
-244.7170138186028
 31
0.0
210
0.0
220
0.0
230
1.0
 40
0.9945300845350572
 41
1.189717453330478
 42
1.42665768026116
  0
ELLIPSE
  5
425
330
1F
100
AcDbEntity
  8
Calm 815
  6
Continuous
 62
    18
420
        0
 48
0.9999999962747097
370
    25
100
AcDbEllipse
 10
37140.06251522218
 20
-19001.48812639324
 30
0.0
 11
1.241601815609506E-14
 21
-202.7756612129408
 31
0.0
210
0.0
220
0.0
230
1.0
 40
0.9945300845350552
 41
1.427050815675171
 42
1.517378149450572
  0
ELLIPSE
  5
426
330
1F
100
AcDbEntity
  8
Calm 815
  6
Continuous
 62
    18
420
        0
 48
0.9999999962747097
370
    25
100
AcDbEllipse
 10
40484.70253026005
 20
-19161.308345924
 30
0.0
 11
1.937363417110042E-13
 21
3164.059064470682
 31
0.0
210
0.0
220
0.0
230
1.0
 40
0.9945300845350562
 41
1.512029103144155
 42
1.523689550913992
  0
ELLIPSE
  5
427
330
1F
100
AcDbEntity
  8
Calm 815
  6
Continuous
 62
    18
420
        0
 48
0.9999999962747097
370
    25
100
AcDbEllipse
 10
37408.06333555467
 20
-18975.27990506592
 30
0.0
 11
3.982208053296770E-15
 21
-65.03654077683103
 31
0.0
210
0.0
220
0.0
230
1.0
 40
0.9945300845350569
 41
4.599439319102721
 42
4.715348525501021
  0
ELLIPSE
  5
428
330
1F
100
AcDbEntity
  8
Calm 815
  6
Continuous
 62
    18
420
        0
 48
0.9999999962747097
370
    25
100
AcDbEllipse
 10
37351.64590518287
 20
-18968.84514074073
 30
0.0
 11
4.864764356733464E-16
 21
-7.945025503989951
 31
0.0
210
0.0
220
0.0
230
1.0
 40
0.9945300845350572
 41
3.473205017543237
 42
4.599439319102716
  0
ELLIPSE
  5
429
330
1F
100
AcDbEntity
  8
Calm 815
  6
Continuous
 62
    18
420
        0
 48
0.9999999962747097
370
    25
100
AcDbEllipse
 10
37350.33132346188
 20
-18959.28414182881
 30
0.0
 11
9.340347564928252E-17
 21
1.525444896766071
 31
0.0
210
0.0
220
0.0
230
1.0
 40
0.9945300845350572
 41
3.473205308431456
 42
4.71238898038469
  0
ELLIPSE
  5
42A
330
1F
100
AcDbEntity
  8
Calm 815
  6
Continuous
 62
    18
420
        0
 48
0.9999999962747097
370
    25
100
AcDbEllipse
 10
37348.68779754957
 20
-18947.20181132418
 30
0.0
 11
1.945905742693387E-16
 21
3.178010201595982
 31
0.0
210
0.0
220
0.0
230
1.0
 40
0.9945300845350562
 41
4.71238898038469
 42
6.369902815248183
  0
ELLIPSE
  5
42B
330
1F
100
AcDbEntity
  8
Calm 815
  6
Continuous
 62
    18
420
        0
 48
0.9999999962747097
370
    25
100
AcDbEllipse
 10
37343.93518089854
 20
-18947.61999861301
 30
0.0
 11
1.947585803681581E-16
 21
3.18075404002692
 31
0.0
210
0.0
220
0.0
230
1.0
 40
0.9945300845350568
 41
0.0841433413473733
 42
0.72411640510826
  0
ELLIPSE
  5
42C
330
1F
100
AcDbEntity
  8
Calm 815
  6
Continuous
 62
    18
420
        0
 48
0.9999999962747097
370
    25
100
AcDbEllipse
 10
37334.7800303762
 20
-18956.83006595838
 30
0.0
 11
1.945905742693388E-16
 21
3.178010201595984
 31
0.0
210
0.0
220
0.0
230
1.0
 40
0.9945300845350562
 41
0.7853981633974685
 42
1.521283905428348
  0
ELLIPSE
  5
42D
330
1F
100
AcDbEntity
  8
Calm 815
  6
Continuous
 62
    18
420
        0
 48
0.9999999962747097
370
    25
100
AcDbEllipse
 10
54108.88146445213
 20
-19792.60748019866
 30
0.0
 11
1.034194265938525E-12
 21
16890.23191347135
 31
0.0
210
0.0
220
0.0
230
1.0
 40
0.9945300845350569
 41
1.521283905428327
 42
1.522422005544731
  0
ELLIPSE
  5
42E
330
1F
100
AcDbEntity
  8
Calm 815
  6
Continuous
 62
    18
420
        0
 48
0.9999999962747097
370
    25
100
AcDbEllipse
 10
4016.243773530583
 20
-17309.57203612114
 30
0.0
 11
-1.284073963038532E-11
 21
-33539.09206072323
 31
0.0
210
0.0
220
0.0
230
1.0
 40
0.9945300845350573
 41
1.520023535301547
 42
1.521093519095755
  0
ELLIPSE
  5
42F
330
1F
100
AcDbEntity
  8
Calm 815
  6
Continuous
 62
    18
420
        0
 48
0.9999999962747097
370
    25
100
AcDbEllipse
 10
38850.708137752
 20
-19149.47424184031
 30
0.0
 11
9.407248817376690E-14
 21
1536.371061282467
 31
0.0
210
0.0
220
0.0
230
1.0
 40
0.9945300845350572
 41
1.481009802680772
 42
1.488596894383295
  0
ELLIPSE
  5
430
330
1F
100
AcDbEntity
  8
Calm 815
  6
Continuous
 62
    18
420
        0
 48
0.9999999962747097
370
    25
100
AcDbEllipse
 10
37094.55629779161
 20
-18994.96986356421
 30
0.0
 11
1.447084344672334E-14
 21
-236.3346131849689
 31
0.0
210
0.0
220
0.0
230
1.0
 40
0.9945300845350572
 41
1.190044266232914
 42
1.450516670505498
  0
ELLIPSE
  5
431
330
1F
100
AcDbEntity
  8
Calm 815
  6
Continuous
 62
    18
420
        0
 48
0.9999999962747097
370
    25
100
AcDbEllipse
 10
37051.81177397747
 20
-18976.58151058916
 30
0.0
 11
1.733257972136232E-14
 21
-283.0718568013623
 31
0.0
210
0.0
220
0.0
230
1.0
 40
0.9945300845350568
 41
1.06459159948471
 42
1.186160278389441
  0
ELLIPSE
  5
432
330
1F
100
AcDbEntity
  8
Calm 815
  6
Continuous
 62
    18
420
        0
 48
0.9999999962747097
370
    25
100
AcDbEllipse
 10
37116.30118606106
 20
-19015.38919116544
 30
0.0
 11
1.270887304288116E-14
 21
-207.5585024234574
 31
0.0
210
0.0
220
0.0
230
1.0
 40
0.9945300845350568
 41
0.7784860293017652
 42
1.076638831609336
  0
ELLIPSE
  5
433
330
1F
100
AcDbEntity
  8
Calm 815
  6
Continuous
 62
    18
420
        0
 48
0.9999999962747097
370
    25
100
AcDbEllipse
 10
37190.72446340459
 20
-19114.71374181241
 30
0.0
 11
5.729425874925220E-15
 21
-93.57171562995569
 31
0.0
210
0.0
220
0.0
230
1.0
 40
0.9945300845350558
 41
0.1267188061577913
 42
0.3104659062549186
  0
ELLIPSE
  5
434
330
1F
100
AcDbEntity
  8
Calm 815
  6
Continuous
 62
    18
420
        0
 48
0.9999999962747097
370
    25
100
AcDbEllipse
 10
37190.72446340459
 20
-19114.71374181241
 30
0.0
 11
5.729425874925220E-15
 21
-93.57171562995569
 31
0.0
210
0.0
220
0.0
230
1.0
 40
0.9945300845350558
 41
0.310388917842358
 42
0.5240798562140634
  0
ELLIPSE
  5
435
330
1F
100
AcDbEntity
  8
Calm 815
  6
Continuous
 62
    18
420
        0
 48
0.9999999962747097
370
    25
100
AcDbEllipse
 10
37180.02406255691
 20
-19095.39100117083
 30
0.0
 11
-57.27094612414361
 21
87.73270991521603
 31
0.0
210
0.0
220
0.0
230
1.0
 40
0.9945300845350573
 41
2.581703195907878
 42
2.789639889980158
  0
ELLIPSE
  5
436
330
1F
100
AcDbEntity
  8
Calm 815
  6
Continuous
 62
    18
420
        0
 48
0.9999999962747097
370
    25
100
AcDbEllipse
 10
36607.97204839032
 20
-19380.67807882202
 30
0.0
 11
-201.345910720783
 21
-2.465694815848240E-14
 31
0.0
210
0.0
220
0.0
230
1.0
 40
0.9942334460131238
 41
0.7235235749390032
 42
1.0109143377092
  0
ELLIPSE
  5
437
330
1F
100
AcDbEntity
  8
Calm 815
  6
Continuous
 62
    18
420
        0
 48
0.9999999962747097
370
    25
100
AcDbEllipse
 10
36403.29726621954
 20
-19427.77571682618
 30
0.0
 11
-1.525169924555935
 21
-1.867732780269993E-16
 31
0.0
210
0.0
220
0.0
230
1.0
 40
0.9942334460131239
 41
4.719013329079201
 42
6.158832246341516
  0
ELLIPSE
  5
438
330
1F
100
AcDbEntity
  8
Calm 815
  6
Continuous
 62
    18
420
        0
 48
0.9999999962747097
370
    25
100
AcDbEllipse
 10
36621.22421715162
 20
-19366.04949212661
 30
0.0
 11
-231.112101378106
 21
-2.830213477928700E-14
 31
0.0
210
0.0
220
0.0
230
1.0
 40
0.9942334460131238
 41
0.9963520439810426
 42
1.107124691579395
  0
ELLIPSE
  5
439
330
1F
100
AcDbEntity
  8
Calm 815
  6
Continuous
 62
    18
420
        0
 48
0.9999999962747097
370
    25
100
AcDbEllipse
 10
36607.48088296084
 20
-19386.95021660516
 30
0.0
 11
-206.1834856718769
 21
-2.524936066070255E-14
 31
0.0
210
0.0
220
0.0
230
1.0
 40
0.9942334460131238
 41
1.12114429120288
 42
1.180699143159951
  0
ELLIPSE
  5
43A
330
1F
100
AcDbEntity
  8
Calm 815
  6
Continuous
 62
    18
420
        0
 48
0.9999999962747097
370
    25
100
AcDbEllipse
 10
36564.15537731358
 20
-19472.7513757194
 30
0.0
 11
-98.89400251875207
 21
-1.211062238393900E-14
 31
0.0
210
0.0
220
0.0
230
1.0
 40
0.994233446013124
 41
1.092722428517412
 42
1.212418126727911
  0
ELLIPSE
  5
43B
330
1F
100
AcDbEntity
  8
Calm 815
  6
Continuous
 62
    18
420
        0
 48
0.9999999962747097
370
    25
100
AcDbEllipse
 10
36608.84972247548
 20
-19378.40288203766
 30
0.0
 11
-203.7515732933476
 21
-2.495154712563392E-14
 31
0.0
210
0.0
220
0.0
230
1.0
 40
0.9942334460131238
 41
1.013229226073762
 42
1.112234288408711
  0
ELLIPSE
  5
43C
330
1F
100
AcDbEntity
  8
Calm 815
  6
Continuous
 62
    18
420
        0
 48
0.9999999962747097
370
    25
100
AcDbEllipse
 10
36403.29726621954
 20
-19427.77571682618
 30
0.0
 11
-1.525169924555935
 21
-1.867732780269993E-16
 31
0.0
210
0.0
220
0.0
230
1.0
 40
0.9942334460131239
 41
4.719013329079201
 42
6.158832246341516
  0
ELLIPSE
  5
43D
330
1F
100
AcDbEntity
  8
Calm 815
  6
Continuous
 62
    18
420
        0
 48
0.9999999962747097
370
    25
100
AcDbEllipse
 10
41154.03909023412
 20
-18894.41527282953
 30
0.0
 11
-4756.229037569386
 21
-5.824508299641960E-13
 31
0.0
210
0.0
220
0.0
230
1.0
 40
0.9942334460131237
 41
0.1126729781141577
 42
0.11707949814313
  0
LWPOLYLINE
  5
43E
330
1F
100
AcDbEntity
  8
Calm 815
  6
Continuous
 62
    18
420
        0
 48
0.9999999962747097
370
    25
100
AcDbPolyline
 90
        2
 70
     0
 43
0.0
 10
36972.35487660417
 20
-19426.25932114736
 10
36947.673255731
 20
-19426.09683977557
  0
LWPOLYLINE
  5
43F
330
1F
100
AcDbEntity
  8
Calm 815
  6
Continuous
 62
    18
420
        0
 48
0.9999999962747097
370
    25
100
AcDbPolyline
 90
        2
 70
     0
 43
0.0
 10
37332.49734024268
 20
-18886.5867862987
 10
37341.92622032326
 20
-18896.06769109854
  0
LWPOLYLINE
  5
440
330
1F
100
AcDbEntity
  8
Calm 815
  6
Continuous
 62
    18
420
        0
 48
0.9999999962747097
370
    25
100
AcDbPolyline
 90
        2
 70
     0
 43
0.0
 10
37343.83102538093
 20
-18896.98162534938
 10
37348.41390291002
 20
-18897.38241578277
  0
LWPOLYLINE
  5
441
330
1F
100
AcDbEntity
  8
Calm 815
  6
Continuous
 62
    18
420
        0
 48
0.9999999962747097
370
    25
100
AcDbPolyline
 90
        2
 70
     0
 43
0.0
 10
37351.84843480901
 20
-18894.21631142566
 10
37351.84843480901
 20
-18881.93377544615
  0
LWPOLYLINE
  5
442
330
1F
100
AcDbEntity
  8
Calm 815
  6
Continuous
 62
    18
420
        0
 48
0.9999999962747097
370
    25
100
AcDbPolyline
 90
        2
 70
     0
 43
0.0
 10
37350.82524864771
 20
-18880.49139010466
 10
37347.62772936398
 20
-18879.38436410734
  0
LWPOLYLINE
  5
443
330
1F
100
AcDbEntity
  8
Calm 815
  6
Continuous
 62
    18
420
        0
 48
0.9999999962747097
370
    25
100
AcDbPolyline
 90
        3
 70
     0
 43
0.0
 10
37212.6018725696
 20
-18828.90317824909
 10
37212.600271809
 20
-18828.90297815401
 10
37191.2838434251
 20
-18826.22370511214
  0
LWPOLYLINE
  5
444
330
1F
100
AcDbEntity
  8
Calm 815
  6
Continuous
 62
    18
420
        0
 48
0.9999999962747097
370
    25
100
AcDbPolyline
 90
        2
 70
     0
 43
0.0
 10
37187.16978865458
 20
-18823.49360792145
 10
37187.16978865458
 20
-18812.14761693614
  0
LWPOLYLINE
  5
445
330
1F
100
AcDbEntity
  8
Calm 815
  6
Continuous
 62
    18
420
        0
 48
0.9999999962747097
370
    25
100
AcDbPolyline
 90
        2
 70
     0
 43
0.0
 10
37186.41102813367
 20
-18810.4135930242
 10
37186.41102813367
 20
-18808.61143673954
  0
LWPOLYLINE
  5
446
330
1F
100
AcDbEntity
  8
Calm 815
  6
Continuous
 62
    18
420
        0
 48
0.9999999962747097
370
    25
100
AcDbPolyline
 90
        2
 70
     0
 43
0.0
 10
36403.28714505274
 20
-19426.25932114736
 10
36427.96876592589
 20
-19426.09683977557
  0
LINE
  5
447
330
1F
100
AcDbEntity
  8
Calm 815
  6
Continuous
 62
    18
420
        0
 48
755.9999786376953
370
    25
100
AcDbLine
 10
38017.53584427306
 20
-19935.33520455484
 30
0.0
 11
38017.53584427306
 21
-19489.83520455484
 31
0.0
  0
LINE
  5
448
330
1F
100
AcDbEntity
  8
Calm 815
  6
Continuous
 62
    18
420
        0
 48
755.9999786376953
370
    25
100
AcDbLine
 10
37269.53584427306
 20
-19935.33520455484
 30
0.0
 11
37269.53584427306
 21
-19709.83520455485
 31
0.0
  0
LINE
  5
449
330
1F
100
AcDbEntity
  8
Calm 815
  6
Continuous
 62
    18
420
        0
 48
50.00000038146973
370
    25
100
AcDbLine
 10
37269.53584427306
 20
-19709.83520455485
 30
0.0
 11
38017.53584427306
 21
-19709.83520455485
 31
0.0
  0
LINE
  5
44A
330
1F
100
AcDbEntity
  8
Calm 815
  6
Continuous
 62
    18
420
        0
 48
134.9999961853027
370
    25
100
AcDbLine
 10
37400.55753496068
 20
-19769.61777105831
 30
0.0
 11
37459.80853130149
 21
-19769.61393514153
 31
0.0
  0
LINE
  5
44B
330
1F
100
AcDbEntity
  8
Calm 815
  6
Continuous
 62
    18
420
        0
 48
134.9999961853027
370
    25
100
AcDbLine
 10
37392.90207606292
 20
-19788.13240237542
 30
0.0
 11
37467.46047209221
 21
-19788.13016527914
 31
0.0
  0
LINE
  5
44C
330
1F
100
AcDbEntity
  8
Calm 815
  6
Continuous
 62
    18
420
        0
 48
134.9999961853027
370
    25
100
AcDbLine
 10
37465.10342452638
 20
-19778.87588987808
 30
0.0
 11
37395.26194903778
 21
-19778.87369821977
 31
0.0
  0
LINE
  5
44D
330
1F
100
AcDbEntity
  8
Calm 815
  6
Continuous
 62
    18
420
        0
 48
134.9999961853027
370
    25
100
AcDbLine
 10
37395.26578525515
 20
-19806.52294058952
 30
0.0
 11
37465.10256935925
 21
-19806.51703297948
 31
0.0
  0
LINE
  5
44E
330
1F
100
AcDbEntity
  8
Calm 815
  6
Continuous
 62
    18
420
        0
 48
134.9999961853027
370
    25
100
AcDbLine
 10
37467.46244182799
 20
-19797.25598400576
 30
0.0
 11
37392.90404630481
 21
-19797.26056592011
 31
0.0
  0
LINE
  5
44F
330
1F
100
AcDbEntity
  8
Calm 815
  6
Continuous
 62
    18
420
        0
 48
134.9999961853027
370
    25
100
AcDbLine
 10
37459.81167385464
 20
-19815.77658293845
 30
0.0
 11
37400.55577388425
 21
-19815.77658293845
 31
0.0
  0
LINE
  5
450
330
1F
100
AcDbEntity
  8
Calm 815
  6
Continuous
 62
    18
420
        0
 48
134.9999961853027
370
    25
100
AcDbLine
 10
37473.33937467105
 20
-19815.86212668582
 30
0.0
 11
37510.09141548172
 21
-19815.86357332121
 31
0.0
  0
LINE
  5
451
330
1F
100
AcDbEntity
  8
Calm 815
  6
Continuous
 62
    18
420
        0
 48
134.9999961853027
370
    25
100
AcDbLine
 10
37510.08773749364
 20
-19787.95981156323
 30
0.0
 11
37487.08890754564
 21
-19787.9566753978
 31
0.0
  0
LINE
  5
452
330
1F
100
AcDbEntity
  8
Calm 815
  6
Continuous
 62
    18
420
        0
 48
134.9999961853027
370
    25
100
AcDbLine
 10
37486.87984054109
 20
-19779.29133839392
 30
0.0
 11
37523.83694556726
 21
-19779.28911695791
 31
0.0
  0
LINE
  5
453
330
1F
100
AcDbEntity
  8
Calm 815
  6
Continuous
 62
    18
420
        0
 48
134.9999961853027
370
    25
100
AcDbLine
 10
37523.83694556726
 20
-19779.28911695791
 30
0.0
 11
37523.83934845767
 21
-19769.68218323208
 31
0.0
  0
LINE
  5
454
330
1F
100
AcDbEntity
  8
Calm 815
  6
Continuous
 62
    18
420
        0
 48
134.9999961853027
370
    25
100
AcDbLine
 10
37523.83934845767
 20
-19769.68218323208
 30
0.0
 11
37486.88011150264
 21
-19769.68312613652
 31
0.0
  0
LINE
  5
455
330
1F
100
AcDbEntity
  8
Calm 815
  6
Continuous
 62
    18
420
        0
 48
134.9999961853027
370
    25
100
AcDbLine
 10
37486.88378548786
 20
-19797.56834251529
 30
0.0
 11
37509.88261842651
 21
-19797.58533442381
 31
0.0
  0
LINE
  5
456
330
1F
100
AcDbEntity
  8
Calm 815
  6
Continuous
 62
    18
420
        0
 48
134.9999961853027
370
    25
100
AcDbLine
 10
37510.08934134916
 20
-19806.25408257825
 30
0.0
 11
37473.33964613872
 21
-19806.25625924649
 31
0.0
  0
LINE
  5
457
330
1F
100
AcDbEntity
  8
Calm 815
  6
Continuous
 62
    18
420
        0
 48
134.9999961853027
370
    25
100
AcDbLine
 10
37473.33964613872
 20
-19806.25625924649
 30
0.0
 11
37473.33937467105
 21
-19815.86212668582
 31
0.0
  0
LINE
  5
458
330
1F
100
AcDbEntity
  8
Calm 815
  6
Continuous
 62
    18
420
        0
 48
134.9999961853027
370
    25
100
AcDbLine
 10
37550.37751939142
 20
-19815.84549861166
 30
0.0
 11
37580.4231671074
 21
-19815.84711377721
 31
0.0
  0
LINE
  5
459
330
1F
100
AcDbEntity
  8
Calm 815
  6
Continuous
 62
    18
420
        0
 48
134.9999961853027
370
    25
100
AcDbLine
 10
37580.4231671074
 20
-19815.84711377721
 30
0.0
 11
37580.42343783891
 21
-19806.23783569343
 31
0.0
  0
LINE
  5
45A
330
1F
100
AcDbEntity
  8
Calm 815
  6
Continuous
 62
    18
420
        0
 48
134.9999961853027
370
    25
100
AcDbLine
 10
37580.42343783891
 20
-19806.23783569343
 30
0.0
 11
37550.37544581098
 21
-19806.23856585205
 31
0.0
  0
LINE
  5
45B
330
1F
100
AcDbEntity
  8
Calm 815
  6
Continuous
 62
    18
420
        0
 48
134.9999961853027
370
    25
100
AcDbLine
 10
37539.24695885647
 20
-19797.44321007463
 30
0.0
 11
37580.42388396068
 21
-19797.44114365029
 31
0.0
  0
LINE
  5
45C
330
1F
100
AcDbEntity
  8
Calm 815
  6
Continuous
 62
    18
420
        0
 48
134.9999961853027
370
    25
100
AcDbLine
 10
37580.42388396068
 20
-19797.44114365029
 30
0.0
 11
37580.42181088635
 21
-19787.83655570873
 31
0.0
  0
LINE
  5
45D
330
1F
100
AcDbEntity
  8
Calm 815
  6
Continuous
 62
    18
420
        0
 48
134.9999961853027
370
    25
100
AcDbLine
 10
37580.42181088635
 20
-19787.83655570873
 30
0.0
 11
37539.24723055418
 21
-19787.83840846168
 31
0.0
  0
LINE
  5
45E
330
1F
100
AcDbEntity
  8
Calm 815
  6
Continuous
 62
    18
420
        0
 48
134.9999961853027
370
    25
100
AcDbLine
 10
37550.37170649074
 20
-19779.03824955827
 30
0.0
 11
37580.42460109002
 21
-19779.03645251503
 31
0.0
  0
LINE
  5
45F
330
1F
100
AcDbEntity
  8
Calm 815
  6
Continuous
 62
    18
420
        0
 48
134.9999961853027
370
    25
100
AcDbLine
 10
37580.42460109002
 20
-19779.03645251503
 30
0.0
 11
37580.42465939241
 21
-19769.43058512169
 31
0.0
  0
LINE
  5
460
330
1F
100
AcDbEntity
  8
Calm 815
  6
Continuous
 62
    18
420
        0
 48
134.9999961853027
370
    25
100
AcDbLine
 10
37580.42465939241
 20
-19769.43058512169
 30
0.0
 11
37550.37645392314
 21
-19769.43003633466
 31
0.0
  0
LINE
  5
461
330
1F
100
AcDbEntity
  8
Calm 815
  6
Continuous
 62
    18
420
        0
 48
134.9999961853027
370
    25
100
AcDbLine
 10
37587.3435664549
 20
-19815.79275507229
 30
0.0
 11
37597.55375718198
 21
-19815.79161710982
 31
0.0
  0
LINE
  5
462
330
1F
100
AcDbEntity
  8
Calm 815
  6
Continuous
 62
    18
420
        0
 48
134.9999961853027
370
    25
100
AcDbLine
 10
37597.55375718198
 20
-19815.79161710982
 30
0.0
 11
37597.55503836449
 21
-19779.26062873869
 31
0.0
  0
LINE
  5
463
330
1F
100
AcDbEntity
  8
Calm 815
  6
Continuous
 62
    18
420
        0
 48
134.9999961853027
370
    25
100
AcDbLine
 10
37597.55503836449
 20
-19779.26062873869
 30
0.0
 11
37622.45572864887
 21
-19779.26207541088
 31
0.0
  0
LINE
  5
464
330
1F
100
AcDbEntity
  8
Calm 815
  6
Continuous
 62
    18
420
        0
 48
134.9999961853027
370
    25
100
AcDbLine
 10
37622.66479519332
 20
-19787.92528076198
 30
0.0
 11
37600.49219561215
 21
-19787.93006654221
 31
0.0
  0
LINE
  5
465
330
1F
100
AcDbEntity
  8
Calm 815
  6
Continuous
 62
    18
420
        0
 48
134.9999961853027
370
    25
100
AcDbLine
 10
37600.49219561215
 20
-19787.93006654221
 30
0.0
 11
37600.49214697187
 21
-19797.58069864396
 31
0.0
  0
LINE
  5
466
330
1F
100
AcDbEntity
  8
Calm 815
  6
Continuous
 62
    18
420
        0
 48
134.9999961853027
370
    25
100
AcDbLine
 10
37600.49214697187
 20
-19797.58069864396
 30
0.0
 11
37612.77195966141
 21
-19797.58039296171
 31
0.0
  0
LINE
  5
467
330
1F
100
AcDbEntity
  8
Calm 815
  6
Continuous
 62
    18
420
        0
 48
134.9999961853027
370
    25
100
AcDbLine
 10
37612.77195966141
 20
-19797.58039296171
 30
0.0
 11
37625.27910061429
 21
-19815.79266726827
 31
0.0
  0
LINE
  5
468
330
1F
100
AcDbEntity
  8
Calm 815
  6
Continuous
 62
    18
420
        0
 48
134.9999961853027
370
    25
100
AcDbLine
 10
37625.27910061429
 20
-19815.79266726827
 30
0.0
 11
37637.78678620411
 21
-19815.78868859154
 31
0.0
  0
LINE
  5
469
330
1F
100
AcDbEntity
  8
Calm 815
  6
Continuous
 62
    18
420
        0
 48
134.9999961853027
370
    25
100
AcDbLine
 10
37637.78678620411
 20
-19815.78868859154
 30
0.0
 11
37624.9643484992
 21
-19797.4592414308
 31
0.0
  0
LINE
  5
46A
330
1F
100
AcDbEntity
  8
Calm 815
  6
Continuous
 62
    18
420
        0
 48
134.9999961853027
370
    25
100
AcDbLine
 10
37622.66298286554
 20
-19769.65275265134
 30
0.0
 11
37587.34511859898
 21
-19769.65355444376
 31
0.0
  0
LINE
  5
46B
330
1F
100
AcDbEntity
  8
Calm 815
  6
Continuous
 62
    18
420
        0
 48
134.9999961853027
370
    25
100
AcDbLine
 10
37587.34511859898
 20
-19769.65355444376
 30
0.0
 11
37587.3435664549
 21
-19815.79275507229
 31
0.0
  0
LINE
  5
46C
330
1F
100
AcDbEntity
  8
Calm 815
  6
Continuous
 62
    18
420
        0
 48
134.9999961853027
370
    25
100
AcDbLine
 10
37328.41234394776
 20
-19815.85546461772
 30
0.0
 11
37328.40817945718
 21
-19775.82174540681
 31
0.0
  0
LINE
  5
46D
330
1F
100
AcDbEntity
  8
Calm 815
  6
Continuous
 62
    18
420
        0
 48
134.9999961853027
370
    25
100
AcDbLine
 10
37340.63661154127
 20
-19772.82264154069
 30
0.0
 11
37357.02960381366
 21
-19800.20721896274
 31
0.0
  0
LINE
  5
46E
330
1F
100
AcDbEntity
  8
Calm 815
  6
Continuous
 62
    18
420
        0
 48
134.9999961853027
370
    25
100
AcDbLine
 10
37357.02960381366
 20
-19800.20721896274
 30
0.0
 11
37373.41972753034
 21
-19772.82260001892
 31
0.0
  0
LINE
  5
46F
330
1F
100
AcDbEntity
  8
Calm 815
  6
Continuous
 62
    18
420
        0
 48
134.9999961853027
370
    25
100
AcDbLine
 10
37385.64497735999
 20
-19775.81962323056
 30
0.0
 11
37385.64914189657
 21
-19815.85355560675
 31
0.0
  0
LINE
  5
470
330
1F
100
AcDbEntity
  8
Calm 815
  6
Continuous
 62
    18
420
        0
 48
134.9999961853027
370
    25
100
AcDbLine
 10
37385.64914189657
 20
-19815.85355560675
 30
0.0
 11
37375.63229180079
 21
-19815.85337284644
 31
0.0
  0
LINE
  5
471
330
1F
100
AcDbEntity
  8
Calm 815
  6
Continuous
 62
    18
420
        0
 48
134.9999961853027
370
    25
100
AcDbLine
 10
37375.63229180079
 20
-19815.85337284644
 30
0.0
 11
37375.6311544495
 21
-19788.85684200653
 31
0.0
  0
LINE
  5
472
330
1F
100
AcDbEntity
  8
Calm 815
  6
Continuous
 62
    18
420
        0
 48
134.9999961853027
370
    25
100
AcDbLine
 10
37375.6311544495
 20
-19788.85684200653
 30
0.0
 11
37362.25090601534
 21
-19811.21735811159
 31
0.0
  0
LINE
  5
473
330
1F
100
AcDbEntity
  8
Calm 815
  6
Continuous
 62
    18
420
        0
 48
134.9999961853027
370
    25
100
AcDbLine
 10
37351.80836559508
 20
-19811.22067787778
 30
0.0
 11
37338.42784403307
 21
-19788.8614614022
 31
0.0
  0
LINE
  5
474
330
1F
100
AcDbEntity
  8
Calm 815
  6
Continuous
 62
    18
420
        0
 48
134.9999961853027
370
    25
100
AcDbLine
 10
37338.42784403307
 20
-19788.8614614022
 30
0.0
 11
37338.42684945552
 21
-19815.85671371053
 31
0.0
  0
LINE
  5
475
330
1F
100
AcDbEntity
  8
Calm 815
  6
Continuous
 62
    18
420
        0
 48
134.9999961853027
370
    25
100
AcDbLine
 10
37338.42684945552
 20
-19815.85671371053
 30
0.0
 11
37328.41234394776
 21
-19815.85546461772
 31
0.0
  0
LINE
  5
476
330
1F
100
AcDbEntity
  8
Calm 815
  6
Continuous
 62
    18
420
        0
 48
50.00000038146973
370
    25
100
AcDbLine
 10
37269.53584427306
 20
-19935.33520455484
 30
0.0
 11
38017.53584427306
 21
-19935.33520455484
 31
0.0
  0
ARC
  5
477
330
1F
100
AcDbEntity
  8
Calm 815
  6
Continuous
 62
    18
420
        0
 48
134.9999961853027
370
    25
100
AcDbCircle
 10
37430.18452725624
 20
-19792.69466579076
 30
0.0
 40
37.55398438214829
100
AcDbArc
 50
37.92296160428415
 51
142.0844570672982
  0
ARC
  5
478
330
1F
100
AcDbEntity
  8
Calm 815
  6
Continuous
 62
    18
420
        0
 48
134.9999961853027
370
    25
100
AcDbCircle
 10
37430.17896603475
 20
-19792.70349817565
 30
0.0
 40
37.55611059183879
100
AcDbArc
 50
158.3926594912004
 51
173.0089805633589
  0
ARC
  5
479
330
1F
100
AcDbEntity
  8
Calm 815
  6
Continuous
 62
    18
420
        0
 48
134.9999961853027
370
    25
100
AcDbCircle
 10
37430.20232913128
 20
-19792.69244272719
 30
0.0
 40
37.53643020333413
100
AcDbArc
 50
6.981142041194704
 51
21.59749032313708
  0
ARC
  5
47A
330
1F
100
AcDbEntity
  8
Calm 815
  6
Continuous
 62
    18
420
        0
 48
134.9999961853027
370
    25
100
AcDbCircle
 10
37430.1963833934
 20
-19792.68397850371
 30
0.0
 40
37.57211143798643
100
AcDbArc
 50
186.9964645332833
 51
201.6127039760886
  0
ARC
  5
47B
330
1F
100
AcDbEntity
  8
Calm 815
  6
Continuous
 62
    18
420
        0
 48
134.9999961853027
370
    25
100
AcDbCircle
 10
37430.17641035601
 20
-19792.68606258777
 30
0.0
 40
37.56504125774832
100
AcDbArc
 50
338.3961344461862
 51
353.012455518345
  0
ARC
  5
47C
330
1F
100
AcDbEntity
  8
Calm 815
  6
Continuous
 62
    18
420
        0
 48
134.9999961853027
370
    25
100
AcDbCircle
 10
37430.18372386945
 20
-19792.69604350034
 30
0.0
 40
37.55697965863395
100
AcDbArc
 50
217.9190317150191
 51
322.080968284981
  0
ARC
  5
47D
330
1F
100
AcDbEntity
  8
Calm 815
  6
Continuous
 62
    18
420
        0
 48
134.9999961853027
370
    25
100
AcDbCircle
 10
37510.47246154557
 20
-19801.91164197423
 30
0.0
 40
13.95713381799846
100
AcDbArc
 50
268.4355638780455
 51
91.57954040753705
  0
ARC
  5
47E
330
1F
100
AcDbEntity
  8
Calm 815
  6
Continuous
 62
    18
420
        0
 48
134.9999961853027
370
    25
100
AcDbCircle
 10
37487.57056377169
 20
-19783.60986400325
 30
0.0
 40
4.37341537243076
100
AcDbArc
 50
99.08716097409676
 51
263.677032393072
  0
ARC
  5
47F
330
1F
100
AcDbEntity
  8
Calm 815
  6
Continuous
 62
    18
420
        0
 48
134.9999961853027
370
    25
100
AcDbCircle
 10
37486.49935349983
 20
-19783.62578473428
 30
0.0
 40
13.94785666080328
100
AcDbArc
 50
88.43570681812272
 51
271.5793910633276
  0
ARC
  5
480
330
1F
100
AcDbEntity
  8
Calm 815
  6
Continuous
 62
    18
420
        0
 48
134.9999961853027
370
    25
100
AcDbCircle
 10
37509.39950808669
 20
-19801.93369404572
 30
0.0
 40
4.375114513013975
100
AcDbArc
 50
279.0717992649418
 51
83.6603383757033
  0
ARC
  5
481
330
1F
100
AcDbEntity
  8
Calm 815
  6
Continuous
 62
    18
420
        0
 48
134.9999961853027
370
    25
100
AcDbCircle
 10
37551.05761754222
 20
-19793.93749531847
 30
0.0
 40
12.31997136940636
100
AcDbArc
 50
196.5322763668841
 51
266.8258399252975
  0
ARC
  5
482
330
1F
100
AcDbEntity
  8
Calm 815
  6
Continuous
 62
    18
420
        0
 48
134.9999961853027
370
    25
100
AcDbCircle
 10
37551.05929128946
 20
-19791.33886850503
 30
0.0
 40
12.31982140004576
100
AcDbArc
 50
93.19941229080888
 51
163.4930068869733
  0
ARC
  5
483
330
1F
100
AcDbEntity
  8
Calm 815
  6
Continuous
 62
    18
420
        0
 48
134.9999961853027
370
    25
100
AcDbCircle
 10
37550.04251567698
 20
-19791.04449928698
 30
0.0
 40
21.61704243114156
100
AcDbArc
 50
89.11486442916684
 51
136.5283713875557
  0
ARC
  5
484
330
1F
100
AcDbEntity
  8
Calm 815
  6
Continuous
 62
    18
420
        0
 48
134.9999961853027
370
    25
100
AcDbCircle
 10
37551.78733146616
 20
-19791.24101023758
 30
0.0
 40
23.04277337332523
100
AcDbArc
 50
139.1595473476376
 51
183.4766818662686
  0
ARC
  5
485
330
1F
100
AcDbEntity
  8
Calm 815
  6
Continuous
 62
    18
420
        0
 48
134.9999961853027
370
    25
100
AcDbCircle
 10
37551.7877459423
 20
-19794.03544183682
 30
0.0
 40
23.04316873492309
100
AcDbArc
 50
176.52413179769
 51
220.8411051562291
  0
ARC
  5
486
330
1F
100
AcDbEntity
  8
Calm 815
  6
Continuous
 62
    18
420
        0
 48
134.9999961853027
370
    25
100
AcDbCircle
 10
37550.04165213531
 20
-19794.23077691464
 30
0.0
 40
21.6173310298274
100
AcDbArc
 50
223.4768675460017
 51
270.8902371222274
  0
ARC
  5
487
330
1F
100
AcDbEntity
  8
Calm 815
  6
Continuous
 62
    18
420
        0
 48
134.9999961853027
370
    25
100
AcDbCircle
 10
37621.97405985746
 20
-19783.60782472556
 30
0.0
 40
4.372361139089873
100
AcDbArc
 50
279.0895312175861
 51
83.67533595583488
  0
ARC
  5
488
330
1F
100
AcDbEntity
  8
Calm 815
  6
Continuous
 62
    18
420
        0
 48
134.9999961853027
370
    25
100
AcDbCircle
 10
37623.18974578632
 20
-19784.8439623585
 30
0.0
 40
12.7394851097
100
AcDbArc
 50
278.0073079506257
 51
5.572465930763843
  0
ARC
  5
489
330
1F
100
AcDbEntity
  8
Calm 815
  6
Continuous
 62
    18
420
        0
 48
134.9999961853027
370
    25
100
AcDbCircle
 10
37623.19289310978
 20
-19782.37734870822
 30
0.0
 40
12.73562521738147
100
AcDbArc
 50
354.4597953776586
 51
92.38467978670954
  0
ARC
  5
48A
330
1F
100
AcDbEntity
  8
Calm 815
  6
Continuous
 62
    18
420
        0
 48
134.9999961853027
370
    25
100
AcDbCircle
 10
37334.85508051312
 20
-19775.67867070139
 30
0.0
 40
6.448488473775121
100
AcDbArc
 50
26.28899618673575
 51
181.2713443682091
  0
ARC
  5
48B
330
1F
100
AcDbEntity
  8
Calm 815
  6
Continuous
 62
    18
420
        0
 48
134.9999961853027
370
    25
100
AcDbCircle
 10
37379.19984339337
 20
-19775.67745955456
 30
0.0
 40
6.446701665065165
100
AcDbArc
 50
358.7364020576953
 51
153.7147532945604
  0
ARC
  5
48C
330
1F
100
AcDbEntity
  8
Calm 815
  6
Continuous
 62
    18
420
        0
 48
134.9999961853027
370
    25
100
AcDbCircle
 10
37357.02888097124
 20
-19808.84463865855
 30
0.0
 40
5.735794902544429
100
AcDbArc
 50
204.4719426219853
 51
335.5644869397248
  0
TEXT
  5
48E
330
1F
100
AcDbEntity
  8
Calm 815
  6
Continuous
 62
    18
420
        0
 48
755.9999786376953
370
    25
100
AcDbText
 10
37732.96145123569
 20
-19790.47886520526
 30
0.0
 40
38.4
  1
Moser GmbH
 41
0.8125
  7
HLV-L
100
AcDbText
  0
TEXT
  5
48F
330
1F
100
AcDbEntity
  8
Calm 815
  6
Continuous
 62
    18
420
        0
 48
755.9999786376953
370
    25
100
AcDbText
 10
37732.96145123569
 20
-19831.72882395526
 30
0.0
 40
38.4
  1
Im Mühlegrün 13
 41
0.8125
  7
HLV-L
100
AcDbText
  0
TEXT
  5
490
330
1F
100
AcDbEntity
  8
Calm 815
  6
Continuous
 62
    18
420
        0
 48
755.9999786376953
370
    25
100
AcDbText
 10
37732.96145123569
 20
-19872.97878270526
 30
0.0
 40
38.4
  1
77716 Haslach
 41
0.8125
  7
HLV-L
100
AcDbText
  0
TEXT
  5
491
330
1F
100
AcDbEntity
  8
Calm 815
  6
Continuous
 62
    18
420
        0
 48
755.9999786376953
370
    25
100
AcDbText
 10
37732.96145123569
 20
-19914.22874145526
 30
0.0
 40
38.4
  1
www.moser.gmbh
 41
0.8125
  7
HLV-L
100
AcDbText
  0
TEXT
  5
492
330
1F
100
AcDbEntity
  8
Calm 815
  6
Continuous
 62
    18
420
        0
 48
34.72222046852112
370
    25
100
AcDbText
 10
37272.14625794149
 20
-19628.3836516203
 30
0.0
 40
40.0
  1
Calm 815
 41
0.8125
  7
ARIAL
100
AcDbText
  0
TEXT
  5
494
330
1F
100
AcDbEntity
  8
Calm 815
  6
Continuous
 62
    18
420
        0
 48
14.12239682674408
370
    25
100
AcDbText
 10
37326.00751724903
 20
-19893.60974808712
 30
0.0
 40
21.72839828681946
  1
Mineralwerkstoffe
 41
0.8125
  7
HELV-HFT
100
AcDbText
  0
INSERT
  5
498
330
1F
100
AcDbEntity
  8
Calm 815
  6
Continuous
 62
    18
420
        0
 48
50.00000038146973
370
    25
100
AcDbBlockReference
  2
Dimension38
 10
0.0
 20
0.0
 30
0.0
  0
DIMENSION
  5
499
330
1F
100
AcDbEntity
  8
Calm 815
  6
Continuous
 62
    18
420
        0
 48
50.00000038146973
370
    25
100
AcDbDimension
  2
*D46
 10
37032.64016788729
 20
-19604.06364398573
 30
0.0
 11
37000.64016379841
 21
-19515.08024188065
 31
0.0
 70
    32
 71
     5
 42
177.9668042101548
  3
ISO-25
100
AcDbAlignedDimension
 13
36947.673255731
 23
-19426.09683977557
 33
0.0
 14
36681.20608291356
 24
-19604.06364398573
 34
0.0
 50
-90.0
100
AcDbRotatedDimension
1001
ACAD
1000
DSTYLE
1002
{
1070
    69
1070
     0
1070
   271
1070
     3
1070
   177
1070
    18
1070
   176
1070
    18
1070
   140
1040
24.0
1070
    76
1070
     0
1070
    75
1070
     0
1070
   282
1070
     0
1070
   281
1070
     0
1070
   174
1070
     1
1070
    42
1040
0.0
1070
    49
1040
19.9999995470047
1070
   290
1070
     1
1070
    44
1040
19.9999995470047
1070
    46
1040
0.0
1070
    41
1040
9.000000357627869
1070
   173
1070
     1
1070
   342
1005
0
1070
   344
1005
391
1070
   343
1005
391
1070
   147
1040
20.00000408887863
1070
   178
1070
    18
1070
   340
1005
397
1070
   278
1070
    46
1002
}
1001
ACAD_DSTYLE_DIMEXT_ENABLED
1070
   383
1070
     1
1001
ACAD_DSTYLE_DIMEXT_LENGTH
1070
   378
1040
19.9999995470047
  0
INSERT
  5
4AC
330
1F
100
AcDbEntity
  8
Calm 820
  6
Continuous
 62
    18
420
        0
 48
50.00000038146973
370
    25
100
AcDbBlockReference
  2
Dimension39
 10
0.0
 20
0.0
 30
0.0
  0
INSERT
  5
4B0
330
1F
100
AcDbEntity
  8
Calm 820
  6
Continuous
 62
    18
420
        0
 48
50.00000038146973
370
    25
100
AcDbBlockReference
  2
Dimension40
 10
0.0
 20
0.0
 30
0.0
  0
INSERT
  5
4B4
330
1F
100
AcDbEntity
  8
Calm 820
  6
Continuous
 62
    18
420
        0
 48
50.00000038146973
370
    25
100
AcDbBlockReference
  2
Dimension41
 10
0.0
 20
0.0
 30
0.0
  0
INSERT
  5
4B8
330
1F
100
AcDbEntity
  8
Calm 820
  6
Continuous
 62
    18
420
        0
 48
50.00000038146973
370
    25
100
AcDbBlockReference
  2
Dimension42
 10
0.0
 20
0.0
 30
0.0
  0
INSERT
  5
4BC
330
1F
100
AcDbEntity
  8
Calm 820
  6
Continuous
 62
    18
420
        0
 48
50.00000038146973
370
    25
100
AcDbBlockReference
  2
Dimension43
 10
0.0
 20
0.0
 30
0.0
  0
INSERT
  5
4C0
330
1F
100
AcDbEntity
  8
Calm 820
  6
Continuous
 62
    18
420
        0
 48
50.00000038146973
370
    25
100
AcDbBlockReference
  2
Dimension44
 10
0.0
 20
0.0
 30
0.0
  0
INSERT
  5
4C4
330
1F
100
AcDbEntity
  8
Calm 820
  6
Continuous
 62
    18
420
        0
 48
50.00000038146973
370
    25
100
AcDbBlockReference
  2
Dimension45
 10
0.0
 20
0.0
 30
0.0
  0
INSERT
  5
4C8
330
1F
100
AcDbEntity
  8
Calm 820
  6
Continuous
 62
    18
420
        0
 48
50.00000038146973
370
    25
100
AcDbBlockReference
  2
Dimension46
 10
0.0
 20
0.0
 30
0.0
  0
INSERT
  5
4CC
330
1F
100
AcDbEntity
  8
Calm 820
  6
Continuous
 62
    18
420
        0
 48
50.00000038146973
370
    25
100
AcDbBlockReference
  2
Dimension47
 10
0.0
 20
0.0
 30
0.0
  0
INSERT
  5
4D0
330
1F
100
AcDbEntity
  8
Calm 820
  6
Continuous
 62
    18
420
        0
 48
50.00000038146973
370
    25
100
AcDbBlockReference
  2
Dimension48
 10
0.0
 20
0.0
 30
0.0
  0
INSERT
  5
4D4
330
1F
100
AcDbEntity
  8
Calm 820
  6
Continuous
 62
    18
420
        0
 48
50.00000038146973
370
    25
100
AcDbBlockReference
  2
Dimension49
 10
0.0
 20
0.0
 30
0.0
  0
INSERT
  5
4D8
330
1F
100
AcDbEntity
  8
Calm 820
  6
Continuous
 62
    18
420
        0
 48
50.00000038146973
370
    25
100
AcDbBlockReference
  2
Dimension50
 10
0.0
 20
0.0
 30
0.0
  0
INSERT
  5
4DC
330
1F
100
AcDbEntity
  8
Calm 820
  6
Continuous
 62
    18
420
        0
 48
50.00000038146973
370
    25
100
AcDbBlockReference
  2
Dimension51
 10
0.0
 20
0.0
 30
0.0
  0
INSERT
  5
4E0
330
1F
100
AcDbEntity
  8
Calm 820
  6
Continuous
 62
    18
420
        0
 48
50.00000038146973
370
    25
100
AcDbBlockReference
  2
Dimension52
 10
0.0
 20
0.0
 30
0.0
  0
INSERT
  5
4E4
330
1F
100
AcDbEntity
  8
Calm 820
  6
Continuous
 62
    18
420
        0
 48
50.00000038146973
370
    25
100
AcDbBlockReference
  2
Dimension53
 10
0.0
 20
0.0
 30
0.0
  0
INSERT
  5
4E8
330
1F
100
AcDbEntity
  8
Calm 820
  6
Continuous
 62
    18
420
        0
 48
50.00000038146973
370
    25
100
AcDbBlockReference
  2
Dimension54
 10
0.0
 20
0.0
 30
0.0
  0
INSERT
  5
4EC
330
1F
100
AcDbEntity
  8
Calm 820
  6
Continuous
 62
    18
420
        0
 48
50.00000038146973
370
    25
100
AcDbBlockReference
  2
Dimension55
 10
0.0
 20
0.0
 30
0.0
  0
INSERT
  5
4F1
330
1F
100
AcDbEntity
  8
Calm 831
  6
Continuous
 62
    18
420
        0
 48
50.00000038146973
370
    25
100
AcDbBlockReference
  2
Dimension56
 10
0.0
 20
0.0
 30
0.0
  0
INSERT
  5
4F5
330
1F
100
AcDbEntity
  8
Calm 831
  6
Continuous
 62
    18
420
        0
 48
50.00000038146973
370
    25
100
AcDbBlockReference
  2
Dimension57
 10
0.0
 20
0.0
 30
0.0
  0
INSERT
  5
4F9
330
1F
100
AcDbEntity
  8
Calm 831
  6
Continuous
 62
    18
420
        0
 48
50.00000038146973
370
    25
100
AcDbBlockReference
  2
Dimension58
 10
0.0
 20
0.0
 30
0.0
  0
INSERT
  5
4FD
330
1F
100
AcDbEntity
  8
Calm 831
  6
Continuous
 62
    18
420
        0
 48
50.00000038146973
370
    25
100
AcDbBlockReference
  2
Dimension59
 10
0.0
 20
0.0
 30
0.0
  0
INSERT
  5
501
330
1F
100
AcDbEntity
  8
Calm 831
  6
Continuous
 62
    18
420
        0
 48
50.00000038146973
370
    25
100
AcDbBlockReference
  2
Dimension60
 10
0.0
 20
0.0
 30
0.0
  0
INSERT
  5
505
330
1F
100
AcDbEntity
  8
Calm 831
  6
Continuous
 62
    18
420
        0
 48
50.00000038146973
370
    25
100
AcDbBlockReference
  2
Dimension61
 10
0.0
 20
0.0
 30
0.0
  0
INSERT
  5
509
330
1F
100
AcDbEntity
  8
Calm 831
  6
Continuous
 62
    18
420
        0
 48
50.00000038146973
370
    25
100
AcDbBlockReference
  2
Dimension62
 10
0.0
 20
0.0
 30
0.0
  0
INSERT
  5
50D
330
1F
100
AcDbEntity
  8
Calm 831
  6
Continuous
 62
    18
420
        0
 48
50.00000038146973
370
    25
100
AcDbBlockReference
  2
Dimension63
 10
0.0
 20
0.0
 30
0.0
  0
INSERT
  5
511
330
1F
100
AcDbEntity
  8
Calm 831
  6
Continuous
 62
    18
420
        0
 48
50.00000038146973
370
    25
100
AcDbBlockReference
  2
Dimension64
 10
0.0
 20
0.0
 30
0.0
  0
INSERT
  5
515
330
1F
100
AcDbEntity
  8
Calm 831
  6
Continuous
 62
    18
420
        0
 48
50.00000038146973
370
    25
100
AcDbBlockReference
  2
Dimension65
 10
0.0
 20
0.0
 30
0.0
  0
INSERT
  5
519
330
1F
100
AcDbEntity
  8
Calm 831
  6
Continuous
 62
    18
420
        0
 48
50.00000038146973
370
    25
100
AcDbBlockReference
  2
Dimension66
 10
0.0
 20
0.0
 30
0.0
  0
INSERT
  5
51D
330
1F
100
AcDbEntity
  8
Calm 831
  6
Continuous
 62
    18
420
        0
 48
50.00000038146973
370
    25
100
AcDbBlockReference
  2
Dimension67
 10
0.0
 20
0.0
 30
0.0
  0
INSERT
  5
521
330
1F
100
AcDbEntity
  8
Calm 831
  6
Continuous
 62
    18
420
        0
 48
50.00000038146973
370
    25
100
AcDbBlockReference
  2
Dimension68
 10
0.0
 20
0.0
 30
0.0
  0
INSERT
  5
525
330
1F
100
AcDbEntity
  8
Calm 831
  6
Continuous
 62
    18
420
        0
 48
50.00000038146973
370
    25
100
AcDbBlockReference
  2
Dimension69
 10
0.0
 20
0.0
 30
0.0
  0
INSERT
  5
529
330
1F
100
AcDbEntity
  8
Calm 831
  6
Continuous
 62
    18
420
        0
 48
50.00000038146973
370
    25
100
AcDbBlockReference
  2
Dimension70
 10
0.0
 20
0.0
 30
0.0
  0
INSERT
  5
52D
330
1F
100
AcDbEntity
  8
Calm 831
  6
Continuous
 62
    18
420
        0
 48
50.00000038146973
370
    25
100
AcDbBlockReference
  2
Dimension71
 10
0.0
 20
0.0
 30
0.0
  0
INSERT
  5
531
330
1F
100
AcDbEntity
  8
Calm 831
  6
Continuous
 62
    18
420
        0
 48
50.00000038146973
370
    25
100
AcDbBlockReference
  2
Dimension72
 10
0.0
 20
0.0
 30
0.0
  0
ENDSEC
  0
SECTION
  2
OBJECTS
  0
DICTIONARY
  5
C
330
0
100
AcDbDictionary
281
     1
  3
ACAD_GROUP
350
D
  3
ACAD_LAYOUT
350
1A
  3
ACAD_MATERIAL
350
3B
  3
ACAD_MLEADERSTYLE
350
57F
  3
ACAD_MLINESTYLE
350
17
  3
ACAD_PLOTSETTINGS
350
19
  3
ACAD_PLOTSTYLENAME
350
E
  3
ACAD_SCALELIST
350
532
  3
ACAD_TABLESTYLE
350
57E
  3
ACAD_VISUALSTYLE
350
2A
  3
AcDbVariableDictionary
350
556
  0
DICTIONARY
  5
D
102
{ACAD_REACTORS
330
C
102
}
330
C
100
AcDbDictionary
281
     1
  0
DICTIONARY
  5
1A
102
{ACAD_REACTORS
330
C
102
}
330
C
100
AcDbDictionary
281
     1
  3
Layout1
350
1E
  3
Layout2
350
26
  3
Model
350
22
  0
DICTIONARY
  5
3B
102
{ACAD_REACTORS
330
C
102
}
330
C
100
AcDbDictionary
281
     1
  3
ByBlock
350
3D
  3
ByLayer
350
3C
  3
Global
350
3E
  0
DICTIONARY
  5
57F
102
{ACAD_REACTORS
330
C
102
}
330
C
100
AcDbDictionary
281
     1
  0
DICTIONARY
  5
17
102
{ACAD_REACTORS
330
C
102
}
330
C
100
AcDbDictionary
281
     1
  3
Standard
350
18
  0
DICTIONARY
  5
19
102
{ACAD_REACTORS
330
C
102
}
330
C
100
AcDbDictionary
281
     1
  0
ACDBDICTIONARYWDFLT
  5
E
102
{ACAD_REACTORS
330
C
102
}
330
C
100
AcDbDictionary
281
     1
  3
Normal
350
F
100
AcDbDictionaryWithDefault
340
F
  0
DICTIONARY
  5
532
102
{ACAD_REACTORS
330
C
102
}
330
C
100
AcDbDictionary
281
     1
  3
A0
350
533
  3
A1
350
534
  3
A2
350
535
  3
A3
350
536
  3
A4
350
537
  3
A5
350
538
  3
A6
350
539
  3
A7
350
53A
  3
A8
350
53B
  3
A9
350
53C
  3
B0
350
53D
  3
B1
350
53E
  3
B2
350
53F
  3
B3
350
540
  3
B4
350
541
  3
B5
350
542
  3
B6
350
543
  3
B7
350
544
  3
B8
350
545
  3
B9
350
546
  3
C0
350
547
  3
C1
350
548
  3
C2
350
549
  3
C3
350
54A
  3
C4
350
54B
  3
C5
350
54C
  3
C6
350
54D
  3
C7
350
54E
  3
C8
350
54F
  3
C9
350
550
  3
D0
350
551
  3
D1
350
552
  3
D2
350
553
  0
DICTIONARY
  5
57E
102
{ACAD_REACTORS
330
C
102
}
330
C
100
AcDbDictionary
281
     1
  0
DICTIONARY
  5
2A
102
{ACAD_REACTORS
330
C
102
}
330
C
100
AcDbDictionary
281
     1
  3
2dWireframe
350
2F
  3
3D Hidden
350
31
  3
3dWireframe
350
30
  3
Basic
350
32
  3
Brighten
350
36
  3
ColorChange
350
3A
  3
Conceptual
350
34
  3
Dim
350
35
  3
Facepattern
350
39
  3
Flat
350
2B
  3
FlatWithEdges
350
2C
  3
Gouraud
350
2D
  3
GouraudWithEdges
350
2E
  3
Linepattern
350
38
  3
Realistic
350
33
  3
Thicken
350
37
  0
DICTIONARY
  5
556
102
{ACAD_REACTORS
330
C
102
}
330
C
100
AcDbDictionary
281
     1
  3
CANNOSCALE
350
557
  0
LAYOUT
  5
1E
102
{ACAD_REACTORS
330
1A
102
}
330
1A
100
AcDbPlotSettings
  1

  2
none_device
  4

  6

 40
0.0
 41
0.0
 42
0.0
 43
0.0
 44
0.0
 45
0.0
 46
0.0
 47
0.0
 48
0.0
 49
0.0
140
0.0
141
0.0
142
1.0
143
1.0
 70
   688
 72
     0
 73
     0
 74
     5
  7

 75
    16
 76
     0
 77
     2
 78
   300
147
1.0
148
0.0
149
0.0
100
AcDbLayout
  1
Layout1
 70
     1
 71
     1
 10
0.0
 20
0.0
 11
420.0
 21
297.0
 12
0.0
 22
0.0
 32
0.0
 14
1.000000000000000E+20
 24
1.000000000000000E+20
 34
1.000000000000000E+20
 15
-1.000000000000000E+20
 25
-1.000000000000000E+20
 35
-1.000000000000000E+20
146
0.0
 13
0.0
 23
0.0
 33
0.0
 16
1.0
 26
0.0
 36
0.0
 17
0.0
 27
1.0
 37
0.0
 76
     0
330
1B
  0
LAYOUT
  5
26
102
{ACAD_REACTORS
330
1A
102
}
330
1A
100
AcDbPlotSettings
  1

  2
none_device
  4

  6

 40
0.0
 41
0.0
 42
0.0
 43
0.0
 44
0.0
 45
0.0
 46
0.0
 47
0.0
 48
0.0
 49
0.0
140
0.0
141
0.0
142
1.0
143
1.0
 70
   688
 72
     0
 73
     0
 74
     5
  7

 75
    16
 76
     0
 77
     2
 78
   300
147
1.0
148
0.0
149
0.0
100
AcDbLayout
  1
Layout2
 70
     1
 71
     2
 10
0.0
 20
0.0
 11
0.0
 21
0.0
 12
0.0
 22
0.0
 32
0.0
 14
0.0
 24
0.0
 34
0.0
 15
0.0
 25
0.0
 35
0.0
146
0.0
 13
0.0
 23
0.0
 33
0.0
 16
1.0
 26
0.0
 36
0.0
 17
0.0
 27
1.0
 37
0.0
 76
     0
330
23
  0
LAYOUT
  5
22
102
{ACAD_REACTORS
330
1A
102
}
330
1A
100
AcDbPlotSettings
  1

  2
none_device
  4

  6

 40
0.0
 41
0.0
 42
0.0
 43
0.0
 44
0.0
 45
0.0
 46
0.0
 47
0.0
 48
0.0
 49
0.0
140
0.0
141
0.0
142
1.0
143
1.0
 70
  1712
 72
     0
 73
     0
 74
     0
  7

 75
     0
 76
     0
 77
     2
 78
   300
147
1.0
148
0.0
149
0.0
100
AcDbLayout
  1
Model
 70
     1
 71
     0
 10
0.0
 20
0.0
 11
420.0
 21
297.0
 12
0.0
 22
0.0
 32
0.0
 14
72706.39797439399
 24
-39365.67058749446
 34
0.0
 15
74857.42331585368
 25
-37930.67058139095
 35
11.9999942779541
146
0.0
 13
0.0
 23
0.0
 33
0.0
 16
1.0
 26
0.0
 36
0.0
 17
0.0
 27
1.0
 37
0.0
 76
     0
330
1F
331
29
  0
MATERIAL
  5
3D
102
{ACAD_REACTORS
330
3B
102
}
102
{ACAD_XDICTIONARY
360
57A
102
}
330
3B
100
AcDbMaterial
  1
ByBlock
  0
MATERIAL
  5
3C
102
{ACAD_REACTORS
330
3B
102
}
102
{ACAD_XDICTIONARY
360
578
102
}
330
3B
100
AcDbMaterial
  1
ByLayer
  0
MATERIAL
  5
3E
102
{ACAD_REACTORS
330
3B
102
}
102
{ACAD_XDICTIONARY
360
57C
102
}
330
3B
100
AcDbMaterial
  1
Global
  0
MLINESTYLE
  5
18
102
{ACAD_REACTORS
330
17
102
}
330
17
100
AcDbMlineStyle
  2
Standard
 70
     0
  3

 62
   256
 51
90.0
 52
90.0
 71
     2
 49
0.5
 62
   256
  6
BYLAYER
 49
-0.5
 62
   256
  6
BYLAYER
  0
ACDBPLACEHOLDER
  5
F
102
{ACAD_REACTORS
330
E
102
}
330
E
  0
SCALE
  5
533
102
{ACAD_REACTORS
330
532
102
}
330
532
100
AcDbScale
 70
     0
300
1:1
140
1.0
141
1.0
290
     1
  0
SCALE
  5
534
102
{ACAD_REACTORS
330
532
102
}
330
532
100
AcDbScale
 70
     0
300
1:2
140
1.0
141
2.0
290
     0
  0
SCALE
  5
535
102
{ACAD_REACTORS
330
532
102
}
330
532
100
AcDbScale
 70
     0
300
1:4
140
1.0
141
4.0
290
     0
  0
SCALE
  5
536
102
{ACAD_REACTORS
330
532
102
}
330
532
100
AcDbScale
 70
     0
300
1:5
140
1.0
141
5.0
290
     0
  0
SCALE
  5
537
102
{ACAD_REACTORS
330
532
102
}
330
532
100
AcDbScale
 70
     0
300
1:8
140
1.0
141
8.0
290
     0
  0
SCALE
  5
538
102
{ACAD_REACTORS
330
532
102
}
330
532
100
AcDbScale
 70
     0
300
1:10
140
1.0
141
10.0
290
     0
  0
SCALE
  5
539
102
{ACAD_REACTORS
330
532
102
}
330
532
100
AcDbScale
 70
     0
300
1:16
140
1.0
141
16.0
290
     0
  0
SCALE
  5
53A
102
{ACAD_REACTORS
330
532
102
}
330
532
100
AcDbScale
 70
     0
300
1:20
140
1.0
141
20.0
290
     0
  0
SCALE
  5
53B
102
{ACAD_REACTORS
330
532
102
}
330
532
100
AcDbScale
 70
     0
300
1:30
140
1.0
141
30.0
290
     0
  0
SCALE
  5
53C
102
{ACAD_REACTORS
330
532
102
}
330
532
100
AcDbScale
 70
     0
300
1:40
140
1.0
141
40.0
290
     0
  0
SCALE
  5
53D
102
{ACAD_REACTORS
330
532
102
}
330
532
100
AcDbScale
 70
     0
300
1:50
140
1.0
141
50.0
290
     0
  0
SCALE
  5
53E
102
{ACAD_REACTORS
330
532
102
}
330
532
100
AcDbScale
 70
     0
300
1:100
140
1.0
141
100.0
290
     0
  0
SCALE
  5
53F
102
{ACAD_REACTORS
330
532
102
}
330
532
100
AcDbScale
 70
     0
300
2:1
140
2.0
141
1.0
290
     0
  0
SCALE
  5
540
102
{ACAD_REACTORS
330
532
102
}
330
532
100
AcDbScale
 70
     0
300
4:1
140
4.0
141
1.0
290
     0
  0
SCALE
  5
541
102
{ACAD_REACTORS
330
532
102
}
330
532
100
AcDbScale
 70
     0
300
8:1
140
8.0
141
1.0
290
     0
  0
SCALE
  5
542
102
{ACAD_REACTORS
330
532
102
}
330
532
100
AcDbScale
 70
     0
300
10:1
140
10.0
141
1.0
290
     0
  0
SCALE
  5
543
102
{ACAD_REACTORS
330
532
102
}
330
532
100
AcDbScale
 70
     0
300
100:1
140
100.0
141
1.0
290
     0
  0
SCALE
  5
544
102
{ACAD_REACTORS
330
532
102
}
330
532
100
AcDbScale
 70
     0
300
1/128" = 1'-0"
140
0.0078125
141
12.0
290
     0
  0
SCALE
  5
545
102
{ACAD_REACTORS
330
532
102
}
330
532
100
AcDbScale
 70
     0
300
1/64" = 1'-0"
140
0.015625
141
12.0
290
     0
  0
SCALE
  5
546
102
{ACAD_REACTORS
330
532
102
}
330
532
100
AcDbScale
 70
     0
300
1/32" = 1'-0"
140
0.03125
141
12.0
290
     0
  0
SCALE
  5
547
102
{ACAD_REACTORS
330
532
102
}
330
532
100
AcDbScale
 70
     0
300
1/16" = 1'-0"
140
0.0625
141
12.0
290
     0
  0
SCALE
  5
548
102
{ACAD_REACTORS
330
532
102
}
330
532
100
AcDbScale
 70
     0
300
3/32" = 1'-0"
140
0.09375
141
12.0
290
     0
  0
SCALE
  5
549
102
{ACAD_REACTORS
330
532
102
}
330
532
100
AcDbScale
 70
     0
300
1/8" = 1'-0"
140
0.125
141
12.0
290
     0
  0
SCALE
  5
54A
102
{ACAD_REACTORS
330
532
102
}
330
532
100
AcDbScale
 70
     0
300
3/16" = 1'-0"
140
0.1875
141
12.0
290
     0
  0
SCALE
  5
54B
102
{ACAD_REACTORS
330
532
102
}
330
532
100
AcDbScale
 70
     0
300
1/4" = 1'-0"
140
0.25
141
12.0
290
     0
  0
SCALE
  5
54C
102
{ACAD_REACTORS
330
532
102
}
330
532
100
AcDbScale
 70
     0
300
3/8" = 1'-0"
140
0.375
141
12.0
290
     0
  0
SCALE
  5
54D
102
{ACAD_REACTORS
330
532
102
}
330
532
100
AcDbScale
 70
     0
300
1/2" = 1'-0"
140
0.5
141
12.0
290
     0
  0
SCALE
  5
54E
102
{ACAD_REACTORS
330
532
102
}
330
532
100
AcDbScale
 70
     0
300
3/4" = 1'-0"
140
0.75
141
12.0
290
     0
  0
SCALE
  5
54F
102
{ACAD_REACTORS
330
532
102
}
330
532
100
AcDbScale
 70
     0
300
1" = 1'-0"
140
1.0
141
12.0
290
     0
  0
SCALE
  5
550
102
{ACAD_REACTORS
330
532
102
}
330
532
100
AcDbScale
 70
     0
300
1-1/2" = 1'-0"
140
1.5
141
12.0
290
     0
  0
SCALE
  5
551
102
{ACAD_REACTORS
330
532
102
}
330
532
100
AcDbScale
 70
     0
300
3" = 1'-0"
140
3.0
141
12.0
290
     0
  0
SCALE
  5
552
102
{ACAD_REACTORS
330
532
102
}
330
532
100
AcDbScale
 70
     0
300
6" = 1'-0"
140
6.0
141
12.0
290
     0
  0
SCALE
  5
553
102
{ACAD_REACTORS
330
532
102
}
330
532
100
AcDbScale
 70
     0
300
1'-0" = 1'-0"
140
12.0
141
12.0
290
     0
  0
VISUALSTYLE
  5
2F
102
{ACAD_REACTORS
330
2A
102
}
102
{ACAD_XDICTIONARY
360
560
102
}
330
2A
100
AcDbVisualStyle
  2
2dWireframe
 70
     4
 71
     0
 72
     2
 73
     0
 90
        0
 40
-0.6
 41
-30.0
 62
     5
 63
     7
421
 16777215
 74
     1
 91
        4
 64
     7
 65
   257
 75
     1
175
     1
 42
1.0
 92
        0
 66
   257
 43
1.0
 76
     1
 77
     6
 78
     2
 67
     7
 79
     5
170
     0
171
     0
290
     0
174
     0
 93
        1
 44
0.0
173
     0
291
     0
 45
0.0
1001
ACAD
1000
AcDbSavedByObjectVersion
1070
     0
  0
VISUALSTYLE
  5
31
102
{ACAD_REACTORS
330
2A
102
}
102
{ACAD_XDICTIONARY
360
564
102
}
330
2A
100
AcDbVisualStyle
  2
3D Hidden
 70
     6
 71
     1
 72
     2
 73
     2
 90
        0
 40
-0.6
 41
-30.0
 62
     5
 63
     7
421
 16777215
 74
     2
 91
        2
 64
     7
 65
   257
 75
     2
175
     1
 42
40.0
 92
        0
 66
   257
 43
1.0
 76
     1
 77
     6
 78
     2
 67
     7
 79
     3
170
     0
171
     0
290
     0
174
     0
 93
        1
 44
0.0
173
     0
291
     0
 45
0.0
1001
ACAD
1000
AcDbSavedByObjectVersion
1070
     0
  0
VISUALSTYLE
  5
30
102
{ACAD_REACTORS
330
2A
102
}
102
{ACAD_XDICTIONARY
360
562
102
}
330
2A
100
AcDbVisualStyle
  2
3dWireframe
 70
     5
 71
     0
 72
     2
 73
     0
 90
        0
 40
-0.6
 41
-30.0
 62
     5
 63
     7
421
 16777215
 74
     1
 91
        4
 64
     7
 65
   257
 75
     1
175
     1
 42
1.0
 92
        0
 66
   257
 43
1.0
 76
     1
 77
     6
 78
     2
 67
     7
 79
     5
170
     0
171
     0
290
     0
174
     0
 93
        1
 44
0.0
173
     0
291
     0
 45
0.0
1001
ACAD
1000
AcDbSavedByObjectVersion
1070
     0
  0
VISUALSTYLE
  5
32
102
{ACAD_REACTORS
330
2A
102
}
102
{ACAD_XDICTIONARY
360
566
102
}
330
2A
100
AcDbVisualStyle
  2
Basic
 70
     7
 71
     1
 72
     0
 73
     1
 90
        0
 40
-0.6
 41
-30.0
 62
     5
 63
     7
421
 16777215
 74
     0
 91
        4
 64
     7
 65
   257
 75
     1
175
     1
 42
1.0
 92
        8
 66
     7
 43
1.0
 76
     1
 77
     6
 78
     2
 67
     7
 79
     5
170
     0
171
     0
290
     0
174
     0
 93
        1
 44
0.0
173
     0
291
     1
 45
0.0
1001
ACAD
1000
AcDbSavedByObjectVersion
1070
     0
  0
VISUALSTYLE
  5
36
102
{ACAD_REACTORS
330
2A
102
}
102
{ACAD_XDICTIONARY
360
56E
102
}
330
2A
100
AcDbVisualStyle
  2
Brighten
 70
    12
 71
     2
 72
     2
 73
     0
 90
        0
 40
-0.6
 41
-30.0
 62
     5
 63
     7
421
 16777215
 74
     1
 91
        4
 64
     7
 65
   257
 75
     1
175
     1
 42
1.0
 92
        8
 66
     7
 43
1.0
 76
     1
 77
     6
 78
     2
 67
     7
 79
     5
170
     0
171
     0
290
     0
174
     0
 93
        1
 44
50.0
173
     0
291
     1
 45
0.0
1001
ACAD
1000
AcDbSavedByObjectVersion
1070
     0
  0
VISUALSTYLE
  5
3A
102
{ACAD_REACTORS
330
2A
102
}
102
{ACAD_XDICTIONARY
360
576
102
}
330
2A
100
AcDbVisualStyle
  2
ColorChange
 70
    16
 71
     2
 72
     2
 73
     3
 90
        0
 40
-0.6
 41
-30.0
 62
     5
 63
     8
421
  8421504
 74
     1
 91
        4
 64
     7
 65
   257
 75
     1
175
     1
 42
1.0
 92
        8
 66
     8
424
  8421504
 43
1.0
 76
     1
 77
     6
 78
     2
 67
     7
 79
     5
170
     0
171
     0
290
     0
174
     0
 93
        1
 44
0.0
173
     0
291
     1
 45
0.0
1001
ACAD
1000
AcDbSavedByObjectVersion
1070
     0
  0
VISUALSTYLE
  5
34
102
{ACAD_REACTORS
330
2A
102
}
102
{ACAD_XDICTIONARY
360
56A
102
}
330
2A
100
AcDbVisualStyle
  2
Conceptual
 70
     9
 71
     3
 72
     2
 73
     0
 90
        0
 40
-0.6
 41
-30.0
 62
     5
 63
     7
421
 16777215
 74
     2
 91
        2
 64
     7
 65
   257
 75
     1
175
     1
 42
40.0
 92
        8
 66
     7
 43
1.0
 76
     1
 77
     6
 78
     2
 67
     7
 79
     3
170
     0
171
     0
290
     0
174
     0
 93
        1
 44
0.0
173
     0
291
     0
 45
0.0
1001
ACAD
1000
AcDbSavedByObjectVersion
1070
     0
  0
VISUALSTYLE
  5
35
102
{ACAD_REACTORS
330
2A
102
}
102
{ACAD_XDICTIONARY
360
56C
102
}
330
2A
100
AcDbVisualStyle
  2
Dim
 70
    11
 71
     2
 72
     2
 73
     0
 90
        0
 40
-0.6
 41
-30.0
 62
     5
 63
     7
421
 16777215
 74
     1
 91
        4
 64
     7
 65
   257
 75
     1
175
     1
 42
1.0
 92
        8
 66
     7
 43
1.0
 76
     1
 77
     6
 78
     2
 67
     7
 79
     5
170
     0
171
     0
290
     0
174
     0
 93
        1
 44
-50.0
173
     0
291
     1
 45
0.0
1001
ACAD
1000
AcDbSavedByObjectVersion
1070
     0
  0
VISUALSTYLE
  5
39
102
{ACAD_REACTORS
330
2A
102
}
102
{ACAD_XDICTIONARY
360
574
102
}
330
2A
100
AcDbVisualStyle
  2
Facepattern
 70
    15
 71
     2
 72
     2
 73
     0
 90
        0
 40
-0.6
 41
-30.0
 62
     5
 63
     7
421
 16777215
 74
     1
 91
        4
 64
     7
 65
   257
 75
     1
175
     1
 42
1.0
 92
        8
 66
     7
 43
1.0
 76
     1
 77
     6
 78
     2
 67
     7
 79
     5
170
     0
171
     0
290
     0
174
     0
 93
        1
 44
0.0
173
     0
291
     1
 45
0.0
1001
ACAD
1000
AcDbSavedByObjectVersion
1070
     0
  0
VISUALSTYLE
  5
2B
102
{ACAD_REACTORS
330
2A
102
}
102
{ACAD_XDICTIONARY
360
558
102
}
330
2A
100
AcDbVisualStyle
  2
Flat
 70
     0
 71
     2
 72
     1
 73
     1
 90
        2
 40
-0.6
 41
30.0
 62
     5
 63
     7
421
 16777215
 74
     0
 91
        4
 64
     7
 65
   257
 75
     1
175
     1
 42
1.0
 92
        8
 66
     7
 43
1.0
 76
     1
 77
     6
 78
     2
 67
     7
 79
     5
170
     0
171
     0
290
     0
174
     0
 93
       13
 44
0.0
173
     0
291
     1
 45
0.0
1001
ACAD
1000
AcDbSavedByObjectVersion
1070
     0
  0
VISUALSTYLE
  5
2C
102
{ACAD_REACTORS
330
2A
102
}
102
{ACAD_XDICTIONARY
360
55A
102
}
330
2A
100
AcDbVisualStyle
  2
FlatWithEdges
 70
     1
 71
     2
 72
     1
 73
     1
 90
        2
 40
-0.6
 41
30.0
 62
     5
 63
     7
421
 16777215
 74
     1
 91
        4
 64
     7
 65
   257
 75
     1
175
     1
 42
1.0
 92
        0
 66
   257
 43
1.0
 76
     1
 77
     6
 78
     2
 67
     7
 79
     5
170
     0
171
     0
290
     0
174
     0
 93
       13
 44
0.0
173
     0
291
     1
 45
0.0
1001
ACAD
1000
AcDbSavedByObjectVersion
1070
     0
  0
VISUALSTYLE
  5
2D
102
{ACAD_REACTORS
330
2A
102
}
102
{ACAD_XDICTIONARY
360
55C
102
}
330
2A
100
AcDbVisualStyle
  2
Gouraud
 70
     2
 71
     2
 72
     2
 73
     1
 90
        2
 40
-0.6
 41
30.0
 62
     5
 63
     7
421
 16777215
 74
     0
 91
        4
 64
     7
 65
   257
 75
     1
175
     1
 42
1.0
 92
        0
 66
     7
 43
1.0
 76
     1
 77
     6
 78
     2
 67
     7
 79
     5
170
     0
171
     0
290
     0
174
     0
 93
       13
 44
0.0
173
     0
291
     1
 45
0.0
1001
ACAD
1000
AcDbSavedByObjectVersion
1070
     0
  0
VISUALSTYLE
  5
2E
102
{ACAD_REACTORS
330
2A
102
}
102
{ACAD_XDICTIONARY
360
55E
102
}
330
2A
100
AcDbVisualStyle
  2
GouraudWithEdges
 70
     3
 71
     2
 72
     2
 73
     1
 90
        2
 40
-0.6
 41
30.0
 62
     5
 63
     7
421
 16777215
 74
     1
 91
        4
 64
     7
 65
   257
 75
     1
175
     1
 42
1.0
 92
        0
 66
   257
 43
1.0
 76
     1
 77
     6
 78
     2
 67
     7
 79
     5
170
     0
171
     0
290
     0
174
     0
 93
       13
 44
0.0
173
     0
291
     1
 45
0.0
1001
ACAD
1000
AcDbSavedByObjectVersion
1070
     0
  0
VISUALSTYLE
  5
38
102
{ACAD_REACTORS
330
2A
102
}
102
{ACAD_XDICTIONARY
360
572
102
}
330
2A
100
AcDbVisualStyle
  2
Linepattern
 70
    14
 71
     2
 72
     2
 73
     0
 90
        0
 40
-0.6
 41
-30.0
 62
     5
 63
     7
421
 16777215
 74
     1
 91
        4
 64
     7
 65
   257
 75
     7
175
     7
 42
1.0
 92
        8
 66
     7
 43
1.0
 76
     1
 77
     6
 78
     2
 67
     7
 79
     5
170
     0
171
     0
290
     0
174
     0
 93
        1
 44
0.0
173
     0
291
     1
 45
0.0
1001
ACAD
1000
AcDbSavedByObjectVersion
1070
     0
  0
VISUALSTYLE
  5
33
102
{ACAD_REACTORS
330
2A
102
}
102
{ACAD_XDICTIONARY
360
568
102
}
330
2A
100
AcDbVisualStyle
  2
Realistic
 70
     8
 71
     2
 72
     2
 73
     0
 90
        0
 40
-0.6
 41
-30.0
 62
     5
 63
     7
421
 16777215
 74
     1
 91
        0
 64
     7
 65
   257
 75
     1
175
     1
 42
1.0
 92
        8
 66
     8
424
  7895160
 43
1.0
 76
     1
 77
     6
 78
     2
 67
     7
 79
     5
170
     0
171
     0
290
     0
174
     0
 93
       13
 44
0.0
173
     0
291
     0
 45
0.0
1001
ACAD
1000
AcDbSavedByObjectVersion
1070
     0
  0
VISUALSTYLE
  5
37
102
{ACAD_REACTORS
330
2A
102
}
102
{ACAD_XDICTIONARY
360
570
102
}
330
2A
100
AcDbVisualStyle
  2
Thicken
 70
    13
 71
     2
 72
     2
 73
     0
 90
        0
 40
-0.6
 41
-30.0
 62
     5
 63
     7
421
 16777215
 74
     1
 91
        4
 64
     7
 65
   257
 75
     1
175
     1
 42
1.0
 92
       12
 66
     7
 43
1.0
 76
     1
 77
     6
 78
     2
 67
     7
 79
     5
170
     0
171
     0
290
     0
174
     0
 93
        1
 44
0.0
173
     0
291
     1
 45
0.0
1001
ACAD
1000
AcDbSavedByObjectVersion
1070
     0
  0
DICTIONARYVAR
  5
557
102
{ACAD_REACTORS
330
556
102
}
330
556
100
DictionaryVariables
280
     0
  1
1:1
  0
DICTIONARY
  5
57A
330
3D
100
AcDbDictionary
280
     1
281
     1
  3
ACAD_XREC_ROUNDTRIP
360
57B
  0
DICTIONARY
  5
578
330
3C
100
AcDbDictionary
280
     1
281
     1
  3
ACAD_XREC_ROUNDTRIP
360
579
  0
DICTIONARY
  5
57C
330
3E
100
AcDbDictionary
280
     1
281
     1
  3
ACAD_XREC_ROUNDTRIP
360
57D
  0
DICTIONARY
  5
560
330
2F
100
AcDbDictionary
280
     1
281
     1
  3
ACAD_XREC_ROUNDTRIP
360
561
  0
DICTIONARY
  5
564
330
31
100
AcDbDictionary
280
     1
281
     1
  3
ACAD_XREC_ROUNDTRIP
360
565
  0
DICTIONARY
  5
562
330
30
100
AcDbDictionary
280
     1
281
     1
  3
ACAD_XREC_ROUNDTRIP
360
563
  0
DICTIONARY
  5
566
330
32
100
AcDbDictionary
280
     1
281
     1
  3
ACAD_XREC_ROUNDTRIP
360
567
  0
DICTIONARY
  5
56E
330
36
100
AcDbDictionary
280
     1
281
     1
  3
ACAD_XREC_ROUNDTRIP
360
56F
  0
DICTIONARY
  5
576
330
3A
100
AcDbDictionary
280
     1
281
     1
  3
ACAD_XREC_ROUNDTRIP
360
577
  0
DICTIONARY
  5
56A
330
34
100
AcDbDictionary
280
     1
281
     1
  3
ACAD_XREC_ROUNDTRIP
360
56B
  0
DICTIONARY
  5
56C
330
35
100
AcDbDictionary
280
     1
281
     1
  3
ACAD_XREC_ROUNDTRIP
360
56D
  0
DICTIONARY
  5
574
330
39
100
AcDbDictionary
280
     1
281
     1
  3
ACAD_XREC_ROUNDTRIP
360
575
  0
DICTIONARY
  5
558
330
2B
100
AcDbDictionary
280
     1
281
     1
  3
ACAD_XREC_ROUNDTRIP
360
559
  0
DICTIONARY
  5
55A
330
2C
100
AcDbDictionary
280
     1
281
     1
  3
ACAD_XREC_ROUNDTRIP
360
55B
  0
DICTIONARY
  5
55C
330
2D
100
AcDbDictionary
280
     1
281
     1
  3
ACAD_XREC_ROUNDTRIP
360
55D
  0
DICTIONARY
  5
55E
330
2E
100
AcDbDictionary
280
     1
281
     1
  3
ACAD_XREC_ROUNDTRIP
360
55F
  0
DICTIONARY
  5
572
330
38
100
AcDbDictionary
280
     1
281
     1
  3
ACAD_XREC_ROUNDTRIP
360
573
  0
DICTIONARY
  5
568
330
33
100
AcDbDictionary
280
     1
281
     1
  3
ACAD_XREC_ROUNDTRIP
360
569
  0
DICTIONARY
  5
570
330
37
100
AcDbDictionary
280
     1
281
     1
  3
ACAD_XREC_ROUNDTRIP
360
571
  0
XRECORD
  5
57B
102
{ACAD_REACTORS
330
57A
102
}
330
57A
100
AcDbXrecord
280
     1
102
MATERIAL
148
0.0
149
0.0
149
0.0
 93
        0
 94
      127
282
     0
 72
     1
 77
     1
171
     1
175
     1
179
     1
273
     0
  0
XRECORD
  5
579
102
{ACAD_REACTORS
330
578
102
}
330
578
100
AcDbXrecord
280
     1
102
MATERIAL
148
0.0
149
0.0
149
0.0
 93
        0
 94
      127
282
     0
 72
     1
 77
     1
171
     1
175
     1
179
     1
273
     0
  0
XRECORD
  5
57D
102
{ACAD_REACTORS
330
57C
102
}
330
57C
100
AcDbXrecord
280
     1
102
MATERIAL
148
0.0
149
0.0
149
0.0
 93
        0
 94
      127
282
     0
 72
     1
 77
     1
171
     1
175
     1
179
     1
273
     0
  0
XRECORD
  5
561
102
{ACAD_REACTORS
330
560
102
}
330
560
100
AcDbXrecord
280
     1
102
RTVSPropertyOp0
 70
     1
102
RTVSPropertyOp1
 70
     1
102
RTVSPropertyOp2
 70
     1
102
RTVSPropertyOp3
 70
     1
102
RTVSPropertyOp4
 70
     1
102
RTVSPropertyOp5
 70
     1
102
RTVSPropertyOp6
 70
     1
102
RTVSPropertyOp7
 70
     1
102
RTVSPropertyOp8
 70
     1
102
RTVSPropertyOp9
 70
     1
102
RTVSPropertyOp10
 70
     1
102
RTVSPropertyOp11
 70
     1
102
RTVSPropertyOp12
 70
     1
102
RTVSPropertyOp13
 70
     1
102
RTVSPropertyOp14
 70
     1
102
RTVSPropertyOp15
 70
     1
102
RTVSPropertyOp16
 70
     1
102
RTVSPropertyOp17
 70
     1
102
RTVSPropertyOp18
 70
     1
102
RTVSPropertyOp19
 70
     1
102
RTVSPropertyOp20
 70
     1
102
RTVSPropertyOp21
 70
     1
102
RTVSPropertyOp22
 70
     1
102
RTVSPropertyOp23
 70
     1
102
RTVSPropertyOp24
 70
     1
102
RTVSPropertyOp25
 70
     1
102
RTVSPropertyOp26
 70
     1
102
RTVSPropertyOp27
 70
     1
  0
XRECORD
  5
565
102
{ACAD_REACTORS
330
564
102
}
330
564
100
AcDbXrecord
280
     1
102
RTVSPropertyOp0
 70
     1
102
RTVSPropertyOp1
 70
     1
102
RTVSPropertyOp2
 70
     1
102
RTVSPropertyOp3
 70
     1
102
RTVSPropertyOp4
 70
     1
102
RTVSPropertyOp5
 70
     1
102
RTVSPropertyOp6
 70
     1
102
RTVSPropertyOp7
 70
     1
102
RTVSPropertyOp8
 70
     1
102
RTVSPropertyOp9
 70
     1
102
RTVSPropertyOp10
 70
     1
102
RTVSPropertyOp11
 70
     1
102
RTVSPropertyOp12
 70
     1
102
RTVSPropertyOp13
 70
     1
102
RTVSPropertyOp14
 70
     1
102
RTVSPropertyOp15
 70
     1
102
RTVSPropertyOp16
 70
     1
102
RTVSPropertyOp17
 70
     1
102
RTVSPropertyOp18
 70
     1
102
RTVSPropertyOp19
 70
     1
102
RTVSPropertyOp20
 70
     1
102
RTVSPropertyOp21
 70
     1
102
RTVSPropertyOp22
 70
     1
102
RTVSPropertyOp23
 70
     1
102
RTVSPropertyOp24
 70
     1
102
RTVSPropertyOp25
 70
     1
102
RTVSPropertyOp26
 70
     1
102
RTVSPropertyOp27
 70
     1
  0
XRECORD
  5
563
102
{ACAD_REACTORS
330
562
102
}
330
562
100
AcDbXrecord
280
     1
102
RTVSPropertyOp0
 70
     1
102
RTVSPropertyOp1
 70
     1
102
RTVSPropertyOp2
 70
     1
102
RTVSPropertyOp3
 70
     1
102
RTVSPropertyOp4
 70
     1
102
RTVSPropertyOp5
 70
     1
102
RTVSPropertyOp6
 70
     1
102
RTVSPropertyOp7
 70
     1
102
RTVSPropertyOp8
 70
     1
102
RTVSPropertyOp9
 70
     1
102
RTVSPropertyOp10
 70
     1
102
RTVSPropertyOp11
 70
     1
102
RTVSPropertyOp12
 70
     1
102
RTVSPropertyOp13
 70
     1
102
RTVSPropertyOp14
 70
     1
102
RTVSPropertyOp15
 70
     1
102
RTVSPropertyOp16
 70
     1
102
RTVSPropertyOp17
 70
     1
102
RTVSPropertyOp18
 70
     1
102
RTVSPropertyOp19
 70
     1
102
RTVSPropertyOp20
 70
     1
102
RTVSPropertyOp21
 70
     1
102
RTVSPropertyOp22
 70
     1
102
RTVSPropertyOp23
 70
     1
102
RTVSPropertyOp24
 70
     1
102
RTVSPropertyOp25
 70
     1
102
RTVSPropertyOp26
 70
     1
102
RTVSPropertyOp27
 70
     1
  0
XRECORD
  5
567
102
{ACAD_REACTORS
330
566
102
}
330
566
100
AcDbXrecord
280
     1
102
RTVSPropertyOp0
 70
     1
102
RTVSPropertyOp1
 70
     1
102
RTVSPropertyOp2
 70
     1
102
RTVSPropertyOp3
 70
     1
102
RTVSPropertyOp4
 70
     1
102
RTVSPropertyOp5
 70
     1
102
RTVSPropertyOp6
 70
     1
102
RTVSPropertyOp7
 70
     1
102
RTVSPropertyOp8
 70
     1
102
RTVSPropertyOp9
 70
     1
102
RTVSPropertyOp10
 70
     1
102
RTVSPropertyOp11
 70
     1
102
RTVSPropertyOp12
 70
     1
102
RTVSPropertyOp13
 70
     1
102
RTVSPropertyOp14
 70
     1
102
RTVSPropertyOp15
 70
     1
102
RTVSPropertyOp16
 70
     1
102
RTVSPropertyOp17
 70
     1
102
RTVSPropertyOp18
 70
     1
102
RTVSPropertyOp19
 70
     1
102
RTVSPropertyOp20
 70
     1
102
RTVSPropertyOp21
 70
     1
102
RTVSPropertyOp22
 70
     1
102
RTVSPropertyOp23
 70
     1
102
RTVSPropertyOp24
 70
     1
102
RTVSPropertyOp25
 70
     1
102
RTVSPropertyOp26
 70
     1
102
RTVSPropertyOp27
 70
     1
  0
XRECORD
  5
56F
102
{ACAD_REACTORS
330
56E
102
}
330
56E
100
AcDbXrecord
280
     1
102
RTVSPropertyOp0
 70
     1
102
RTVSPropertyOp1
 70
     1
102
RTVSPropertyOp2
 70
     1
102
RTVSPropertyOp3
 70
     1
102
RTVSPropertyOp4
 70
     1
102
RTVSPropertyOp5
 70
     1
102
RTVSPropertyOp6
 70
     1
102
RTVSPropertyOp7
 70
     1
102
RTVSPropertyOp8
 70
     1
102
RTVSPropertyOp9
 70
     1
102
RTVSPropertyOp10
 70
     1
102
RTVSPropertyOp11
 70
     1
102
RTVSPropertyOp12
 70
     1
102
RTVSPropertyOp13
 70
     1
102
RTVSPropertyOp14
 70
     1
102
RTVSPropertyOp15
 70
     1
102
RTVSPropertyOp16
 70
     1
102
RTVSPropertyOp17
 70
     1
102
RTVSPropertyOp18
 70
     1
102
RTVSPropertyOp19
 70
     1
102
RTVSPropertyOp20
 70
     1
102
RTVSPropertyOp21
 70
     1
102
RTVSPropertyOp22
 70
     1
102
RTVSPropertyOp23
 70
     1
102
RTVSPropertyOp24
 70
     1
102
RTVSPropertyOp25
 70
     1
102
RTVSPropertyOp26
 70
     1
102
RTVSPropertyOp27
 70
     1
  0
XRECORD
  5
577
102
{ACAD_REACTORS
330
576
102
}
330
576
100
AcDbXrecord
280
     1
102
RTVSPropertyOp0
 70
     1
102
RTVSPropertyOp1
 70
     1
102
RTVSPropertyOp2
 70
     1
102
RTVSPropertyOp3
 70
     1
102
RTVSPropertyOp4
 70
     1
102
RTVSPropertyOp5
 70
     1
102
RTVSPropertyOp6
 70
     1
102
RTVSPropertyOp7
 70
     1
102
RTVSPropertyOp8
 70
     1
102
RTVSPropertyOp9
 70
     1
102
RTVSPropertyOp10
 70
     1
102
RTVSPropertyOp11
 70
     1
102
RTVSPropertyOp12
 70
     1
102
RTVSPropertyOp13
 70
     1
102
RTVSPropertyOp14
 70
     1
102
RTVSPropertyOp15
 70
     1
102
RTVSPropertyOp16
 70
     1
102
RTVSPropertyOp17
 70
     1
102
RTVSPropertyOp18
 70
     1
102
RTVSPropertyOp19
 70
     1
102
RTVSPropertyOp20
 70
     1
102
RTVSPropertyOp21
 70
     1
102
RTVSPropertyOp22
 70
     1
102
RTVSPropertyOp23
 70
     1
102
RTVSPropertyOp24
 70
     1
102
RTVSPropertyOp25
 70
     1
102
RTVSPropertyOp26
 70
     1
102
RTVSPropertyOp27
 70
     1
  0
XRECORD
  5
56B
102
{ACAD_REACTORS
330
56A
102
}
330
56A
100
AcDbXrecord
280
     1
102
RTVSPropertyOp0
 70
     1
102
RTVSPropertyOp1
 70
     1
102
RTVSPropertyOp2
 70
     1
102
RTVSPropertyOp3
 70
     1
102
RTVSPropertyOp4
 70
     1
102
RTVSPropertyOp5
 70
     1
102
RTVSPropertyOp6
 70
     1
102
RTVSPropertyOp7
 70
     1
102
RTVSPropertyOp8
 70
     1
102
RTVSPropertyOp9
 70
     1
102
RTVSPropertyOp10
 70
     1
102
RTVSPropertyOp11
 70
     1
102
RTVSPropertyOp12
 70
     1
102
RTVSPropertyOp13
 70
     1
102
RTVSPropertyOp14
 70
     1
102
RTVSPropertyOp15
 70
     1
102
RTVSPropertyOp16
 70
     1
102
RTVSPropertyOp17
 70
     1
102
RTVSPropertyOp18
 70
     1
102
RTVSPropertyOp19
 70
     1
102
RTVSPropertyOp20
 70
     1
102
RTVSPropertyOp21
 70
     1
102
RTVSPropertyOp22
 70
     1
102
RTVSPropertyOp23
 70
     1
102
RTVSPropertyOp24
 70
     1
102
RTVSPropertyOp25
 70
     1
102
RTVSPropertyOp26
 70
     1
102
RTVSPropertyOp27
 70
     1
  0
XRECORD
  5
56D
102
{ACAD_REACTORS
330
56C
102
}
330
56C
100
AcDbXrecord
280
     1
102
RTVSPropertyOp0
 70
     1
102
RTVSPropertyOp1
 70
     1
102
RTVSPropertyOp2
 70
     1
102
RTVSPropertyOp3
 70
     1
102
RTVSPropertyOp4
 70
     1
102
RTVSPropertyOp5
 70
     1
102
RTVSPropertyOp6
 70
     1
102
RTVSPropertyOp7
 70
     1
102
RTVSPropertyOp8
 70
     1
102
RTVSPropertyOp9
 70
     1
102
RTVSPropertyOp10
 70
     1
102
RTVSPropertyOp11
 70
     1
102
RTVSPropertyOp12
 70
     1
102
RTVSPropertyOp13
 70
     1
102
RTVSPropertyOp14
 70
     1
102
RTVSPropertyOp15
 70
     1
102
RTVSPropertyOp16
 70
     1
102
RTVSPropertyOp17
 70
     1
102
RTVSPropertyOp18
 70
     1
102
RTVSPropertyOp19
 70
     1
102
RTVSPropertyOp20
 70
     1
102
RTVSPropertyOp21
 70
     1
102
RTVSPropertyOp22
 70
     1
102
RTVSPropertyOp23
 70
     1
102
RTVSPropertyOp24
 70
     1
102
RTVSPropertyOp25
 70
     1
102
RTVSPropertyOp26
 70
     1
102
RTVSPropertyOp27
 70
     1
  0
XRECORD
  5
575
102
{ACAD_REACTORS
330
574
102
}
330
574
100
AcDbXrecord
280
     1
102
RTVSPropertyOp0
 70
     1
102
RTVSPropertyOp1
 70
     1
102
RTVSPropertyOp2
 70
     1
102
RTVSPropertyOp3
 70
     1
102
RTVSPropertyOp4
 70
     1
102
RTVSPropertyOp5
 70
     1
102
RTVSPropertyOp6
 70
     1
102
RTVSPropertyOp7
 70
     1
102
RTVSPropertyOp8
 70
     1
102
RTVSPropertyOp9
 70
     1
102
RTVSPropertyOp10
 70
     1
102
RTVSPropertyOp11
 70
     1
102
RTVSPropertyOp12
 70
     1
102
RTVSPropertyOp13
 70
     1
102
RTVSPropertyOp14
 70
     1
102
RTVSPropertyOp15
 70
     1
102
RTVSPropertyOp16
 70
     1
102
RTVSPropertyOp17
 70
     1
102
RTVSPropertyOp18
 70
     1
102
RTVSPropertyOp19
 70
     1
102
RTVSPropertyOp20
 70
     1
102
RTVSPropertyOp21
 70
     1
102
RTVSPropertyOp22
 70
     1
102
RTVSPropertyOp23
 70
     1
102
RTVSPropertyOp24
 70
     1
102
RTVSPropertyOp25
 70
     1
102
RTVSPropertyOp26
 70
     1
102
RTVSPropertyOp27
 70
     1
  0
XRECORD
  5
559
102
{ACAD_REACTORS
330
558
102
}
330
558
100
AcDbXrecord
280
     1
102
RTVSPropertyOp0
 70
     1
102
RTVSPropertyOp1
 70
     1
102
RTVSPropertyOp2
 70
     1
102
RTVSPropertyOp3
 70
     1
102
RTVSPropertyOp4
 70
     1
102
RTVSPropertyOp5
 70
     1
102
RTVSPropertyOp6
 70
     1
102
RTVSPropertyOp7
 70
     1
102
RTVSPropertyOp8
 70
     1
102
RTVSPropertyOp9
 70
     1
102
RTVSPropertyOp10
 70
     1
102
RTVSPropertyOp11
 70
     1
102
RTVSPropertyOp12
 70
     1
102
RTVSPropertyOp13
 70
     1
102
RTVSPropertyOp14
 70
     1
102
RTVSPropertyOp15
 70
     1
102
RTVSPropertyOp16
 70
     1
102
RTVSPropertyOp17
 70
     1
102
RTVSPropertyOp18
 70
     1
102
RTVSPropertyOp19
 70
     1
102
RTVSPropertyOp20
 70
     1
102
RTVSPropertyOp21
 70
     1
102
RTVSPropertyOp22
 70
     1
102
RTVSPropertyOp23
 70
     1
102
RTVSPropertyOp24
 70
     1
102
RTVSPropertyOp25
 70
     1
102
RTVSPropertyOp26
 70
     1
102
RTVSPropertyOp27
 70
     1
  0
XRECORD
  5
55B
102
{ACAD_REACTORS
330
55A
102
}
330
55A
100
AcDbXrecord
280
     1
102
RTVSPropertyOp0
 70
     1
102
RTVSPropertyOp1
 70
     1
102
RTVSPropertyOp2
 70
     1
102
RTVSPropertyOp3
 70
     1
102
RTVSPropertyOp4
 70
     1
102
RTVSPropertyOp5
 70
     1
102
RTVSPropertyOp6
 70
     1
102
RTVSPropertyOp7
 70
     1
102
RTVSPropertyOp8
 70
     1
102
RTVSPropertyOp9
 70
     1
102
RTVSPropertyOp10
 70
     1
102
RTVSPropertyOp11
 70
     1
102
RTVSPropertyOp12
 70
     1
102
RTVSPropertyOp13
 70
     1
102
RTVSPropertyOp14
 70
     1
102
RTVSPropertyOp15
 70
     1
102
RTVSPropertyOp16
 70
     1
102
RTVSPropertyOp17
 70
     1
102
RTVSPropertyOp18
 70
     1
102
RTVSPropertyOp19
 70
     1
102
RTVSPropertyOp20
 70
     1
102
RTVSPropertyOp21
 70
     1
102
RTVSPropertyOp22
 70
     1
102
RTVSPropertyOp23
 70
     1
102
RTVSPropertyOp24
 70
     1
102
RTVSPropertyOp25
 70
     1
102
RTVSPropertyOp26
 70
     1
102
RTVSPropertyOp27
 70
     1
  0
XRECORD
  5
55D
102
{ACAD_REACTORS
330
55C
102
}
330
55C
100
AcDbXrecord
280
     1
102
RTVSPropertyOp0
 70
     1
102
RTVSPropertyOp1
 70
     1
102
RTVSPropertyOp2
 70
     1
102
RTVSPropertyOp3
 70
     1
102
RTVSPropertyOp4
 70
     1
102
RTVSPropertyOp5
 70
     1
102
RTVSPropertyOp6
 70
     1
102
RTVSPropertyOp7
 70
     1
102
RTVSPropertyOp8
 70
     1
102
RTVSPropertyOp9
 70
     1
102
RTVSPropertyOp10
 70
     1
102
RTVSPropertyOp11
 70
     1
102
RTVSPropertyOp12
 70
     1
102
RTVSPropertyOp13
 70
     1
102
RTVSPropertyOp14
 70
     1
102
RTVSPropertyOp15
 70
     1
102
RTVSPropertyOp16
 70
     1
102
RTVSPropertyOp17
 70
     1
102
RTVSPropertyOp18
 70
     1
102
RTVSPropertyOp19
 70
     1
102
RTVSPropertyOp20
 70
     1
102
RTVSPropertyOp21
 70
     1
102
RTVSPropertyOp22
 70
     1
102
RTVSPropertyOp23
 70
     1
102
RTVSPropertyOp24
 70
     1
102
RTVSPropertyOp25
 70
     1
102
RTVSPropertyOp26
 70
     1
102
RTVSPropertyOp27
 70
     1
  0
XRECORD
  5
55F
102
{ACAD_REACTORS
330
55E
102
}
330
55E
100
AcDbXrecord
280
     1
102
RTVSPropertyOp0
 70
     1
102
RTVSPropertyOp1
 70
     1
102
RTVSPropertyOp2
 70
     1
102
RTVSPropertyOp3
 70
     1
102
RTVSPropertyOp4
 70
     1
102
RTVSPropertyOp5
 70
     1
102
RTVSPropertyOp6
 70
     1
102
RTVSPropertyOp7
 70
     1
102
RTVSPropertyOp8
 70
     1
102
RTVSPropertyOp9
 70
     1
102
RTVSPropertyOp10
 70
     1
102
RTVSPropertyOp11
 70
     1
102
RTVSPropertyOp12
 70
     1
102
RTVSPropertyOp13
 70
     1
102
RTVSPropertyOp14
 70
     1
102
RTVSPropertyOp15
 70
     1
102
RTVSPropertyOp16
 70
     1
102
RTVSPropertyOp17
 70
     1
102
RTVSPropertyOp18
 70
     1
102
RTVSPropertyOp19
 70
     1
102
RTVSPropertyOp20
 70
     1
102
RTVSPropertyOp21
 70
     1
102
RTVSPropertyOp22
 70
     1
102
RTVSPropertyOp23
 70
     1
102
RTVSPropertyOp24
 70
     1
102
RTVSPropertyOp25
 70
     1
102
RTVSPropertyOp26
 70
     1
102
RTVSPropertyOp27
 70
     1
  0
XRECORD
  5
573
102
{ACAD_REACTORS
330
572
102
}
330
572
100
AcDbXrecord
280
     1
102
RTVSPropertyOp0
 70
     1
102
RTVSPropertyOp1
 70
     1
102
RTVSPropertyOp2
 70
     1
102
RTVSPropertyOp3
 70
     1
102
RTVSPropertyOp4
 70
     1
102
RTVSPropertyOp5
 70
     1
102
RTVSPropertyOp6
 70
     1
102
RTVSPropertyOp7
 70
     1
102
RTVSPropertyOp8
 70
     1
102
RTVSPropertyOp9
 70
     1
102
RTVSPropertyOp10
 70
     1
102
RTVSPropertyOp11
 70
     1
102
RTVSPropertyOp12
 70
     1
102
RTVSPropertyOp13
 70
     1
102
RTVSPropertyOp14
 70
     1
102
RTVSPropertyOp15
 70
     1
102
RTVSPropertyOp16
 70
     1
102
RTVSPropertyOp17
 70
     1
102
RTVSPropertyOp18
 70
     1
102
RTVSPropertyOp19
 70
     1
102
RTVSPropertyOp20
 70
     1
102
RTVSPropertyOp21
 70
     1
102
RTVSPropertyOp22
 70
     1
102
RTVSPropertyOp23
 70
     1
102
RTVSPropertyOp24
 70
     1
102
RTVSPropertyOp25
 70
     1
102
RTVSPropertyOp26
 70
     1
102
RTVSPropertyOp27
 70
     1
  0
XRECORD
  5
569
102
{ACAD_REACTORS
330
568
102
}
330
568
100
AcDbXrecord
280
     1
102
RTVSPropertyOp0
 70
     1
102
RTVSPropertyOp1
 70
     1
102
RTVSPropertyOp2
 70
     1
102
RTVSPropertyOp3
 70
     1
102
RTVSPropertyOp4
 70
     1
102
RTVSPropertyOp5
 70
     1
102
RTVSPropertyOp6
 70
     1
102
RTVSPropertyOp7
 70
     1
102
RTVSPropertyOp8
 70
     1
102
RTVSPropertyOp9
 70
     1
102
RTVSPropertyOp10
 70
     1
102
RTVSPropertyOp11
 70
     1
102
RTVSPropertyOp12
 70
     1
102
RTVSPropertyOp13
 70
     1
102
RTVSPropertyOp14
 70
     1
102
RTVSPropertyOp15
 70
     1
102
RTVSPropertyOp16
 70
     1
102
RTVSPropertyOp17
 70
     1
102
RTVSPropertyOp18
 70
     1
102
RTVSPropertyOp19
 70
     1
102
RTVSPropertyOp20
 70
     1
102
RTVSPropertyOp21
 70
     1
102
RTVSPropertyOp22
 70
     1
102
RTVSPropertyOp23
 70
     1
102
RTVSPropertyOp24
 70
     1
102
RTVSPropertyOp25
 70
     1
102
RTVSPropertyOp26
 70
     1
102
RTVSPropertyOp27
 70
     1
  0
XRECORD
  5
571
102
{ACAD_REACTORS
330
570
102
}
330
570
100
AcDbXrecord
280
     1
102
RTVSPropertyOp0
 70
     1
102
RTVSPropertyOp1
 70
     1
102
RTVSPropertyOp2
 70
     1
102
RTVSPropertyOp3
 70
     1
102
RTVSPropertyOp4
 70
     1
102
RTVSPropertyOp5
 70
     1
102
RTVSPropertyOp6
 70
     1
102
RTVSPropertyOp7
 70
     1
102
RTVSPropertyOp8
 70
     1
102
RTVSPropertyOp9
 70
     1
102
RTVSPropertyOp10
 70
     1
102
RTVSPropertyOp11
 70
     1
102
RTVSPropertyOp12
 70
     1
102
RTVSPropertyOp13
 70
     1
102
RTVSPropertyOp14
 70
     1
102
RTVSPropertyOp15
 70
     1
102
RTVSPropertyOp16
 70
     1
102
RTVSPropertyOp17
 70
     1
102
RTVSPropertyOp18
 70
     1
102
RTVSPropertyOp19
 70
     1
102
RTVSPropertyOp20
 70
     1
102
RTVSPropertyOp21
 70
     1
102
RTVSPropertyOp22
 70
     1
102
RTVSPropertyOp23
 70
     1
102
RTVSPropertyOp24
 70
     1
102
RTVSPropertyOp25
 70
     1
102
RTVSPropertyOp26
 70
     1
102
RTVSPropertyOp27
 70
     1
  0
ENDSEC
  0
EOF
