  0
SECTION
  2
HEADER
  9
$ACADVER
  1
AC1018
  9
$ACADMAINTVER
 70
     0
  9
$DWGCODEPAGE
  3
ANSI_1252
  9
$INSBASE
 10
0.0
 20
0.0
 30
0.0
  9
$EXTMIN
 10
73127.79773009084
 20
-34600.2006082259
 30
0.0
  9
$EXTMAX
 10
74611.31049695106
 20
-33600.20060059651
 30
0.0
  9
$LIMMIN
 10
0.0
 20
0.0
  9
$LIMMAX
 10
420.0
 20
297.0
  9
$ORTHOMODE
 70
     0
  9
$REGENMODE
 70
     1
  9
$FILLMODE
 70
     1
  9
$QTEXTMODE
 70
     0
  9
$MIRRTEXT
 70
     1
  9
$LTSCALE
 40
1.0
  9
$ATTMODE
 70
     1
  9
$TEXTSIZE
 40
0.2
  9
$TRACEWID
 40
1.0
  9
$TEXTSTYLE
  7
HELV-HFT
  9
$CLAYER
  8
Calm 815
  9
$CELTYPE
  6
Continuous
  9
$CECOLOR
 62
   256
  9
$CELTSCALE
 40
1.0
  9
$DISPSILH
 70
     0
  9
$DIMSCALE
 40
1.0
  9
$DIMASZ
 40
2.5
  9
$DIMEXO
 40
0.625
  9
$DIMDLI
 40
3.75
  9
$DIMRND
 40
0.0
  9
$DIMDLE
 40
0.0
  9
$DIMEXE
 40
1.25
  9
$DIMTP
 40
0.0
  9
$DIMTM
 40
0.0
  9
$DIMTXT
 40
2.5
  9
$DIMCEN
 40
2.5
  9
$DIMTSZ
 40
0.0
  9
$DIMTOL
 70
     0
  9
$DIMLIM
 70
     0
  9
$DIMTIH
 70
     0
  9
$DIMTOH
 70
     0
  9
$DIMSE1
 70
     0
  9
$DIMSE2
 70
     0
  9
$DIMTAD
 70
     1
  9
$DIMZIN
 70
     8
  9
$DIMBLK
  1

  9
$DIMASO
 70
     1
  9
$DIMSHO
 70
     1
  9
$DIMPOST
  1

  9
$DIMAPOST
  1

  9
$DIMALT
 70
     0
  9
$DIMALTD
 70
     3
  9
$DIMALTF
 40
0.03937007874016
  9
$DIMLFAC
 40
1.0
  9
$DIMTOFL
 70
     1
  9
$DIMTVP
 40
0.0
  9
$DIMTIX
 70
     0
  9
$DIMSOXD
 70
     0
  9
$DIMSAH
 70
     0
  9
$DIMBLK1
  1

  9
$DIMBLK2
  1

  9
$DIMSTYLE
  2
ISO-25
  9
$DIMCLRD
 70
     0
  9
$DIMCLRE
 70
     0
  9
$DIMCLRT
 70
     0
  9
$DIMTFAC
 40
1.0
  9
$DIMGAP
 40
0.625
  9
$DIMJUST
 70
     0
  9
$DIMSD1
 70
     0
  9
$DIMSD2
 70
     0
  9
$DIMTOLJ
 70
     0
  9
$DIMTZIN
 70
     8
  9
$DIMALTZ
 70
     0
  9
$DIMALTTZ
 70
     0
  9
$DIMUPT
 70
     0
  9
$DIMDEC
 70
     2
  9
$DIMTDEC
 70
     2
  9
$DIMALTU
 70
     2
  9
$DIMALTTD
 70
     3
  9
$DIMTXSTY
  7
Standard
  9
$DIMAUNIT
 70
     0
  9
$DIMADEC
 70
     0
  9
$DIMALTRND
 40
0.0
  9
$DIMAZIN
 70
     0
  9
$DIMDSEP
 70
    44
  9
$DIMATFIT
 70
     3
  9
$DIMFRAC
 70
     0
  9
$DIMLDRBLK
  1

  9
$DIMLUNIT
 70
     2
  9
$DIMLWD
 70
    -2
  9
$DIMLWE
 70
    -2
  9
$DIMTMOVE
 70
     0
  9
$LUNITS
 70
     2
  9
$LUPREC
 70
     4
  9
$SKETCHINC
 40
1.0
  9
$FILLETRAD
 40
10.0
  9
$AUNITS
 70
     0
  9
$AUPREC
 70
     0
  9
$MENU
  1
.
  9
$ELEVATION
 40
0.0
  9
$PELEVATION
 40
0.0
  9
$THICKNESS
 40
0.0
  9
$LIMCHECK
 70
     0
  9
$CHAMFERA
 40
10.0
  9
$CHAMFERB
 40
10.0
  9
$CHAMFERC
 40
20.0
  9
$CHAMFERD
 40
0.0
  9
$SKPOLY
 70
     0
  9
$TDCREATE
 40
2457977.670303935
  9
$TDUCREATE
 40
2457977.586970602
  9
$TDUPDATE
 40
2457977.670337847
  9
$TDUUPDATE
 40
2457977.587004514
  9
$TDINDWG
 40
0.0000000116
  9
$TDUSRTIMER
 40
0.0000000116
  9
$USRTIMER
 70
     1
  9
$ANGBASE
 50
0.0
  9
$ANGDIR
 70
     0
  9
$PDMODE
 70
     0
  9
$PDSIZE
 40
0.0
  9
$PLINEWID
 40
0.0
  9
$SPLFRAME
 70
     0
  9
$SPLINETYPE
 70
     6
  9
$SPLINESEGS
 70
     8
  9
$HANDSEED
  5
296
  9
$SURFTAB1
 70
     6
  9
$SURFTAB2
 70
     6
  9
$SURFTYPE
 70
     6
  9
$SURFU
 70
     6
  9
$SURFV
 70
     6
  9
$UCSBASE
  2

  9
$UCSNAME
  2

  9
$UCSORG
 10
0.0
 20
0.0
 30
0.0
  9
$UCSXDIR
 10
1.0
 20
0.0
 30
0.0
  9
$UCSYDIR
 10
0.0
 20
1.0
 30
0.0
  9
$UCSORTHOREF
  2

  9
$UCSORTHOVIEW
 70
     0
  9
$UCSORGTOP
 10
0.0
 20
0.0
 30
0.0
  9
$UCSORGBOTTOM
 10
0.0
 20
0.0
 30
0.0
  9
$UCSORGLEFT
 10
0.0
 20
0.0
 30
0.0
  9
$UCSORGRIGHT
 10
0.0
 20
0.0
 30
0.0
  9
$UCSORGFRONT
 10
0.0
 20
0.0
 30
0.0
  9
$UCSORGBACK
 10
0.0
 20
0.0
 30
0.0
  9
$PUCSBASE
  2

  9
$PUCSNAME
  2

  9
$PUCSORG
 10
0.0
 20
0.0
 30
0.0
  9
$PUCSXDIR
 10
1.0
 20
0.0
 30
0.0
  9
$PUCSYDIR
 10
0.0
 20
1.0
 30
0.0
  9
$PUCSORTHOREF
  2

  9
$PUCSORTHOVIEW
 70
     0
  9
$PUCSORGTOP
 10
0.0
 20
0.0
 30
0.0
  9
$PUCSORGBOTTOM
 10
0.0
 20
0.0
 30
0.0
  9
$PUCSORGLEFT
 10
0.0
 20
0.0
 30
0.0
  9
$PUCSORGRIGHT
 10
0.0
 20
0.0
 30
0.0
  9
$PUCSORGFRONT
 10
0.0
 20
0.0
 30
0.0
  9
$PUCSORGBACK
 10
0.0
 20
0.0
 30
0.0
  9
$USERI1
 70
     0
  9
$USERI2
 70
     0
  9
$USERI3
 70
     0
  9
$USERI4
 70
     0
  9
$USERI5
 70
     0
  9
$USERR1
 40
0.0
  9
$USERR2
 40
0.0
  9
$USERR3
 40
0.0
  9
$USERR4
 40
0.0
  9
$USERR5
 40
0.0
  9
$WORLDVIEW
 70
     1
  9
$SHADEDGE
 70
     3
  9
$SHADEDIF
 70
    70
  9
$TILEMODE
 70
     1
  9
$MAXACTVP
 70
    64
  9
$PINSBASE
 10
0.0
 20
0.0
 30
0.0
  9
$PLIMCHECK
 70
     0
  9
$PEXTMIN
 10
1.000000000000000E+20
 20
1.000000000000000E+20
 30
1.000000000000000E+20
  9
$PEXTMAX
 10
-1.000000000000000E+20
 20
-1.000000000000000E+20
 30
-1.000000000000000E+20
  9
$PLIMMIN
 10
0.0
 20
0.0
  9
$PLIMMAX
 10
420.0
 20
297.0
  9
$UNITMODE
 70
     0
  9
$VISRETAIN
 70
     1
  9
$PLINEGEN
 70
     0
  9
$PSLTSCALE
 70
     1
  9
$TREEDEPTH
 70
  3020
  9
$CMLSTYLE
  2
Standard
  9
$CMLJUST
 70
     0
  9
$CMLSCALE
 40
20.0
  9
$PROXYGRAPHICS
 70
     1
  9
$MEASUREMENT
 70
     1
  9
$CELWEIGHT
370
    -1
  9
$ENDCAPS
280
     0
  9
$JOINSTYLE
280
     0
  9
$LWDISPLAY
290
     0
  9
$INSUNITS
 70
     4
  9
$HYPERLINKBASE
  1

  9
$STYLESHEET
  1

  9
$XEDIT
290
     1
  9
$CEPSNTYPE
380
     0
  9
$PSTYLEMODE
290
     1
  9
$FINGERPRINTGUID
  2
{CB046CA7-3CCD-4C59-A386-5158B95D61A3}
  9
$VERSIONGUID
  2
{FAEB1C32-E019-11D5-929B-00C0DF256EC4}
  9
$EXTNAMES
290
     1
  9
$PSVPSCALE
 40
0.0
  9
$OLESTARTUP
290
     0
  9
$SORTENTS
280
   127
  9
$INDEXCTL
280
     0
  9
$HIDETEXT
280
     1
  9
$XCLIPFRAME
290
     0
  9
$HALOGAP
280
     0
  9
$OBSCOLOR
 70
   257
  9
$OBSLTYPE
280
     0
  9
$INTERSECTIONDISPLAY
280
     0
  9
$INTERSECTIONCOLOR
 70
   257
  9
$DIMASSOC
280
     2
  9
$PROJECTNAME
  1

  0
ENDSEC
  0
SECTION
  2
CLASSES
  0
CLASS
  1
ACDBDICTIONARYWDFLT
  2
AcDbDictionaryWithDefault
  3
ObjectDBX Classes
 90
        0
 91
        4
280
     0
281
     0
  0
CLASS
  1
VISUALSTYLE
  2
AcDbVisualStyle
  3
ObjectDBX Classes
 90
     4095
 91
        4
280
     0
281
     0
  0
CLASS
  1
MATERIAL
  2
AcDbMaterial
  3
ObjectDBX Classes
 90
     1153
 91
        4
280
     0
281
     0
  0
ENDSEC
  0
SECTION
  2
TABLES
  0
TABLE
  2
VPORT
  5
8
330
0
100
AcDbSymbolTable
 70
     1
  0
VPORT
  5
29
330
8
100
AcDbSymbolTableRecord
100
AcDbViewportTableRecord
  2
*Active
 70
     0
 10
0.0
 20
0.0
 11
1.0
 21
1.0
 12
37106.8705147044
 22
-16975.8503022056
 13
0.0
 23
0.0
 14
10.0
 24
10.0
 15
10.0
 25
10.0
 16
0.0
 26
0.0
 36
1.0
 17
0.0
 27
0.0
 37
0.0
 40
1020.000007781982
 41
1.483512755541918
 42
50.0
 43
0.0
 44
0.0
 50
0.0
 51
0.0
 71
     0
 72
   100
 73
     1
 74
     3
 75
     0
 76
     0
 77
     0
 78
     0
281
     0
 65
     1
110
0.0
120
0.0
130
0.0
111
1.0
121
0.0
131
0.0
112
0.0
122
1.0
132
0.0
 79
     0
146
0.0
  0
ENDTAB
  0
TABLE
  2
LTYPE
  5
5
330
0
100
AcDbSymbolTable
 70
     1
  0
LTYPE
  5
14
330
5
100
AcDbSymbolTableRecord
100
AcDbLinetypeTableRecord
  2
ByBlock
 70
     0
  3

 72
    65
 73
     0
 40
0.0
  0
LTYPE
  5
15
330
5
100
AcDbSymbolTableRecord
100
AcDbLinetypeTableRecord
  2
ByLayer
 70
     0
  3

 72
    65
 73
     0
 40
0.0
  0
LTYPE
  5
16
330
5
100
AcDbSymbolTableRecord
100
AcDbLinetypeTableRecord
  2
Continuous
 70
     0
  3
Solid line
 72
    65
 73
     0
 40
0.0
  0
ENDTAB
  0
TABLE
  2
LAYER
  5
2
330
0
100
AcDbSymbolTable
 70
     6
  0
LAYER
  5
10
330
2
100
AcDbSymbolTableRecord
100
AcDbLayerTableRecord
  2
0
 70
     0
 62
     7
  6
Continuous
370
    -3
390
F
  0
LAYER
  5
3F
330
2
100
AcDbSymbolTableRecord
100
AcDbLayerTableRecord
  2
allgemein
 70
     0
 62
    18
420
        0
  6
Continuous
370
    25
390
F
  0
LAYER
  5
74
330
2
100
AcDbSymbolTableRecord
100
AcDbLayerTableRecord
  2
Beschriftung Allgemein
 70
     0
 62
    18
420
        0
  6
Continuous
370
    25
390
F
  0
LAYER
  5
75
330
2
100
AcDbSymbolTableRecord
100
AcDbLayerTableRecord
  2
Calm 810
 70
     0
 62
    18
420
        0
  6
Continuous
370
    25
390
F
  0
LAYER
  5
10E
330
2
100
AcDbSymbolTableRecord
100
AcDbLayerTableRecord
  2
Defpoints
 70
     0
 62
     7
  6
Continuous
290
     0
370
    -3
390
F
  0
LAYER
  5
227
330
2
100
AcDbSymbolTableRecord
100
AcDbLayerTableRecord
  2
Calm 815
 70
     0
 62
    18
420
        0
  6
Continuous
370
    25
390
F
  0
ENDTAB
  0
TABLE
  2
STYLE
  5
3
330
0
100
AcDbSymbolTable
 70
     6
  0
STYLE
  5
11
330
3
100
AcDbSymbolTableRecord
100
AcDbTextStyleTableRecord
  2
Standard
 70
     0
 40
0.0
 41
1.0
 50
0.0
 71
     0
 42
2.5
  3
txt
  4

  0
STYLE
  5
F2
330
3
100
AcDbSymbolTableRecord
100
AcDbTextStyleTableRecord
  2
CENTURY GOTHIC
 70
     0
 40
0.0
 41
1.0
 50
0.0
 71
     0
 42
0.2
  3
CENTURY GOTHIC
  4

  0
STYLE
  5
10C
330
3
100
AcDbSymbolTableRecord
100
AcDbTextStyleTableRecord
  2
ARIAL
 70
     0
 40
0.0
 41
1.0
 50
0.0
 71
     0
 42
0.2
  3
ARIAL
  4

  0
STYLE
  5
121
330
3
100
AcDbSymbolTableRecord
100
AcDbTextStyleTableRecord
  2
ROMAN
 70
     0
 40
0.0
 41
1.0
 50
0.0
 71
     0
 42
0.2
  3
ROMAN
  4

  0
STYLE
  5
209
330
3
100
AcDbSymbolTableRecord
100
AcDbTextStyleTableRecord
  2
HLV-L
 70
     0
 40
0.0
 41
1.0
 50
0.0
 71
     0
 42
0.2
  3
HLV-L
  4

  0
STYLE
  5
20F
330
3
100
AcDbSymbolTableRecord
100
AcDbTextStyleTableRecord
  2
HELV-HFT
 70
     0
 40
0.0
 41
1.0
 50
0.0
 71
     0
 42
0.2
  3
HELV-HFT
  4

  0
ENDTAB
  0
TABLE
  2
VIEW
  5
6
330
0
100
AcDbSymbolTable
 70
     0
  0
ENDTAB
  0
TABLE
  2
UCS
  5
7
330
0
100
AcDbSymbolTable
 70
     0
  0
ENDTAB
  0
TABLE
  2
APPID
  5
9
330
0
100
AcDbSymbolTable
 70
     3
  0
APPID
  5
12
330
9
100
AcDbSymbolTableRecord
100
AcDbRegAppTableRecord
  2
ACAD
 70
     0
  0
APPID
  5
26C
330
9
100
AcDbSymbolTableRecord
100
AcDbRegAppTableRecord
  2
ACAD_DSTYLE_DIMEXT_ENABLED
 70
     0
  0
APPID
  5
26D
330
9
100
AcDbSymbolTableRecord
100
AcDbRegAppTableRecord
  2
ACAD_DSTYLE_DIMEXT_LENGTH
 70
     0
  0
ENDTAB
  0
TABLE
  2
DIMSTYLE
  5
A
330
0
100
AcDbSymbolTable
 70
     1
100
AcDbDimStyleTable
  0
DIMSTYLE
105
27
102
{ACAD_REACTORS
330
10D
330
122
330
12F
330
13C
330
149
330
158
330
1BE
102
}
330
A
100
AcDbSymbolTableRecord
100
AcDbDimStyleTableRecord
  2
ISO-25
 70
     0
 41
2.5
 42
0.625
 43
3.75
 44
1.25
 73
     0
 74
     0
 77
     1
 78
     8
140
2.5
141
2.5
143
0.03937007874016
147
0.625
171
     3
172
     1
178
     0
271
     2
272
     2
274
     3
278
    44
283
     0
284
     8
340
11
  0
ENDTAB
  0
TABLE
  2
BLOCK_RECORD
  5
1
330
0
100
AcDbSymbolTable
 70
    49
  0
BLOCK_RECORD
  5
1F
330
1
100
AcDbSymbolTableRecord
100
AcDbBlockTableRecord
  2
*Model_Space
340
22
  0
BLOCK_RECORD
  5
1B
330
1
100
AcDbSymbolTableRecord
100
AcDbBlockTableRecord
  2
*Paper_Space
340
1E
  0
BLOCK_RECORD
  5
23
330
1
100
AcDbSymbolTableRecord
100
AcDbBlockTableRecord
  2
*Paper_Space0
340
26
  0
BLOCK_RECORD
  5
40
330
1
100
AcDbSymbolTableRecord
100
AcDbBlockTableRecord
  2
Dimension1
340
0
102
{BLKREFS
331
43
102
}
  0
BLOCK_RECORD
  5
44
330
1
100
AcDbSymbolTableRecord
100
AcDbBlockTableRecord
  2
Dimension2
340
0
102
{BLKREFS
331
47
102
}
  0
BLOCK_RECORD
  5
48
330
1
100
AcDbSymbolTableRecord
100
AcDbBlockTableRecord
  2
Dimension3
340
0
102
{BLKREFS
331
4B
102
}
  0
BLOCK_RECORD
  5
4C
330
1
100
AcDbSymbolTableRecord
100
AcDbBlockTableRecord
  2
Dimension4
340
0
102
{BLKREFS
331
4F
102
}
  0
BLOCK_RECORD
  5
50
330
1
100
AcDbSymbolTableRecord
100
AcDbBlockTableRecord
  2
Dimension5
340
0
102
{BLKREFS
331
53
102
}
  0
BLOCK_RECORD
  5
54
330
1
100
AcDbSymbolTableRecord
100
AcDbBlockTableRecord
  2
Dimension6
340
0
102
{BLKREFS
331
57
102
}
  0
BLOCK_RECORD
  5
58
330
1
100
AcDbSymbolTableRecord
100
AcDbBlockTableRecord
  2
Dimension7
340
0
102
{BLKREFS
331
5B
102
}
  0
BLOCK_RECORD
  5
5C
330
1
100
AcDbSymbolTableRecord
100
AcDbBlockTableRecord
  2
Dimension8
340
0
102
{BLKREFS
331
5F
102
}
  0
BLOCK_RECORD
  5
60
330
1
100
AcDbSymbolTableRecord
100
AcDbBlockTableRecord
  2
Dimension9
340
0
102
{BLKREFS
331
63
102
}
  0
BLOCK_RECORD
  5
64
330
1
100
AcDbSymbolTableRecord
100
AcDbBlockTableRecord
  2
Dimension10
340
0
102
{BLKREFS
331
67
102
}
  0
BLOCK_RECORD
  5
68
330
1
100
AcDbSymbolTableRecord
100
AcDbBlockTableRecord
  2
Dimension11
340
0
102
{BLKREFS
331
6B
102
}
  0
BLOCK_RECORD
  5
6C
330
1
100
AcDbSymbolTableRecord
100
AcDbBlockTableRecord
  2
Dimension12
340
0
102
{BLKREFS
331
6F
102
}
  0
BLOCK_RECORD
  5
70
330
1
100
AcDbSymbolTableRecord
100
AcDbBlockTableRecord
  2
Dimension13
340
0
102
{BLKREFS
331
73
102
}
  0
BLOCK_RECORD
  5
F4
330
1
100
AcDbSymbolTableRecord
100
AcDbBlockTableRecord
  2
Dimension14
340
0
102
{BLKREFS
331
F7
102
}
  0
BLOCK_RECORD
  5
F8
330
1
100
AcDbSymbolTableRecord
100
AcDbBlockTableRecord
  2
Dimension15
340
0
102
{BLKREFS
331
FB
102
}
  0
BLOCK_RECORD
  5
FC
330
1
100
AcDbSymbolTableRecord
100
AcDbBlockTableRecord
  2
Dimension16
340
0
102
{BLKREFS
331
FF
102
}
  0
BLOCK_RECORD
  5
100
330
1
100
AcDbSymbolTableRecord
100
AcDbBlockTableRecord
  2
Dimension17
340
0
102
{BLKREFS
331
103
102
}
  0
BLOCK_RECORD
  5
104
330
1
100
AcDbSymbolTableRecord
100
AcDbBlockTableRecord
  2
Dimension18
340
0
102
{BLKREFS
331
107
102
}
  0
BLOCK_RECORD
  5
108
330
1
100
AcDbSymbolTableRecord
100
AcDbBlockTableRecord
  2
Dimension19
340
0
102
{BLKREFS
331
10B
102
}
  0
BLOCK_RECORD
  5
10F
330
1
100
AcDbSymbolTableRecord
100
AcDbBlockTableRecord
  2
*D20
340
0
  0
BLOCK_RECORD
  5
11B
330
1
100
AcDbSymbolTableRecord
100
AcDbBlockTableRecord
  2
_OPEN30
340
0
102
{BLKREFS
331
113
331
114
331
127
331
128
331
134
331
135
331
141
331
142
331
0
331
0
331
151
331
150
331
0
331
0
331
160
331
15F
331
0
331
0
331
1C6
331
1C5
102
}
  0
BLOCK_RECORD
  5
123
330
1
100
AcDbSymbolTableRecord
100
AcDbBlockTableRecord
  2
*D22
340
0
  0
BLOCK_RECORD
  5
130
330
1
100
AcDbSymbolTableRecord
100
AcDbBlockTableRecord
  2
*D23
340
0
  0
BLOCK_RECORD
  5
13D
330
1
100
AcDbSymbolTableRecord
100
AcDbBlockTableRecord
  2
*D24
340
0
  0
BLOCK_RECORD
  5
14A
330
1
100
AcDbSymbolTableRecord
100
AcDbBlockTableRecord
  2
*D25
340
0
  0
BLOCK_RECORD
  5
159
330
1
100
AcDbSymbolTableRecord
100
AcDbBlockTableRecord
  2
*D26
340
0
  0
BLOCK_RECORD
  5
167
330
1
100
AcDbSymbolTableRecord
100
AcDbBlockTableRecord
  2
Dimension20
340
0
102
{BLKREFS
331
16A
102
}
  0
BLOCK_RECORD
  5
16B
330
1
100
AcDbSymbolTableRecord
100
AcDbBlockTableRecord
  2
Dimension21
340
0
102
{BLKREFS
331
16E
102
}
  0
BLOCK_RECORD
  5
16F
330
1
100
AcDbSymbolTableRecord
100
AcDbBlockTableRecord
  2
Dimension22
340
0
102
{BLKREFS
331
172
102
}
  0
BLOCK_RECORD
  5
1BF
330
1
100
AcDbSymbolTableRecord
100
AcDbBlockTableRecord
  2
*D30
340
0
  0
BLOCK_RECORD
  5
1CD
330
1
100
AcDbSymbolTableRecord
100
AcDbBlockTableRecord
  2
Dimension23
340
0
102
{BLKREFS
331
1D0
102
}
  0
BLOCK_RECORD
  5
228
330
1
100
AcDbSymbolTableRecord
100
AcDbBlockTableRecord
  2
Dimension24
340
0
102
{BLKREFS
331
22B
102
}
  0
BLOCK_RECORD
  5
22C
330
1
100
AcDbSymbolTableRecord
100
AcDbBlockTableRecord
  2
Dimension25
340
0
102
{BLKREFS
331
22F
102
}
  0
BLOCK_RECORD
  5
230
330
1
100
AcDbSymbolTableRecord
100
AcDbBlockTableRecord
  2
Dimension26
340
0
102
{BLKREFS
331
233
102
}
  0
BLOCK_RECORD
  5
234
330
1
100
AcDbSymbolTableRecord
100
AcDbBlockTableRecord
  2
Dimension27
340
0
102
{BLKREFS
331
237
102
}
  0
BLOCK_RECORD
  5
238
330
1
100
AcDbSymbolTableRecord
100
AcDbBlockTableRecord
  2
Dimension28
340
0
102
{BLKREFS
331
23B
102
}
  0
BLOCK_RECORD
  5
23C
330
1
100
AcDbSymbolTableRecord
100
AcDbBlockTableRecord
  2
Dimension29
340
0
102
{BLKREFS
331
23F
102
}
  0
BLOCK_RECORD
  5
240
330
1
100
AcDbSymbolTableRecord
100
AcDbBlockTableRecord
  2
Dimension30
340
0
102
{BLKREFS
331
243
102
}
  0
BLOCK_RECORD
  5
244
330
1
100
AcDbSymbolTableRecord
100
AcDbBlockTableRecord
  2
Dimension31
340
0
102
{BLKREFS
331
247
102
}
  0
BLOCK_RECORD
  5
248
330
1
100
AcDbSymbolTableRecord
100
AcDbBlockTableRecord
  2
Dimension32
340
0
102
{BLKREFS
331
24B
102
}
  0
BLOCK_RECORD
  5
24C
330
1
100
AcDbSymbolTableRecord
100
AcDbBlockTableRecord
  2
Dimension33
340
0
102
{BLKREFS
331
24F
102
}
  0
BLOCK_RECORD
  5
250
330
1
100
AcDbSymbolTableRecord
100
AcDbBlockTableRecord
  2
Dimension34
340
0
102
{BLKREFS
331
253
102
}
  0
BLOCK_RECORD
  5
254
330
1
100
AcDbSymbolTableRecord
100
AcDbBlockTableRecord
  2
Dimension35
340
0
102
{BLKREFS
331
257
102
}
  0
BLOCK_RECORD
  5
258
330
1
100
AcDbSymbolTableRecord
100
AcDbBlockTableRecord
  2
Dimension36
340
0
102
{BLKREFS
331
25B
102
}
  0
BLOCK_RECORD
  5
25C
330
1
100
AcDbSymbolTableRecord
100
AcDbBlockTableRecord
  2
Dimension37
340
0
102
{BLKREFS
331
25F
102
}
  0
BLOCK_RECORD
  5
260
330
1
100
AcDbSymbolTableRecord
100
AcDbBlockTableRecord
  2
Dimension38
340
0
102
{BLKREFS
331
263
102
}
  0
BLOCK_RECORD
  5
264
330
1
100
AcDbSymbolTableRecord
100
AcDbBlockTableRecord
  2
Dimension39
340
0
102
{BLKREFS
331
267
102
}
  0
BLOCK_RECORD
  5
268
330
1
100
AcDbSymbolTableRecord
100
AcDbBlockTableRecord
  2
Dimension40
340
0
102
{BLKREFS
331
26B
102
}
  0
ENDTAB
  0
ENDSEC
  0
SECTION
  2
BLOCKS
  0
BLOCK
  5
20
330
1F
100
AcDbEntity
  8
0
100
AcDbBlockBegin
  2
*Model_Space
 70
     0
 10
0.0
 20
0.0
 30
0.0
  3
*Model_Space
  1

  0
ENDBLK
  5
21
330
1F
100
AcDbEntity
  8
0
100
AcDbBlockEnd
  0
BLOCK
  5
1C
330
1B
100
AcDbEntity
 67
     1
  8
0
100
AcDbBlockBegin
  2
*Paper_Space
 70
     0
 10
0.0
 20
0.0
 30
0.0
  3
*Paper_Space
  1

  0
ENDBLK
  5
1D
330
1B
100
AcDbEntity
 67
     1
  8
0
100
AcDbBlockEnd
  0
BLOCK
  5
24
330
23
100
AcDbEntity
  8
0
100
AcDbBlockBegin
  2
*Paper_Space0
 70
     0
 10
0.0
 20
0.0
 30
0.0
  3
*Paper_Space0
  1

  0
ENDBLK
  5
25
330
23
100
AcDbEntity
  8
0
100
AcDbBlockEnd
  0
BLOCK
  5
41
330
40
100
AcDbEntity
  8
0
100
AcDbBlockBegin
  2
Dimension1
 70
     0
 10
0.0
 20
0.0
 30
0.0
  3
Dimension1
  1

  0
ENDBLK
  5
42
330
40
100
AcDbEntity
  8
0
100
AcDbBlockEnd
  0
BLOCK
  5
45
330
44
100
AcDbEntity
  8
0
100
AcDbBlockBegin
  2
Dimension2
 70
     0
 10
0.0
 20
0.0
 30
0.0
  3
Dimension2
  1

  0
ENDBLK
  5
46
330
44
100
AcDbEntity
  8
0
100
AcDbBlockEnd
  0
BLOCK
  5
49
330
48
100
AcDbEntity
  8
0
100
AcDbBlockBegin
  2
Dimension3
 70
     0
 10
0.0
 20
0.0
 30
0.0
  3
Dimension3
  1

  0
ENDBLK
  5
4A
330
48
100
AcDbEntity
  8
0
100
AcDbBlockEnd
  0
BLOCK
  5
4D
330
4C
100
AcDbEntity
  8
0
100
AcDbBlockBegin
  2
Dimension4
 70
     0
 10
0.0
 20
0.0
 30
0.0
  3
Dimension4
  1

  0
ENDBLK
  5
4E
330
4C
100
AcDbEntity
  8
0
100
AcDbBlockEnd
  0
BLOCK
  5
51
330
50
100
AcDbEntity
  8
0
100
AcDbBlockBegin
  2
Dimension5
 70
     0
 10
0.0
 20
0.0
 30
0.0
  3
Dimension5
  1

  0
ENDBLK
  5
52
330
50
100
AcDbEntity
  8
0
100
AcDbBlockEnd
  0
BLOCK
  5
55
330
54
100
AcDbEntity
  8
0
100
AcDbBlockBegin
  2
Dimension6
 70
     0
 10
0.0
 20
0.0
 30
0.0
  3
Dimension6
  1

  0
ENDBLK
  5
56
330
54
100
AcDbEntity
  8
0
100
AcDbBlockEnd
  0
BLOCK
  5
59
330
58
100
AcDbEntity
  8
0
100
AcDbBlockBegin
  2
Dimension7
 70
     0
 10
0.0
 20
0.0
 30
0.0
  3
Dimension7
  1

  0
ENDBLK
  5
5A
330
58
100
AcDbEntity
  8
0
100
AcDbBlockEnd
  0
BLOCK
  5
5D
330
5C
100
AcDbEntity
  8
0
100
AcDbBlockBegin
  2
Dimension8
 70
     0
 10
0.0
 20
0.0
 30
0.0
  3
Dimension8
  1

  0
ENDBLK
  5
5E
330
5C
100
AcDbEntity
  8
0
100
AcDbBlockEnd
  0
BLOCK
  5
61
330
60
100
AcDbEntity
  8
0
100
AcDbBlockBegin
  2
Dimension9
 70
     0
 10
0.0
 20
0.0
 30
0.0
  3
Dimension9
  1

  0
ENDBLK
  5
62
330
60
100
AcDbEntity
  8
0
100
AcDbBlockEnd
  0
BLOCK
  5
65
330
64
100
AcDbEntity
  8
0
100
AcDbBlockBegin
  2
Dimension10
 70
     0
 10
0.0
 20
0.0
 30
0.0
  3
Dimension10
  1

  0
ENDBLK
  5
66
330
64
100
AcDbEntity
  8
0
100
AcDbBlockEnd
  0
BLOCK
  5
69
330
68
100
AcDbEntity
  8
0
100
AcDbBlockBegin
  2
Dimension11
 70
     0
 10
0.0
 20
0.0
 30
0.0
  3
Dimension11
  1

  0
ENDBLK
  5
6A
330
68
100
AcDbEntity
  8
0
100
AcDbBlockEnd
  0
BLOCK
  5
6D
330
6C
100
AcDbEntity
  8
0
100
AcDbBlockBegin
  2
Dimension12
 70
     0
 10
0.0
 20
0.0
 30
0.0
  3
Dimension12
  1

  0
ENDBLK
  5
6E
330
6C
100
AcDbEntity
  8
0
100
AcDbBlockEnd
  0
BLOCK
  5
71
330
70
100
AcDbEntity
  8
0
100
AcDbBlockBegin
  2
Dimension13
 70
     0
 10
0.0
 20
0.0
 30
0.0
  3
Dimension13
  1

  0
ENDBLK
  5
72
330
70
100
AcDbEntity
  8
0
100
AcDbBlockEnd
  0
BLOCK
  5
F5
330
F4
100
AcDbEntity
  8
0
100
AcDbBlockBegin
  2
Dimension14
 70
     0
 10
0.0
 20
0.0
 30
0.0
  3
Dimension14
  1

  0
ENDBLK
  5
F6
330
F4
100
AcDbEntity
  8
0
100
AcDbBlockEnd
  0
BLOCK
  5
F9
330
F8
100
AcDbEntity
  8
0
100
AcDbBlockBegin
  2
Dimension15
 70
     0
 10
0.0
 20
0.0
 30
0.0
  3
Dimension15
  1

  0
ENDBLK
  5
FA
330
F8
100
AcDbEntity
  8
0
100
AcDbBlockEnd
  0
BLOCK
  5
FD
330
FC
100
AcDbEntity
  8
0
100
AcDbBlockBegin
  2
Dimension16
 70
     0
 10
0.0
 20
0.0
 30
0.0
  3
Dimension16
  1

  0
ENDBLK
  5
FE
330
FC
100
AcDbEntity
  8
0
100
AcDbBlockEnd
  0
BLOCK
  5
101
330
100
100
AcDbEntity
  8
0
100
AcDbBlockBegin
  2
Dimension17
 70
     0
 10
0.0
 20
0.0
 30
0.0
  3
Dimension17
  1

  0
ENDBLK
  5
102
330
100
100
AcDbEntity
  8
0
100
AcDbBlockEnd
  0
BLOCK
  5
105
330
104
100
AcDbEntity
  8
0
100
AcDbBlockBegin
  2
Dimension18
 70
     0
 10
0.0
 20
0.0
 30
0.0
  3
Dimension18
  1

  0
ENDBLK
  5
106
330
104
100
AcDbEntity
  8
0
100
AcDbBlockEnd
  0
BLOCK
  5
109
330
108
100
AcDbEntity
  8
0
100
AcDbBlockBegin
  2
Dimension19
 70
     0
 10
0.0
 20
0.0
 30
0.0
  3
Dimension19
  1

  0
ENDBLK
  5
10A
330
108
100
AcDbEntity
  8
0
100
AcDbBlockEnd
  0
BLOCK
  5
119
330
10F
100
AcDbEntity
  8
0
100
AcDbBlockBegin
  2
*D20
 70
     1
 10
0.0
 20
0.0
 30
0.0
  3
*D20
  1

  0
LINE
  5
110
330
10F
100
AcDbEntity
  8
Calm 810
  6
Continuous
 62
    18
 48
50.00000038146973
370
    -2
100
AcDbLine
 10
36675.91604768591
 20
-17089.08386202107
 30
0.0
 11
36675.91604768591
 21
-17129.08386111508
 31
0.0
  0
LINE
  5
111
330
10F
100
AcDbEntity
  8
Calm 810
  6
Continuous
 62
    18
 48
50.00000038146973
370
    -2
100
AcDbLine
 10
37092.81479961798
 20
-17089.08386202107
 30
0.0
 11
37092.81479961798
 21
-17129.08386111508
 31
0.0
  0
LINE
  5
112
330
10F
100
AcDbEntity
  8
Calm 810
  6
Continuous
 62
    18
 48
50.00000038146973
370
    -2
100
AcDbLine
 10
36690.91604828196
 20
-17109.08386156808
 30
0.0
 11
37077.81479902193
 21
-17109.08386156808
 31
0.0
  0
INSERT
  5
113
330
10F
100
AcDbEntity
  8
Calm 810
 62
    18
370
    -2
100
AcDbBlockReference
  2
_OPEN30
 10
36675.91604768591
 20
-17109.08386156808
 30
0.0
 41
15.00000059604645
 42
15.00000059604645
 43
15.00000059604645
 50
180.0
  0
INSERT
  5
114
330
10F
100
AcDbEntity
  8
Calm 810
 62
    18
370
    -2
100
AcDbBlockReference
  2
_OPEN30
 10
37092.81479961798
 20
-17109.08386156808
 30
0.0
 41
15.00000059604645
 42
15.00000059604645
 43
15.00000059604645
  0
MTEXT
  5
115
330
10F
100
AcDbEntity
  8
Calm 810
  6
Continuous
 62
     0
370
    25
100
AcDbMText
 10
36884.36542365194
 20
-17068.6638574792
 30
0.0
 40
40.0
 41
0.0
 71
     5
 72
     1
  1
416.899
  7
ARIAL
 73
     1
 44
1.0
  0
POINT
  5
116
330
10F
100
AcDbEntity
  8
Defpoints
 62
     0
100
AcDbPoint
 10
36675.91604768591
 20
-16859.57059881936
 30
0.0
  0
POINT
  5
117
330
10F
100
AcDbEntity
  8
Defpoints
 62
     0
100
AcDbPoint
 10
37092.81479961798
 20
-16859.57059881936
 30
0.0
  0
POINT
  5
118
330
10F
100
AcDbEntity
  8
Defpoints
 62
     0
100
AcDbPoint
 10
37092.81479961798
 20
-17109.08386156808
 30
0.0
  0
ENDBLK
  5
11A
330
10F
100
AcDbEntity
  8
0
100
AcDbBlockEnd
  0
BLOCK
  5
11C
330
11B
100
AcDbEntity
  8
0
100
AcDbBlockBegin
  2
_OPEN30
 70
     0
 10
0.0
 20
0.0
 30
0.0
  3
_OPEN30
  1

  0
LINE
  5
11E
330
11B
100
AcDbEntity
  8
0
  6
ByBlock
 62
     0
370
    -2
100
AcDbLine
 10
-1.0
 20
0.267949
 30
0.0
 11
0.0
 21
0.0
 31
0.0
  0
LINE
  5
11F
330
11B
100
AcDbEntity
  8
0
  6
ByBlock
 62
     0
370
    -2
100
AcDbLine
 10
0.0
 20
0.0
 30
0.0
 11
-1.0
 21
-0.267949
 31
0.0
  0
LINE
  5
120
330
11B
100
AcDbEntity
  8
0
  6
ByBlock
 62
     0
370
    -2
100
AcDbLine
 10
0.0
 20
0.0
 30
0.0
 11
-1.0
 21
0.0
 31
0.0
  0
ENDBLK
  5
11D
330
11B
100
AcDbEntity
  8
0
100
AcDbBlockEnd
  0
BLOCK
  5
12D
330
123
100
AcDbEntity
  8
0
100
AcDbBlockBegin
  2
*D22
 70
     1
 10
0.0
 20
0.0
 30
0.0
  3
*D22
  1

  0
LINE
  5
124
330
123
100
AcDbEntity
  8
Calm 810
  6
Continuous
 62
    18
 48
50.00000038146973
370
    -2
100
AcDbLine
 10
36650.9194650826
 20
-17143.08386202107
 30
0.0
 11
36650.9194650826
 21
-17183.08386111508
 31
0.0
  0
LINE
  5
125
330
123
100
AcDbEntity
  8
Calm 810
  6
Continuous
 62
    18
 48
50.00000038146973
370
    -2
100
AcDbLine
 10
37117.8113819791
 20
-17143.08386202107
 30
0.0
 11
37117.8113819791
 21
-17183.08386111508
 31
0.0
  0
LINE
  5
126
330
123
100
AcDbEntity
  8
Calm 810
  6
Continuous
 62
    18
 48
50.00000038146973
370
    -2
100
AcDbLine
 10
36659.91946544022
 20
-17163.08386156808
 30
0.0
 11
37108.81138162147
 21
-17163.08386156808
 31
0.0
  0
INSERT
  5
127
330
123
100
AcDbEntity
  8
Calm 810
 62
    18
370
    -2
100
AcDbBlockReference
  2
_OPEN30
 10
36650.9194650826
 20
-17163.08386156808
 30
0.0
 41
9.000000357627869
 42
9.000000357627869
 43
9.000000357627869
 50
180.0
  0
INSERT
  5
128
330
123
100
AcDbEntity
  8
Calm 810
 62
    18
370
    -2
100
AcDbBlockReference
  2
_OPEN30
 10
37117.8113819791
 20
-17163.08386156808
 30
0.0
 41
9.000000357627869
 42
9.000000357627869
 43
9.000000357627869
  0
MTEXT
  5
129
330
123
100
AcDbEntity
  8
Calm 810
  6
Continuous
 62
    18
370
    25
100
AcDbMText
 10
36884.36542353085
 20
-17131.0838574792
 30
0.0
 40
24.0
 41
0.0
 71
     5
 72
     1
  1
466.892
  7
ROMAN
 73
     1
 44
1.0
  0
POINT
  5
12A
330
123
100
AcDbEntity
  8
Defpoints
 62
     0
100
AcDbPoint
 10
36650.9194650826
 20
-16857.81581928782
 30
0.0
  0
POINT
  5
12B
330
123
100
AcDbEntity
  8
Defpoints
 62
     0
100
AcDbPoint
 10
37117.8113819791
 20
-16857.81582321657
 30
0.0
  0
POINT
  5
12C
330
123
100
AcDbEntity
  8
Defpoints
 62
     0
100
AcDbPoint
 10
37117.8113819791
 20
-17163.08386156808
 30
0.0
  0
ENDBLK
  5
12E
330
123
100
AcDbEntity
  8
0
100
AcDbBlockEnd
  0
BLOCK
  5
13A
330
130
100
AcDbEntity
  8
0
100
AcDbBlockBegin
  2
*D23
 70
     1
 10
0.0
 20
0.0
 30
0.0
  3
*D23
  1

  0
LINE
  5
131
330
130
100
AcDbEntity
  8
Calm 810
  6
Continuous
 62
    18
 48
50.00000038146973
370
    -2
100
AcDbLine
 10
36611.9194646296
 20
-17025.08386137734
 30
0.0
 11
36571.91946553559
 21
-17025.08386137734
 31
0.0
  0
LINE
  5
132
330
130
100
AcDbEntity
  8
Calm 810
  6
Continuous
 62
    18
 48
50.00000038146973
370
    -2
100
AcDbLine
 10
36611.9194646296
 20
-16693.08369393733
 30
0.0
 11
36571.91946553559
 21
-16693.08369393733
 31
0.0
  0
LINE
  5
133
330
130
100
AcDbEntity
  8
Calm 810
  6
Continuous
 62
    18
 48
50.00000038146973
370
    -2
100
AcDbLine
 10
36591.9194650826
 20
-17010.08386078129
 30
0.0
 11
36591.9194650826
 21
-16708.08369453338
 31
0.0
  0
INSERT
  5
134
330
130
100
AcDbEntity
  8
Calm 810
 62
    18
370
    -2
100
AcDbBlockReference
  2
_OPEN30
 10
36591.9194650826
 20
-17025.08386137734
 30
0.0
 41
15.00000059604645
 42
15.00000059604645
 43
15.00000059604645
 50
270.0
  0
INSERT
  5
135
330
130
100
AcDbEntity
  8
Calm 810
 62
    18
370
    -2
100
AcDbBlockReference
  2
_OPEN30
 10
36591.9194650826
 20
-16693.08369393733
 30
0.0
 41
15.00000059604645
 42
15.00000059604645
 43
15.00000059604645
 50
90.0
  0
MTEXT
  5
136
330
130
100
AcDbEntity
  8
Calm 810
  6
Continuous
 62
     0
370
    25
100
AcDbMText
 10
36551.49946099372
 20
-16859.08377765734
 30
0.0
 40
40.0
 41
0.0
 71
     5
 72
     1
  1
332
  7
ARIAL
 11
0.0
 21
1.0
 31
0.0
 73
     1
 44
1.0
  0
POINT
  5
137
330
130
100
AcDbEntity
  8
Defpoints
 62
     0
100
AcDbPoint
 10
36884.10962518293
 20
-17025.08386137734
 30
0.0
  0
POINT
  5
138
330
130
100
AcDbEntity
  8
Defpoints
 62
     0
100
AcDbPoint
 10
36884.40574216493
 20
-16693.08369393733
 30
0.0
  0
POINT
  5
139
330
130
100
AcDbEntity
  8
Defpoints
 62
     0
100
AcDbPoint
 10
36591.9194650826
 20
-16693.08369393733
 30
0.0
  0
ENDBLK
  5
13B
330
130
100
AcDbEntity
  8
0
100
AcDbBlockEnd
  0
BLOCK
  5
147
330
13D
100
AcDbEntity
  8
0
100
AcDbBlockBegin
  2
*D24
 70
     1
 10
0.0
 20
0.0
 30
0.0
  3
*D24
  1

  0
LINE
  5
13E
330
13D
100
AcDbEntity
  8
Calm 810
  6
Continuous
 62
    18
 48
50.00000038146973
370
    -2
100
AcDbLine
 10
36557.91946462961
 20
-16668.08369397911
 30
0.0
 11
36517.9194655356
 21
-16668.08369397911
 31
0.0
  0
LINE
  5
13F
330
13D
100
AcDbEntity
  8
Calm 810
  6
Continuous
 62
    18
 48
50.00000038146973
370
    -2
100
AcDbLine
 10
36557.91946462961
 20
-17050.08386156808
 30
0.0
 11
36517.9194655356
 21
-17050.08386156808
 31
0.0
  0
LINE
  5
140
330
13D
100
AcDbEntity
  8
Calm 810
  6
Continuous
 62
    18
 48
50.00000038146973
370
    -2
100
AcDbLine
 10
36537.9194650826
 20
-16677.08369433674
 30
0.0
 11
36537.9194650826
 21
-17041.08386121045
 31
0.0
  0
INSERT
  5
141
330
13D
100
AcDbEntity
  8
Calm 810
 62
    18
370
    -2
100
AcDbBlockReference
  2
_OPEN30
 10
36537.9194650826
 20
-16668.08369397911
 30
0.0
 41
9.000000357627869
 42
9.000000357627869
 43
9.000000357627869
 50
90.0
  0
INSERT
  5
142
330
13D
100
AcDbEntity
  8
Calm 810
 62
    18
370
    -2
100
AcDbBlockReference
  2
_OPEN30
 10
36537.9194650826
 20
-17050.08386156808
 30
0.0
 41
9.000000357627869
 42
9.000000357627869
 43
9.000000357627869
 50
270.0
  0
MTEXT
  5
143
330
13D
100
AcDbEntity
  8
Calm 810
  6
Continuous
 62
    18
370
    25
100
AcDbMText
 10
36505.91946099373
 20
-16859.08377777359
 30
0.0
 40
24.0
 41
0.0
 71
     5
 72
     1
  1
382
  7
ROMAN
 11
0.0
 21
1.0
 31
0.0
 73
     1
 44
1.0
  0
POINT
  5
144
330
13D
100
AcDbEntity
  8
Defpoints
 62
     0
100
AcDbPoint
 10
36884.32169467917
 20
-16668.08369397911
 30
0.0
  0
POINT
  5
145
330
13D
100
AcDbEntity
  8
Defpoints
 62
     0
100
AcDbPoint
 10
36884.10962518293
 20
-17050.08386156808
 30
0.0
  0
POINT
  5
146
330
13D
100
AcDbEntity
  8
Defpoints
 62
     0
100
AcDbPoint
 10
36537.9194650826
 20
-17050.08386156808
 30
0.0
  0
ENDBLK
  5
148
330
13D
100
AcDbEntity
  8
0
100
AcDbBlockEnd
  0
BLOCK
  5
154
330
14A
100
AcDbEntity
  8
0
100
AcDbBlockBegin
  2
*D25
 70
     1
 10
0.0
 20
0.0
 30
0.0
  3
*D25
  1

  0
LINE
  5
14B
330
14A
100
AcDbEntity
  8
Calm 810
  6
Continuous
 62
    18
 48
50.00000038146973
370
    -2
100
AcDbLine
 10
37317.81165632389
 20
-16629.08369352611
 30
0.0
 11
37317.81165632389
 21
-16589.0836944321
 31
0.0
  0
LINE
  5
14C
330
14A
100
AcDbEntity
  8
Calm 810
  6
Continuous
 62
    18
 48
50.00000038146973
370
    -2
100
AcDbLine
 10
37454.79547342623
 20
-16629.08369352611
 30
0.0
 11
37454.79547342623
 21
-16589.0836944321
 31
0.0
  0
LINE
  5
14D
330
14A
100
AcDbEntity
  8
Calm 810
  6
Continuous
 62
    18
 48
50.00000038146973
370
    -2
100
AcDbLine
 10
37317.81165632389
 20
-16609.0836939791
 30
0.0
 11
37454.79547342623
 21
-16609.0836939791
 31
0.0
  0
LINE
  5
14E
330
14A
100
AcDbEntity
  8
Calm 810
  6
Continuous
 62
    18
 48
50.00000038146973
370
    -2
100
AcDbLine
 10
37302.81165572784
 20
-16609.0836939791
 30
0.0
 11
37287.81165513179
 21
-16609.0836939791
 31
0.0
  0
LINE
  5
14F
330
14A
100
AcDbEntity
  8
Calm 810
  6
Continuous
 62
    18
 48
50.00000038146973
370
    -2
100
AcDbLine
 10
37469.79547402228
 20
-16609.0836939791
 30
0.0
 11
37484.79547461832
 21
-16609.0836939791
 31
0.0
  0
INSERT
  5
150
330
14A
100
AcDbEntity
  8
Calm 810
 62
    18
370
    -2
100
AcDbBlockReference
  2
_OPEN30
 10
37317.81165632389
 20
-16609.0836939791
 30
0.0
 41
15.00000059604645
 42
15.00000059604645
 43
15.00000059604645
  0
INSERT
  5
151
330
14A
100
AcDbEntity
  8
Calm 810
 62
    18
370
    -2
100
AcDbBlockReference
  2
_OPEN30
 10
37454.79547342623
 20
-16609.0836939791
 30
0.0
 41
15.00000059604645
 42
15.00000059604645
 43
15.00000059604645
 50
180.0
  0
MTEXT
  5
152
330
14A
100
AcDbEntity
  8
Calm 810
  6
Continuous
 62
     0
370
    25
100
AcDbMText
 10
37386.30356487506
 20
-16568.66368989023
 30
0.0
 40
40.0
 41
0.0
 71
     5
 72
     1
  1
136.984
  7
ARIAL
 73
     1
 44
1.0
  0
POINT
  5
153
330
14A
100
AcDbEntity
  8
Defpoints
 62
     0
100
AcDbPoint
 10
37317.81165632389
 20
-16693.08365094704
 30
0.0
  0
POINT
  5
156
330
14A
100
AcDbEntity
  8
Defpoints
 62
     0
100
AcDbPoint
 10
37454.79547342623
 20
-16769.96913602934
 30
0.0
  0
POINT
  5
157
330
14A
100
AcDbEntity
  8
Defpoints
 62
     0
100
AcDbPoint
 10
37454.79547342623
 20
-16609.0836939791
 30
0.0
  0
ENDBLK
  5
155
330
14A
100
AcDbEntity
  8
0
100
AcDbBlockEnd
  0
BLOCK
  5
163
330
159
100
AcDbEntity
  8
0
100
AcDbBlockBegin
  2
*D26
 70
     1
 10
0.0
 20
0.0
 30
0.0
  3
*D26
  1

  0
LINE
  5
15A
330
159
100
AcDbEntity
  8
Calm 810
  6
Continuous
 62
    18
 48
50.00000038146973
370
    -2
100
AcDbLine
 10
37156.81138243209
 20
-16759.08378088723
 30
0.0
 11
37196.8113815261
 21
-16759.08378088723
 31
0.0
  0
LINE
  5
15B
330
159
100
AcDbEntity
  8
Calm 810
  6
Continuous
 62
    18
 48
50.00000038146973
370
    -2
100
AcDbLine
 10
37156.81138243209
 20
-16693.15050988309
 30
0.0
 11
37196.8113815261
 21
-16693.15050988309
 31
0.0
  0
LINE
  5
15C
330
159
100
AcDbEntity
  8
Calm 810
  6
Continuous
 62
    18
 48
50.00000038146973
370
    -2
100
AcDbLine
 10
37176.8113819791
 20
-16759.08378088723
 30
0.0
 11
37176.8113819791
 21
-16693.15050988309
 31
0.0
  0
LINE
  5
15D
330
159
100
AcDbEntity
  8
Calm 810
  6
Continuous
 62
    18
 48
50.00000038146973
370
    -2
100
AcDbLine
 10
37176.8113819791
 20
-16768.08378124486
 30
0.0
 11
37176.8113819791
 21
-16777.08378160249
 31
0.0
  0
LINE
  5
15E
330
159
100
AcDbEntity
  8
Calm 810
  6
Continuous
 62
    18
 48
50.00000038146973
370
    -2
100
AcDbLine
 10
37176.8113819791
 20
-16684.15050952546
 30
0.0
 11
37176.8113819791
 21
-16675.15050916783
 31
0.0
  0
INSERT
  5
15F
330
159
100
AcDbEntity
  8
Calm 810
 62
    18
370
    -2
100
AcDbBlockReference
  2
_OPEN30
 10
37176.8113819791
 20
-16759.08378088723
 30
0.0
 41
9.000000357627869
 42
9.000000357627869
 43
9.000000357627869
 50
90.0
  0
INSERT
  5
160
330
159
100
AcDbEntity
  8
Calm 810
 62
    18
370
    -2
100
AcDbBlockReference
  2
_OPEN30
 10
37176.8113819791
 20
-16693.15050988309
 30
0.0
 41
9.000000357627869
 42
9.000000357627869
 43
9.000000357627869
 50
270.0
  0
MTEXT
  5
161
330
159
100
AcDbEntity
  8
Calm 810
  6
Continuous
 62
    18
370
    25
100
AcDbMText
 10
37144.81137789022
 20
-16726.11714538516
 30
0.0
 40
24.0
 41
0.0
 71
     5
 72
     1
  1
65.933
  7
ROMAN
 11
0.0
 21
1.0
 31
0.0
 73
     1
 44
1.0
  0
POINT
  5
162
330
159
100
AcDbEntity
  8
Defpoints
 62
     0
100
AcDbPoint
 10
36889.3248107298
 20
-16759.08378088723
 30
0.0
  0
POINT
  5
165
330
159
100
AcDbEntity
  8
Defpoints
 62
     0
100
AcDbPoint
 10
36890.71306231483
 20
-16693.15050988309
 30
0.0
  0
POINT
  5
166
330
159
100
AcDbEntity
  8
Defpoints
 62
     0
100
AcDbPoint
 10
37176.8113819791
 20
-16693.15050988309
 30
0.0
  0
ENDBLK
  5
164
330
159
100
AcDbEntity
  8
0
100
AcDbBlockEnd
  0
BLOCK
  5
168
330
167
100
AcDbEntity
  8
0
100
AcDbBlockBegin
  2
Dimension20
 70
     0
 10
0.0
 20
0.0
 30
0.0
  3
Dimension20
  1

  0
ENDBLK
  5
169
330
167
100
AcDbEntity
  8
0
100
AcDbBlockEnd
  0
BLOCK
  5
16C
330
16B
100
AcDbEntity
  8
0
100
AcDbBlockBegin
  2
Dimension21
 70
     0
 10
0.0
 20
0.0
 30
0.0
  3
Dimension21
  1

  0
ENDBLK
  5
16D
330
16B
100
AcDbEntity
  8
0
100
AcDbBlockEnd
  0
BLOCK
  5
170
330
16F
100
AcDbEntity
  8
0
100
AcDbBlockBegin
  2
Dimension22
 70
     0
 10
0.0
 20
0.0
 30
0.0
  3
Dimension22
  1

  0
ENDBLK
  5
171
330
16F
100
AcDbEntity
  8
0
100
AcDbBlockEnd
  0
BLOCK
  5
1C9
330
1BF
100
AcDbEntity
  8
0
100
AcDbBlockBegin
  2
*D30
 70
     1
 10
0.0
 20
0.0
 30
0.0
  3
*D30
  1

  0
LINE
  5
1C0
330
1BF
100
AcDbEntity
  8
Calm 810
  6
Continuous
 62
    18
 48
50.00000038146973
370
    -2
100
AcDbLine
 10
37156.81138243209
 20
-17250.08386156808
 30
0.0
 11
37196.8113815261
 21
-17250.08386156808
 31
0.0
  0
LINE
  5
1C1
330
1BF
100
AcDbEntity
  8
Calm 810
  6
Continuous
 62
    18
 48
50.00000038146973
370
    -2
100
AcDbLine
 10
37156.81138243209
 20
-17408.0967726369
 30
0.0
 11
37196.8113815261
 21
-17408.0967726369
 31
0.0
  0
LINE
  5
1C2
330
1BF
100
AcDbEntity
  8
Calm 810
  6
Continuous
 62
    18
 48
50.00000038146973
370
    -2
100
AcDbLine
 10
37176.8113819791
 20
-17250.08386156808
 30
0.0
 11
37176.8113819791
 21
-17408.0967726369
 31
0.0
  0
LINE
  5
1C3
330
1BF
100
AcDbEntity
  8
Calm 810
  6
Continuous
 62
    18
 48
50.00000038146973
370
    -2
100
AcDbLine
 10
37176.8113819791
 20
-17241.08386121045
 30
0.0
 11
37176.8113819791
 21
-17232.08386085282
 31
0.0
  0
LINE
  5
1C4
330
1BF
100
AcDbEntity
  8
Calm 810
  6
Continuous
 62
    18
 48
50.00000038146973
370
    -2
100
AcDbLine
 10
37176.8113819791
 20
-17417.09677299453
 30
0.0
 11
37176.8113819791
 21
-17426.09677335216
 31
0.0
  0
INSERT
  5
1C5
330
1BF
100
AcDbEntity
  8
Calm 810
 62
    18
370
    -2
100
AcDbBlockReference
  2
_OPEN30
 10
37176.8113819791
 20
-17250.08386156808
 30
0.0
 41
9.000000357627869
 42
9.000000357627869
 43
9.000000357627869
 50
270.0
  0
INSERT
  5
1C6
330
1BF
100
AcDbEntity
  8
Calm 810
 62
    18
370
    -2
100
AcDbBlockReference
  2
_OPEN30
 10
37176.8113819791
 20
-17408.0967726369
 30
0.0
 41
9.000000357627869
 42
9.000000357627869
 43
9.000000357627869
 50
90.0
  0
MTEXT
  5
1C7
330
1BF
100
AcDbEntity
  8
Calm 810
  6
Continuous
 62
    18
370
    25
100
AcDbMText
 10
37144.81137789022
 20
-17329.09031710249
 30
0.0
 40
24.0
 41
0.0
 71
     5
 72
     1
  1
158.013
  7
ROMAN
 11
0.0
 21
1.0
 31
0.0
 73
     1
 44
1.0
  0
POINT
  5
1C8
330
1BF
100
AcDbEntity
  8
Defpoints
 62
     0
100
AcDbPoint
 10
36884.32704253505
 20
-17250.08386156808
 30
0.0
  0
POINT
  5
1CB
330
1BF
100
AcDbEntity
  8
Defpoints
 62
     0
100
AcDbPoint
 10
36884.32704253505
 20
-17408.0967726369
 30
0.0
  0
POINT
  5
1CC
330
1BF
100
AcDbEntity
  8
Defpoints
 62
     0
100
AcDbPoint
 10
37176.8113819791
 20
-17408.0967726369
 30
0.0
  0
ENDBLK
  5
1CA
330
1BF
100
AcDbEntity
  8
0
100
AcDbBlockEnd
  0
BLOCK
  5
1CE
330
1CD
100
AcDbEntity
  8
0
100
AcDbBlockBegin
  2
Dimension23
 70
     0
 10
0.0
 20
0.0
 30
0.0
  3
Dimension23
  1

  0
ENDBLK
  5
1CF
330
1CD
100
AcDbEntity
  8
0
100
AcDbBlockEnd
  0
BLOCK
  5
229
330
228
100
AcDbEntity
  8
0
100
AcDbBlockBegin
  2
Dimension24
 70
     0
 10
0.0
 20
0.0
 30
0.0
  3
Dimension24
  1

  0
ENDBLK
  5
22A
330
228
100
AcDbEntity
  8
0
100
AcDbBlockEnd
  0
BLOCK
  5
22D
330
22C
100
AcDbEntity
  8
0
100
AcDbBlockBegin
  2
Dimension25
 70
     0
 10
0.0
 20
0.0
 30
0.0
  3
Dimension25
  1

  0
ENDBLK
  5
22E
330
22C
100
AcDbEntity
  8
0
100
AcDbBlockEnd
  0
BLOCK
  5
231
330
230
100
AcDbEntity
  8
0
100
AcDbBlockBegin
  2
Dimension26
 70
     0
 10
0.0
 20
0.0
 30
0.0
  3
Dimension26
  1

  0
ENDBLK
  5
232
330
230
100
AcDbEntity
  8
0
100
AcDbBlockEnd
  0
BLOCK
  5
235
330
234
100
AcDbEntity
  8
0
100
AcDbBlockBegin
  2
Dimension27
 70
     0
 10
0.0
 20
0.0
 30
0.0
  3
Dimension27
  1

  0
ENDBLK
  5
236
330
234
100
AcDbEntity
  8
0
100
AcDbBlockEnd
  0
BLOCK
  5
239
330
238
100
AcDbEntity
  8
0
100
AcDbBlockBegin
  2
Dimension28
 70
     0
 10
0.0
 20
0.0
 30
0.0
  3
Dimension28
  1

  0
ENDBLK
  5
23A
330
238
100
AcDbEntity
  8
0
100
AcDbBlockEnd
  0
BLOCK
  5
23D
330
23C
100
AcDbEntity
  8
0
100
AcDbBlockBegin
  2
Dimension29
 70
     0
 10
0.0
 20
0.0
 30
0.0
  3
Dimension29
  1

  0
ENDBLK
  5
23E
330
23C
100
AcDbEntity
  8
0
100
AcDbBlockEnd
  0
BLOCK
  5
241
330
240
100
AcDbEntity
  8
0
100
AcDbBlockBegin
  2
Dimension30
 70
     0
 10
0.0
 20
0.0
 30
0.0
  3
Dimension30
  1

  0
ENDBLK
  5
242
330
240
100
AcDbEntity
  8
0
100
AcDbBlockEnd
  0
BLOCK
  5
245
330
244
100
AcDbEntity
  8
0
100
AcDbBlockBegin
  2
Dimension31
 70
     0
 10
0.0
 20
0.0
 30
0.0
  3
Dimension31
  1

  0
ENDBLK
  5
246
330
244
100
AcDbEntity
  8
0
100
AcDbBlockEnd
  0
BLOCK
  5
249
330
248
100
AcDbEntity
  8
0
100
AcDbBlockBegin
  2
Dimension32
 70
     0
 10
0.0
 20
0.0
 30
0.0
  3
Dimension32
  1

  0
ENDBLK
  5
24A
330
248
100
AcDbEntity
  8
0
100
AcDbBlockEnd
  0
BLOCK
  5
24D
330
24C
100
AcDbEntity
  8
0
100
AcDbBlockBegin
  2
Dimension33
 70
     0
 10
0.0
 20
0.0
 30
0.0
  3
Dimension33
  1

  0
ENDBLK
  5
24E
330
24C
100
AcDbEntity
  8
0
100
AcDbBlockEnd
  0
BLOCK
  5
251
330
250
100
AcDbEntity
  8
0
100
AcDbBlockBegin
  2
Dimension34
 70
     0
 10
0.0
 20
0.0
 30
0.0
  3
Dimension34
  1

  0
ENDBLK
  5
252
330
250
100
AcDbEntity
  8
0
100
AcDbBlockEnd
  0
BLOCK
  5
255
330
254
100
AcDbEntity
  8
0
100
AcDbBlockBegin
  2
Dimension35
 70
     0
 10
0.0
 20
0.0
 30
0.0
  3
Dimension35
  1

  0
ENDBLK
  5
256
330
254
100
AcDbEntity
  8
0
100
AcDbBlockEnd
  0
BLOCK
  5
259
330
258
100
AcDbEntity
  8
0
100
AcDbBlockBegin
  2
Dimension36
 70
     0
 10
0.0
 20
0.0
 30
0.0
  3
Dimension36
  1

  0
ENDBLK
  5
25A
330
258
100
AcDbEntity
  8
0
100
AcDbBlockEnd
  0
BLOCK
  5
25D
330
25C
100
AcDbEntity
  8
0
100
AcDbBlockBegin
  2
Dimension37
 70
     0
 10
0.0
 20
0.0
 30
0.0
  3
Dimension37
  1

  0
ENDBLK
  5
25E
330
25C
100
AcDbEntity
  8
0
100
AcDbBlockEnd
  0
BLOCK
  5
261
330
260
100
AcDbEntity
  8
0
100
AcDbBlockBegin
  2
Dimension38
 70
     0
 10
0.0
 20
0.0
 30
0.0
  3
Dimension38
  1

  0
ENDBLK
  5
262
330
260
100
AcDbEntity
  8
0
100
AcDbBlockEnd
  0
BLOCK
  5
265
330
264
100
AcDbEntity
  8
0
100
AcDbBlockBegin
  2
Dimension39
 70
     0
 10
0.0
 20
0.0
 30
0.0
  3
Dimension39
  1

  0
ENDBLK
  5
266
330
264
100
AcDbEntity
  8
0
100
AcDbBlockEnd
  0
BLOCK
  5
269
330
268
100
AcDbEntity
  8
0
100
AcDbBlockBegin
  2
Dimension40
 70
     0
 10
0.0
 20
0.0
 30
0.0
  3
Dimension40
  1

  0
ENDBLK
  5
26A
330
268
100
AcDbEntity
  8
0
100
AcDbBlockEnd
  0
ENDSEC
  0
SECTION
  2
ENTITIES
  0
INSERT
  5
43
330
1F
100
AcDbEntity
  8
allgemein
  6
Continuous
 62
    18
420
        0
 48
50.00000038146973
370
    25
100
AcDbBlockReference
  2
Dimension1
 10
0.0
 20
0.0
 30
0.0
  0
INSERT
  5
47
330
1F
100
AcDbEntity
  8
allgemein
  6
Continuous
 62
    18
420
        0
 48
50.00000038146973
370
    25
100
AcDbBlockReference
  2
Dimension2
 10
0.0
 20
0.0
 30
0.0
  0
INSERT
  5
4B
330
1F
100
AcDbEntity
  8
allgemein
  6
Continuous
 62
    18
420
        0
 48
50.00000038146973
370
    25
100
AcDbBlockReference
  2
Dimension3
 10
0.0
 20
0.0
 30
0.0
  0
INSERT
  5
4F
330
1F
100
AcDbEntity
  8
allgemein
  6
Continuous
 62
    18
420
        0
 48
50.00000038146973
370
    25
100
AcDbBlockReference
  2
Dimension4
 10
0.0
 20
0.0
 30
0.0
  0
INSERT
  5
53
330
1F
100
AcDbEntity
  8
allgemein
  6
Continuous
 62
    18
420
        0
 48
50.00000038146973
370
    25
100
AcDbBlockReference
  2
Dimension5
 10
0.0
 20
0.0
 30
0.0
  0
INSERT
  5
57
330
1F
100
AcDbEntity
  8
allgemein
  6
Continuous
 62
    18
420
        0
 48
50.00000038146973
370
    25
100
AcDbBlockReference
  2
Dimension6
 10
0.0
 20
0.0
 30
0.0
  0
INSERT
  5
5B
330
1F
100
AcDbEntity
  8
allgemein
  6
Continuous
 62
    18
420
        0
 48
50.00000038146973
370
    25
100
AcDbBlockReference
  2
Dimension7
 10
0.0
 20
0.0
 30
0.0
  0
INSERT
  5
5F
330
1F
100
AcDbEntity
  8
allgemein
  6
Continuous
 62
    18
420
        0
 48
50.00000038146973
370
    25
100
AcDbBlockReference
  2
Dimension8
 10
0.0
 20
0.0
 30
0.0
  0
INSERT
  5
63
330
1F
100
AcDbEntity
  8
allgemein
  6
Continuous
 62
    18
420
        0
 48
50.00000038146973
370
    25
100
AcDbBlockReference
  2
Dimension9
 10
0.0
 20
0.0
 30
0.0
  0
INSERT
  5
67
330
1F
100
AcDbEntity
  8
allgemein
  6
Continuous
 62
    18
420
        0
 48
50.00000038146973
370
    25
100
AcDbBlockReference
  2
Dimension10
 10
0.0
 20
0.0
 30
0.0
  0
INSERT
  5
6B
330
1F
100
AcDbEntity
  8
allgemein
  6
Continuous
 62
    18
420
        0
 48
50.00000038146973
370
    25
100
AcDbBlockReference
  2
Dimension11
 10
0.0
 20
0.0
 30
0.0
  0
INSERT
  5
6F
330
1F
100
AcDbEntity
  8
allgemein
  6
Continuous
 62
    18
420
        0
 48
50.00000038146973
370
    25
100
AcDbBlockReference
  2
Dimension12
 10
0.0
 20
0.0
 30
0.0
  0
INSERT
  5
73
330
1F
100
AcDbEntity
  8
allgemein
  6
Continuous
 62
    18
420
        0
 48
50.00000038146973
370
    25
100
AcDbBlockReference
  2
Dimension13
 10
0.0
 20
0.0
 30
0.0
  0
ARC
  5
76
330
1F
100
AcDbEntity
  8
Calm 810
  6
Continuous
 62
    18
420
        0
 48
50.00000038146973
370
    25
100
AcDbCircle
 10
36884.36542352277
 20
-16994.62366736184
 30
0.0
 40
326.5399763107334
100
AcDbArc
 50
89.99233903222901
 51
104.9840578452735
  0
ARC
  5
77
330
1F
100
AcDbEntity
  8
Calm 810
  6
Continuous
 62
    18
420
        0
 48
50.00000038146973
370
    25
100
AcDbCircle
 10
36854.49282830792
 20
-16892.00570624122
 30
0.0
 40
219.6999860763468
100
AcDbArc
 50
104.3791284810543
 51
128.7785449511993
  0
ARC
  5
78
330
1F
100
AcDbEntity
  8
Calm 810
  6
Continuous
 62
    18
420
        0
 48
50.00000038146973
370
    25
100
AcDbCircle
 10
36826.78026434939
 20
-16858.03532965432
 30
0.0
 40
175.8609362637345
100
AcDbArc
 50
128.6723530484527
 51
179.9284831464383
  0
ARC
  5
79
330
1F
100
AcDbEntity
  8
Calm 810
  6
Continuous
 62
    18
420
        0
 48
50.00000038146973
370
    25
100
AcDbCircle
 10
36827.93787608292
 20
-16859.57059881936
 30
0.0
 40
177.0213645018716
100
AcDbArc
 50
179.6649511501679
 51
228.5856210048711
  0
ARC
  5
7A
330
1F
100
AcDbEntity
  8
Calm 810
  6
Continuous
 62
    18
420
        0
 48
50.00000038146973
370
    25
100
AcDbCircle
 10
36854.48042596418
 20
-16826.08975775491
 30
0.0
 40
219.6999860763516
100
AcDbArc
 50
229.1696079381491
 51
251.6258629101819
  0
ARC
  5
7B
330
1F
100
AcDbEntity
  8
Calm 810
  6
Continuous
 62
    18
420
        0
 48
50.00000038146973
370
    25
100
AcDbCircle
 10
36884.62122186261
 20
-16723.54388525734
 30
0.0
 40
326.5399763107304
100
AcDbArc
 50
252.2777908060837
 51
269.9628990956742
  0
ARC
  5
7C
330
1F
100
AcDbEntity
  8
Calm 810
  6
Continuous
 62
    18
420
        0
 48
50.00000038146973
370
    25
100
AcDbCircle
 10
36884.10962518293
 20
-16723.54388525735
 30
0.0
 40
326.5399763107291
100
AcDbArc
 50
270.0371022708146
 51
287.7222105604051
  0
ARC
  5
7D
330
1F
100
AcDbEntity
  8
Calm 810
  6
Continuous
 62
    18
420
        0
 48
50.00000038146973
370
    25
100
AcDbCircle
 10
36914.25042108136
 20
-16826.0897577549
 30
0.0
 40
219.6999860763524
100
AcDbArc
 50
288.3741384563072
 51
310.8304070887183
  0
ARC
  5
7E
330
1F
100
AcDbEntity
  8
Calm 810
  6
Continuous
 62
    18
420
        0
 48
50.00000038146973
370
    25
100
AcDbCircle
 10
36940.79297165791
 20
-16859.57059881936
 30
0.0
 40
177.0213640654738
100
AcDbArc
 50
311.4143801758308
 51
0.3350636909132922
  0
ARC
  5
7F
330
1F
100
AcDbEntity
  8
Calm 810
  6
Continuous
 62
    18
420
        0
 48
50.00000038146973
370
    25
100
AcDbCircle
 10
36941.95058308195
 20
-16858.03532965432
 30
0.0
 40
175.8609358891861
100
AcDbArc
 50
0.0715155737202421
 51
51.32766221356906
  0
ARC
  5
80
330
1F
100
AcDbEntity
  8
Calm 810
  6
Continuous
 62
    18
420
        0
 48
50.00000038146973
370
    25
100
AcDbCircle
 10
36914.23801873761
 20
-16892.00570624125
 30
0.0
 40
219.6999860763642
100
AcDbArc
 50
51.22148396342146
 51
75.62088335809347
  0
ARC
  5
81
330
1F
100
AcDbEntity
  8
Calm 810
  6
Continuous
 62
    18
420
        0
 48
50.00000038146973
370
    25
100
AcDbCircle
 10
36884.36542352277
 20
-16994.62366736186
 30
0.0
 40
326.5399763107417
100
AcDbArc
 50
75.01595399387298
 51
90.00767280691737
  0
ARC
  5
82
330
1F
100
AcDbEntity
  8
Calm 810
  6
Continuous
 62
    18
420
        0
 48
50.00000038146973
370
    25
100
AcDbCircle
 10
36854.49282830792
 20
-16892.00570624123
 30
0.0
 40
194.6999858856155
100
AcDbArc
 50
104.3791284810542
 51
128.7785449511987
  0
ARC
  5
83
330
1F
100
AcDbEntity
  8
Calm 810
  6
Continuous
 62
    18
420
        0
 48
50.00000038146973
370
    25
100
AcDbCircle
 10
36826.7802643494
 20
-16858.03532965432
 30
0.0
 40
150.8610558897223
100
AcDbArc
 50
128.6995795964321
 51
179.9557096944166
  0
ARC
  5
84
330
1F
100
AcDbEntity
  8
Calm 810
  6
Continuous
 62
    18
420
        0
 48
50.00000038146973
370
    25
100
AcDbCircle
 10
36827.93787608292
 20
-16859.57059881936
 30
0.0
 40
152.0218283970071
100
AcDbArc
 50
179.6117477989378
 51
228.532417653642
  0
ARC
  5
85
330
1F
100
AcDbEntity
  8
Calm 810
  6
Continuous
 62
    18
420
        0
 48
50.00000038146973
370
    25
100
AcDbCircle
 10
36854.48042596417
 20
-16826.08975775491
 30
0.0
 40
194.6999858856149
100
AcDbArc
 50
229.1696079381502
 51
251.625862910183
  0
ARC
  5
86
330
1F
100
AcDbEntity
  8
Calm 810
  6
Continuous
 62
    18
420
        0
 48
50.00000038146973
370
    25
100
AcDbCircle
 10
36884.6212218626
 20
-16723.54388525736
 30
0.0
 40
301.5399761199862
100
AcDbArc
 50
252.2777908060838
 51
269.9628990956744
  0
ARC
  5
87
330
1F
100
AcDbEntity
  8
Calm 810
  6
Continuous
 62
    18
420
        0
 48
50.00000038146973
370
    25
100
AcDbCircle
 10
36884.10962518292
 20
-16723.54388525735
 30
0.0
 40
301.5399761199993
100
AcDbArc
 50
270.037102270817
 51
287.7222105604076
  0
ARC
  5
88
330
1F
100
AcDbEntity
  8
Calm 810
  6
Continuous
 62
    18
420
        0
 48
50.00000038146973
370
    25
100
AcDbCircle
 10
36914.25042108136
 20
-16826.0897577549
 30
0.0
 40
194.6999858856223
100
AcDbArc
 50
288.3741384563069
 51
310.8304070887179
  0
ARC
  5
89
330
1F
100
AcDbEntity
  8
Calm 810
  6
Continuous
 62
    18
420
        0
 48
50.00000038146973
370
    25
100
AcDbCircle
 10
36940.79297165791
 20
-16859.57059881936
 30
0.0
 40
152.021827960067
100
AcDbArc
 50
311.4675834966625
 51
0.3882670117439499
  0
ARC
  5
8A
330
1F
100
AcDbEntity
  8
Calm 810
  6
Continuous
 62
    18
420
        0
 48
50.00000038146973
370
    25
100
AcDbCircle
 10
36941.95058308195
 20
-16858.03532965433
 30
0.0
 40
150.8610555151694
100
AcDbArc
 50
0.0442890269669786
 51
51.30043566681574
  0
ARC
  5
8B
330
1F
100
AcDbEntity
  8
Calm 810
  6
Continuous
 62
    18
420
        0
 48
50.00000038146973
370
    25
100
AcDbCircle
 10
36914.2380187376
 20
-16892.00570624124
 30
0.0
 40
194.6999858856264
100
AcDbArc
 50
51.22148396341894
 51
75.62088335809091
  0
ARC
  5
8C
330
1F
100
AcDbEntity
  8
Calm 810
  6
Continuous
 62
    18
420
        0
 48
50.00000038146973
370
    25
100
AcDbCircle
 10
36884.36542352277
 20
-16994.62366736186
 30
0.0
 40
301.5399761200082
100
AcDbArc
 50
75.01595399387206
 51
90.0076728069164
  0
ARC
  5
8D
330
1F
100
AcDbEntity
  8
Calm 810
  6
Continuous
 62
    18
420
        0
 48
50.00000038146973
370
    25
100
AcDbCircle
 10
36884.36542352277
 20
-16994.62366736184
 30
0.0
 40
301.5399761200024
100
AcDbArc
 50
89.99233903222897
 51
104.9840578452734
  0
LINE
  5
8E
330
1F
100
AcDbEntity
  8
Calm 810
  6
Continuous
 62
    18
420
        0
 48
250.0000019073486
370
    25
100
AcDbLine
 10
36849.32415155011
 20
-16759.08378088723
 30
0.0
 11
36869.32448113995
 21
-16759.08378088723
 31
0.0
  0
LINE
  5
8F
330
1F
100
AcDbEntity
  8
Calm 810
  6
Continuous
 62
    18
420
        0
 48
250.0000019073486
370
    25
100
AcDbLine
 10
36879.32542108136
 20
-16759.08378088723
 30
0.0
 11
36889.3248107298
 21
-16759.08378088723
 31
0.0
  0
LINE
  5
90
330
1F
100
AcDbEntity
  8
Calm 810
  6
Continuous
 62
    18
420
        0
 48
250.0000019073486
370
    25
100
AcDbLine
 10
36899.32420037824
 20
-16759.08378088723
 30
0.0
 11
36919.32452996808
 21
-16759.08378088723
 31
0.0
  0
LINE
  5
91
330
1F
100
AcDbEntity
  8
Calm 810
  6
Continuous
 62
    18
420
        0
 48
250.0000019073486
370
    25
100
AcDbLine
 10
36884.32356561261
 20
-16724.08359167825
 30
0.0
 11
36884.32356561261
 21
-16744.08392126809
 31
0.0
  0
LINE
  5
92
330
1F
100
AcDbEntity
  8
Calm 810
  6
Continuous
 62
    18
420
        0
 48
250.0000019073486
370
    25
100
AcDbLine
 10
36884.32356561261
 20
-16754.08408606302
 30
0.0
 11
36884.32356561261
 21
-16764.08347571145
 31
0.0
  0
LINE
  5
93
330
1F
100
AcDbEntity
  8
Calm 810
  6
Continuous
 62
    18
420
        0
 48
250.0000019073486
370
    25
100
AcDbLine
 10
36884.32356561261
 20
-16774.08364050637
 30
0.0
 11
36884.32356561261
 21
-16794.08397009622
 31
0.0
  0
LINE
  5
94
330
1F
100
AcDbEntity
  8
Calm 810
  6
Continuous
 62
    18
420
        0
 48
250.0000019073486
370
    25
100
AcDbLine
 10
36884.32356561261
 20
-16749.0843912388
 30
0.0
 11
36884.32356561261
 21
-16769.08394568216
 31
0.0
  0
LINE
  5
95
330
1F
100
AcDbEntity
  8
Calm 810
  6
Continuous
 62
    18
420
        0
 48
250.0000019073486
370
    25
100
AcDbLine
 10
36894.32450555402
 20
-16759.08455603372
 30
0.0
 11
36874.32417596417
 21
-16759.08455603372
 31
0.0
  0
LINE
  5
96
330
1F
100
AcDbEntity
  8
Calm 810
  6
Continuous
 62
    18
420
        0
 48
0.0
370
    25
100
AcDbLine
 10
36884.32356561261
 20
-16749.08458502542
 30
0.0
 11
36884.32356561261
 21
-16769.08452704202
 31
0.0
  0
LINE
  5
97
330
1F
100
AcDbEntity
  8
Calm 810
  6
Continuous
 62
    18
420
        0
 48
0.0
370
    25
100
AcDbLine
 10
36894.32450555402
 20
-16759.08455603372
 30
0.0
 11
36874.32417596417
 21
-16759.08455603372
 31
0.0
  0
LINE
  5
98
330
1F
100
AcDbEntity
  8
Calm 810
  6
Continuous
 62
    18
420
        0
 48
50.00000038146973
370
    25
100
AcDbLine
 10
36650.91920770245
 20
-16857.8157999302
 30
0.0
 11
36650.91920770245
 21
-16858.53552344094
 31
0.0
  0
LINE
  5
99
330
1F
100
AcDbEntity
  8
Calm 810
  6
Continuous
 62
    18
420
        0
 48
50.00000038146973
370
    25
100
AcDbLine
 10
36675.91923211652
 20
-16857.918700626
 30
0.0
 11
36675.91923211652
 21
-16858.54056189309
 31
0.0
  0
LINE
  5
9A
330
1F
100
AcDbEntity
  8
Calm 810
  6
Continuous
 62
    18
420
        0
 48
50.00000038146973
370
    25
100
AcDbLine
 10
37092.81161492901
 20
-16857.918700626
 30
0.0
 11
37092.81161492901
 21
-16858.54036810647
 31
0.0
  0
LINE
  5
9B
330
1F
100
AcDbEntity
  8
Calm 810
  6
Continuous
 62
    18
420
        0
 48
50.00000038146973
370
    25
100
AcDbLine
 10
37117.81163934308
 20
-16857.8157999302
 30
0.0
 11
37117.81163934308
 21
-16858.57059881936
 31
0.0
  0
LINE
  5
9C
330
1F
100
AcDbEntity
  8
Calm 810
  6
Continuous
 62
    18
420
        0
 48
0.9999999962747097
370
    25
100
AcDbLine
 10
36648.43773160897
 20
-17263.0112825495
 30
0.0
 11
36649.8405145223
 21
-17251.61343389861
 31
0.0
  0
LINE
  5
9D
330
1F
100
AcDbEntity
  8
Calm 810
  6
Continuous
 62
    18
420
        0
 48
0.9999999962747097
370
    25
100
AcDbLine
 10
36844.66335316117
 20
-17408.0967726369
 30
0.0
 11
36923.99073190895
 21
-17408.0967726369
 31
0.0
  0
LINE
  5
9E
330
1F
100
AcDbEntity
  8
Calm 810
  6
Continuous
 62
    18
420
        0
 48
0.9999999962747097
370
    25
100
AcDbLine
 10
36843.42665638507
 20
-17404.20499747336
 30
0.0
 11
36844.66335316117
 21
-17408.0967726369
 31
0.0
  0
LINE
  5
9F
330
1F
100
AcDbEntity
  8
Calm 810
  6
Continuous
 62
    18
420
        0
 48
0.9999999962747097
370
    25
100
AcDbLine
 10
37120.21625346948
 20
-17263.0112825495
 30
0.0
 11
37119.61830337884
 21
-17263.21016594922
 31
0.0
  0
LINE
  5
A0
330
1F
100
AcDbEntity
  8
Calm 810
  6
Continuous
 62
    18
420
        0
 48
0.9999999962747097
370
    25
100
AcDbLine
 10
36649.03568169962
 20
-17263.21016594922
 30
0.0
 11
36648.43773160897
 21
-17263.0112825495
 31
0.0
  0
LINE
  5
A1
330
1F
100
AcDbEntity
  8
Calm 810
  6
Continuous
 62
    18
420
        0
 48
0.9999999962747097
370
    25
100
AcDbLine
 10
37093.40849104444
 20
-17250.08386156808
 30
0.0
 11
37117.31869532121
 21
-17250.28264497614
 31
0.0
  0
LINE
  5
A2
330
1F
100
AcDbEntity
  8
Calm 810
  6
Continuous
 62
    18
420
        0
 48
0.9999999962747097
370
    25
100
AcDbLine
 10
36675.24559402567
 20
-17250.08386156808
 30
0.0
 11
37093.40849104444
 21
-17250.08386156808
 31
0.0
  0
LINE
  5
A3
330
1F
100
AcDbEntity
  8
Calm 810
  6
Continuous
 62
    18
420
        0
 48
0.9999999962747097
370
    25
100
AcDbLine
 10
37118.81357054781
 20
-17251.61343389861
 30
0.0
 11
37120.21625346948
 21
-17263.0112825495
 31
0.0
  0
LINE
  5
A4
330
1F
100
AcDbEntity
  8
Calm 810
  6
Continuous
 62
    18
420
        0
 48
0.9999999962747097
370
    25
100
AcDbLine
 10
36850.61955601224
 20
-17388.38431798477
 30
0.0
 11
36859.97647501428
 21
-17397.62154697704
 31
0.0
  0
LINE
  5
A5
330
1F
100
AcDbEntity
  8
Calm 810
  6
Continuous
 62
    18
420
        0
 48
0.9999999962747097
370
    25
100
AcDbLine
 10
36861.60513907388
 20
-17408.0967726369
 30
0.0
 11
36860.90439756298
 21
-17399.60688126629
 31
0.0
  0
LINE
  5
A6
330
1F
100
AcDbEntity
  8
Calm 810
  6
Continuous
 62
    18
420
        0
 48
0.9999999962747097
370
    25
100
AcDbLine
 10
36919.24332816252
 20
-17387.61518218256
 30
0.0
 11
36849.33766300855
 21
-17387.61518218256
 31
0.0
  0
LINE
  5
A7
330
1F
100
AcDbEntity
  8
Calm 810
  6
Continuous
 62
    18
420
        0
 48
0.9999999962747097
370
    25
100
AcDbLine
 10
36908.07376045761
 20
-17398.45217764642
 30
0.0
 11
36860.5801246292
 21
-17398.45217764642
 31
0.0
  0
LINE
  5
A8
330
1F
100
AcDbEntity
  8
Calm 810
  6
Continuous
 62
    18
420
        0
 48
0.9999999962747097
370
    25
100
AcDbLine
 10
37106.37361421299
 20
-17263.21016594922
 30
0.0
 11
37119.61830337884
 21
-17263.21016594922
 31
0.0
  0
LINE
  5
A9
330
1F
100
AcDbEntity
  8
Calm 810
  6
Continuous
 62
    18
420
        0
 48
0.9999999962747097
370
    25
100
AcDbLine
 10
37119.61830337884
 20
-17263.21016594922
 30
0.0
 11
37120.21625346948
 21
-17263.0112825495
 31
0.0
  0
LINE
  5
AA
330
1F
100
AcDbEntity
  8
Calm 810
  6
Continuous
 62
    18
420
        0
 48
0.9999999962747097
370
    25
100
AcDbLine
 10
37093.40849104444
 20
-17250.08386156808
 30
0.0
 11
37092.81130909892
 21
-17250.08386156808
 31
0.0
  0
LINE
  5
AB
330
1F
100
AcDbEntity
  8
Calm 810
  6
Continuous
 62
    18
420
        0
 48
0.9999999962747097
370
    25
100
AcDbLine
 10
36917.91072686454
 20
-17388.40812828077
 30
0.0
 11
36908.66575224113
 21
-17397.63310512218
 31
0.0
  0
LINE
  5
AC
330
1F
100
AcDbEntity
  8
Calm 810
  6
Continuous
 62
    18
420
        0
 48
0.9999999962747097
370
    25
100
AcDbLine
 10
36907.74954668426
 20
-17399.60697608758
 30
0.0
 11
36907.04894599623
 21
-17408.0967726369
 31
0.0
  0
LINE
  5
AD
330
1F
100
AcDbEntity
  8
Calm 810
  6
Continuous
 62
    18
420
        0
 48
0.9999999962747097
370
    25
100
AcDbLine
 10
36923.99073190895
 20
-17408.0967726369
 30
0.0
 11
36925.22727137272
 21
-17404.20517787102
 31
0.0
  0
LINE
  5
AE
330
1F
100
AcDbEntity
  8
Calm 810
  6
Continuous
 62
    18
420
        0
 48
0.9999999962747097
370
    25
100
AcDbLine
 10
36675.84271815082
 20
-17250.08386156808
 30
0.0
 11
36675.24559402567
 21
-17250.08386156808
 31
0.0
  0
LINE
  5
AF
330
1F
100
AcDbEntity
  8
Calm 810
  6
Continuous
 62
    18
420
        0
 48
0.9999999962747097
370
    25
100
AcDbLine
 10
36675.24559402567
 20
-17250.08386156808
 30
0.0
 11
36651.33561812005
 21
-17250.28264224622
 31
0.0
  0
LINE
  5
B0
330
1F
100
AcDbEntity
  8
Calm 810
  6
Continuous
 62
    18
420
        0
 48
0.9999999962747097
370
    25
100
AcDbLine
 10
36648.43773160897
 20
-17263.0112825495
 30
0.0
 11
36649.03568169962
 21
-17263.21016594922
 31
0.0
  0
LINE
  5
B1
330
1F
100
AcDbEntity
  8
Calm 810
  6
Continuous
 62
    18
420
        0
 48
0.9999999962747097
370
    25
100
AcDbLine
 10
36649.03568169962
 20
-17263.21016594922
 30
0.0
 11
36662.28041303674
 21
-17263.21016594922
 31
0.0
  0
LINE
  5
B2
330
1F
100
AcDbEntity
  8
Calm 810
  6
Continuous
 62
    18
420
        0
 48
0.9999999962747097
370
    25
100
AcDbLine
 10
37317.81165632389
 20
-16693.08365094704
 30
0.0
 11
37317.81165632389
 21
-17023.05501624472
 31
0.0
  0
LINE
  5
B3
330
1F
100
AcDbEntity
  8
Calm 810
  6
Continuous
 62
    18
420
        0
 48
0.9999999962747097
370
    25
100
AcDbLine
 10
37330.86082040147
 20
-16666.91593878186
 30
0.0
 11
37330.86082040147
 21
-16670.05929288444
 31
0.0
  0
LINE
  5
B4
330
1F
100
AcDbEntity
  8
Calm 810
  6
Continuous
 62
    18
420
        0
 48
0.9999999962747097
370
    25
100
AcDbLine
 10
37330.86082040147
 20
-17046.08494093275
 30
0.0
 11
37330.86082040147
 21
-17049.2228278139
 31
0.0
  0
LINE
  5
B5
330
1F
100
AcDbEntity
  8
Calm 810
  6
Continuous
 62
    18
420
        0
 48
0.9999999962747097
370
    25
100
AcDbLine
 10
37331.15744201434
 20
-16677.84372154571
 30
0.0
 11
37331.15744201434
 21
-16670.979873567
 31
0.0
  0
LINE
  5
B6
330
1F
100
AcDbEntity
  8
Calm 810
  6
Continuous
 62
    18
420
        0
 48
0.9999999962747097
370
    25
100
AcDbLine
 10
37330.3665835854
 20
-16669.22926926934
 30
0.0
 11
37330.3665835854
 21
-16667.60977888167
 31
0.0
  0
LINE
  5
B7
330
1F
100
AcDbEntity
  8
Calm 810
  6
Continuous
 62
    18
420
        0
 48
0.9999999962747097
370
    25
100
AcDbLine
 10
37330.86082040147
 20
-16666.91593878186
 30
0.0
 11
37330.66310579424
 21
-16666.32120449574
 31
0.0
  0
LINE
  5
B8
330
1F
100
AcDbEntity
  8
Calm 810
  6
Continuous
 62
    18
420
        0
 48
0.9999999962747097
370
    25
100
AcDbLine
 10
37330.66310579424
 20
-16666.32120449574
 30
0.0
 11
37319.33223970593
 21
-16667.71643940131
 31
0.0
  0
LINE
  5
B9
330
1F
100
AcDbEntity
  8
Calm 810
  6
Continuous
 62
    18
420
        0
 48
0.9999999962747097
370
    25
100
AcDbLine
 10
37318.00927152709
 20
-16669.20332481863
 30
0.0
 11
37317.81165632389
 21
-16693.08365094704
 31
0.0
  0
LINE
  5
BA
330
1F
100
AcDbEntity
  8
Calm 810
  6
Continuous
 62
    18
420
        0
 48
0.9999999962747097
370
    25
100
AcDbLine
 10
37343.41743753143
 20
-17029.51329579833
 30
0.0
 11
37343.04944382807
 21
-17036.55259188252
 31
0.0
  0
LINE
  5
BB
330
1F
100
AcDbEntity
  8
Calm 810
  6
Continuous
 62
    18
420
        0
 48
0.9999999962747097
370
    25
100
AcDbLine
 10
37337.82208432543
 20
-17041.79386794875
 30
0.0
 11
37331.83806137872
 21
-17042.10828288223
 31
0.0
  0
LINE
  5
BC
330
1F
100
AcDbEntity
  8
Calm 810
  6
Continuous
 62
    18
420
        0
 48
0.9999999962747097
370
    25
100
AcDbLine
 10
37331.12414166571
 20
-17042.86256062969
 30
0.0
 11
37331.12414166571
 21
-17045.21247179865
 31
0.0
  0
LINE
  5
BD
330
1F
100
AcDbEntity
  8
Calm 810
  6
Continuous
 62
    18
420
        0
 48
0.9999999962747097
370
    25
100
AcDbLine
 10
37330.37085795851
 20
-17046.92927872755
 30
0.0
 11
37330.37085795851
 21
-17048.51517055453
 31
0.0
  0
LINE
  5
BE
330
1F
100
AcDbEntity
  8
Calm 810
  6
Continuous
 62
    18
420
        0
 48
0.9999999962747097
370
    25
100
AcDbLine
 10
37330.86082040147
 20
-17049.2228278139
 30
0.0
 11
37330.66310579424
 21
-17049.81756210002
 31
0.0
  0
LINE
  5
BF
330
1F
100
AcDbEntity
  8
Calm 810
  6
Continuous
 62
    18
420
        0
 48
0.9999999962747097
370
    25
100
AcDbLine
 10
37330.66310579424
 20
-17049.81756210002
 30
0.0
 11
37319.33223970593
 21
-17048.42222779043
 31
0.0
  0
LINE
  5
C0
330
1F
100
AcDbEntity
  8
Calm 810
  6
Continuous
 62
    18
420
        0
 48
0.9999999962747097
370
    25
100
AcDbLine
 10
37318.00927152709
 20
-17046.93554118118
 30
0.0
 11
37317.81165632389
 21
-17023.05501624472
 31
0.0
  0
LINE
  5
C1
330
1F
100
AcDbEntity
  8
Calm 810
  6
Continuous
 62
    18
420
        0
 48
0.9999999962747097
370
    25
100
AcDbLine
 10
37474.82051381958
 20
-16747.14125002367
 30
0.0
 11
37474.82051381958
 21
-16792.16699931977
 31
0.0
  0
LINE
  5
C2
330
1F
100
AcDbEntity
  8
Calm 810
  6
Continuous
 62
    18
420
        0
 48
0.9999999962747097
370
    25
100
AcDbLine
 10
37474.82051381958
 20
-16731.25976704009
 30
0.0
 11
37474.82051381958
 21
-16747.14125002367
 31
0.0
  0
LINE
  5
C3
330
1F
100
AcDbEntity
  8
Calm 810
  6
Continuous
 62
    18
420
        0
 48
0.9999999962747097
370
    25
100
AcDbLine
 10
37463.83954990194
 20
-16745.43875727448
 30
0.0
 11
37455.43672879641
 21
-16737.01366966718
 31
0.0
  0
LINE
  5
C4
330
1F
100
AcDbEntity
  8
Calm 810
  6
Continuous
 62
    18
420
        0
 48
0.9999999962747097
370
    25
100
AcDbLine
 10
37474.82051381958
 20
-16731.25976704009
 30
0.0
 11
37469.26909719298
 21
-16729.45121019543
 31
0.0
  0
LINE
  5
C5
330
1F
100
AcDbEntity
  8
Calm 810
  6
Continuous
 62
    18
420
        0
 48
0.9999999962747097
370
    25
100
AcDbLine
 10
37474.82051381958
 20
-16808.04838289931
 30
0.0
 11
37471.96930814871
 21
-16808.97731352003
 31
0.0
  0
LINE
  5
C6
330
1F
100
AcDbEntity
  8
Calm 810
  6
Continuous
 62
    18
420
        0
 48
0.9999999962747097
370
    25
100
AcDbLine
 10
37454.79547342623
 20
-16736.08334739009
 30
0.0
 11
37454.79547342623
 21
-16803.8549246686
 31
0.0
  0
LINE
  5
C7
330
1F
100
AcDbEntity
  8
Calm 810
  6
Continuous
 62
    18
420
        0
 48
0.9999999962747097
370
    25
100
AcDbLine
 10
37464.64730701526
 20
-16746.02434639023
 30
0.0
 11
37464.64730701526
 21
-16793.2839029532
 31
0.0
  0
LINE
  5
C8
330
1F
100
AcDbEntity
  8
Calm 810
  6
Continuous
 62
    18
420
        0
 48
0.9999999962747097
370
    25
100
AcDbLine
 10
37464.64730701526
 20
-16746.24870127637
 30
0.0
 11
37464.64730701526
 21
-16760.03226229628
 31
0.0
  0
LINE
  5
C9
330
1F
100
AcDbEntity
  8
Calm 810
  6
Continuous
 62
    18
420
        0
 48
0.9999999962747097
370
    25
100
AcDbLine
 10
37474.82051381958
 20
-16747.14125002367
 30
0.0
 11
37465.78528430217
 21
-16746.34860232226
 31
0.0
  0
LINE
  5
CA
330
1F
100
AcDbEntity
  8
Calm 810
  6
Continuous
 62
    18
420
        0
 48
0.9999999962747097
370
    25
100
AcDbLine
 10
37463.83954990194
 20
-16793.86939266493
 30
0.0
 11
37455.68752515341
 21
-16802.04308749108
 31
0.0
  0
LINE
  5
CB
330
1F
100
AcDbEntity
  8
Calm 810
  6
Continuous
 62
    18
420
        0
 48
0.9999999962747097
370
    25
100
AcDbLine
 10
37474.82051381958
 20
-16792.16699931977
 30
0.0
 11
37474.82051381958
 21
-16808.04838289931
 31
0.0
  0
LINE
  5
CC
330
1F
100
AcDbEntity
  8
Calm 810
  6
Continuous
 62
    18
420
        0
 48
0.9999999962747097
370
    25
100
AcDbLine
 10
37339.93720318555
 20
-17023.19517592104
 30
0.0
 11
37342.19188529784
 21
-17039.2386874666
 31
0.0
  0
LINE
  5
CD
330
1F
100
AcDbEntity
  8
Calm 810
  6
Continuous
 62
    18
420
        0
 48
0.9999999962747097
370
    25
100
AcDbLine
 10
37341.3593765821
 20
-17019.70768508128
 30
0.0
 11
37341.81246013151
 21
-17022.93165584874
 31
0.0
  0
LINE
  5
CE
330
1F
100
AcDbEntity
  8
Calm 810
  6
Continuous
 62
    18
420
        0
 48
0.9999999962747097
370
    25
100
AcDbLine
 10
37362.43978951694
 20
-17020.03253743746
 30
0.0
 11
37339.93720318555
 21
-17023.19517592104
 31
0.0
  0
LINE
  5
CF
330
1F
100
AcDbEntity
  8
Calm 810
  6
Continuous
 62
    18
420
        0
 48
0.9999999962747097
370
    25
100
AcDbLine
 10
37362.43978951694
 20
-17020.03253743746
 30
0.0
 11
37363.12309279002
 21
-17024.89438833737
 31
0.0
  0
LINE
  5
D0
330
1F
100
AcDbEntity
  8
Calm 810
  6
Continuous
 62
    18
420
        0
 48
0.9999999962747097
370
    25
100
AcDbLine
 10
37359.8148274087
 20
-17014.96104344722
 30
0.0
 11
37360.564631975
 21
-17020.29605750975
 31
0.0
  0
LINE
  5
D1
330
1F
100
AcDbEntity
  8
Calm 810
  6
Continuous
 62
    18
420
        0
 48
0.9999999962747097
370
    25
100
AcDbLine
 10
37317.81165610436
 20
-16693.0836938601
 30
0.0
 11
37317.81165610436
 21
-16693.08365066729
 31
0.0
  0
LINE
  5
D2
330
1F
100
AcDbEntity
  8
Calm 810
  6
Continuous
 62
    18
420
        0
 48
0.9999999962747097
370
    25
100
AcDbLine
 10
37363.12274984654
 20
-17024.8919482202
 30
0.0
 11
37362.43978951694
 21
-17020.03253743746
 31
0.0
  0
LINE
  5
D3
330
1F
100
AcDbEntity
  8
Calm 810
  6
Continuous
 62
    18
420
        0
 48
0.9999999962747097
370
    25
100
AcDbLine
 10
37362.43978951694
 20
-17020.03253743746
 30
0.0
 11
37360.56463541849
 21
-17020.29608201083
 31
0.0
  0
LINE
  5
D4
330
1F
100
AcDbEntity
  8
Calm 810
  6
Continuous
 62
    18
420
        0
 48
0.9999999962747097
370
    25
100
AcDbLine
 10
37360.56463541849
 20
-17020.29608201083
 30
0.0
 11
37359.81483239349
 21
-17014.96107891511
 31
0.0
  0
LINE
  5
D5
330
1F
100
AcDbEntity
  8
Calm 810
  6
Continuous
 62
    18
420
        0
 48
0.9999999962747097
370
    25
100
AcDbLine
 10
37465.7835376696
 20
-16792.95989967398
 30
0.0
 11
37474.82051381958
 21
-16792.16699931977
 31
0.0
  0
LINE
  5
D6
330
1F
100
AcDbEntity
  8
Calm 810
  6
Continuous
 62
    18
420
        0
 48
0.9999999962747097
370
    25
100
AcDbLine
 10
37474.82051381958
 20
-16792.16699931977
 30
0.0
 11
37474.82051381958
 21
-16808.04838289931
 31
0.0
  0
LINE
  5
D7
330
1F
100
AcDbEntity
  8
Calm 810
  6
Continuous
 62
    18
420
        0
 48
0.9999999962747097
370
    25
100
AcDbLine
 10
37474.82051381958
 20
-16808.04838289931
 30
0.0
 11
37471.96923977381
 21
-16808.97733579676
 31
0.0
  0
LINE
  5
D8
330
1F
100
AcDbEntity
  8
Calm 810
  6
Continuous
 62
    18
420
        0
 48
0.9999999962747097
370
    25
100
AcDbLine
 10
37330.3665835854
 20
-16667.60977888167
 30
0.0
 11
37330.36784971246
 21
-16667.58190217742
 31
0.0
  0
LINE
  5
D9
330
1F
100
AcDbEntity
  8
Calm 810
  6
Continuous
 62
    18
420
        0
 48
0.9999999962747097
370
    25
100
AcDbLine
 10
37330.36784971246
 20
-16667.58190217742
 30
0.0
 11
37330.37151297195
 21
-16667.55403278154
 31
0.0
  0
LINE
  5
DA
330
1F
100
AcDbEntity
  8
Calm 810
  6
Continuous
 62
    18
420
        0
 48
0.9999999962747097
370
    25
100
AcDbLine
 10
37330.37151297195
 20
-16667.55403278154
 30
0.0
 11
37330.3773706813
 21
-16667.52616957313
 31
0.0
  0
LINE
  5
DB
330
1F
100
AcDbEntity
  8
Calm 810
  6
Continuous
 62
    18
420
        0
 48
0.9999999962747097
370
    25
100
AcDbLine
 10
37330.3773706813
 20
-16667.52616957313
 30
0.0
 11
37330.38522015796
 21
-16667.49831143127
 31
0.0
  0
LINE
  5
DC
330
1F
100
AcDbEntity
  8
Calm 810
  6
Continuous
 62
    18
420
        0
 48
0.9999999962747097
370
    25
100
AcDbLine
 10
37330.38522015796
 20
-16667.49831143127
 30
0.0
 11
37330.3948587194
 21
-16667.47045723507
 31
0.0
  0
LINE
  5
DD
330
1F
100
AcDbEntity
  8
Calm 810
  6
Continuous
 62
    18
420
        0
 48
0.9999999962747097
370
    25
100
AcDbLine
 10
37330.3948587194
 20
-16667.47045723507
 30
0.0
 11
37330.40608368303
 21
-16667.44260586363
 31
0.0
  0
LINE
  5
DE
330
1F
100
AcDbEntity
  8
Calm 810
  6
Continuous
 62
    18
420
        0
 48
0.9999999962747097
370
    25
100
AcDbLine
 10
37330.40608368303
 20
-16667.44260586363
 30
0.0
 11
37330.43248208676
 21
-16667.38690711141
 31
0.0
  0
LINE
  5
DF
330
1F
100
AcDbEntity
  8
Calm 810
  6
Continuous
 62
    18
420
        0
 48
0.9999999962747097
370
    25
100
AcDbLine
 10
37330.43248208676
 20
-16667.38690711141
 30
0.0
 11
37330.4627939087
 21
-16667.3312062074
 31
0.0
  0
LINE
  5
E0
330
1F
100
AcDbEntity
  8
Calm 810
  6
Continuous
 62
    18
420
        0
 48
0.9999999962747097
370
    25
100
AcDbLine
 10
37330.4627939087
 20
-16667.3312062074
 30
0.0
 11
37330.49544476202
 21
-16667.27554218716
 31
0.0
  0
LINE
  5
E1
330
1F
100
AcDbEntity
  8
Calm 810
  6
Continuous
 62
    18
420
        0
 48
0.9999999962747097
370
    25
100
AcDbLine
 10
37330.49544476202
 20
-16667.27554218716
 30
0.0
 11
37330.52941544271
 21
-16667.22052022838
 31
0.0
  0
LINE
  5
E2
330
1F
100
AcDbEntity
  8
Calm 810
  6
Continuous
 62
    18
420
        0
 48
0.9999999962747097
370
    25
100
AcDbLine
 10
37330.52941544271
 20
-16667.22052022838
 30
0.0
 11
37330.5640487421
 21
-16667.16711464976
 31
0.0
  0
LINE
  5
E3
330
1F
100
AcDbEntity
  8
Calm 810
  6
Continuous
 62
    18
420
        0
 48
0.9999999962747097
370
    25
100
AcDbLine
 10
37330.5640487421
 20
-16667.16711464976
 30
0.0
 11
37330.59869365842
 21
-16667.11630609941
 31
0.0
  0
LINE
  5
E4
330
1F
100
AcDbEntity
  8
Calm 810
  6
Continuous
 62
    18
420
        0
 48
0.9999999962747097
370
    25
100
AcDbLine
 10
37330.59869365842
 20
-16667.11630609941
 30
0.0
 11
37330.63269918985
 21
-16667.06907522548
 31
0.0
  0
LINE
  5
E5
330
1F
100
AcDbEntity
  8
Calm 810
  6
Continuous
 62
    18
420
        0
 48
0.9999999962747097
370
    25
100
AcDbLine
 10
37330.63269918985
 20
-16667.06907522548
 30
0.0
 11
37330.66543027174
 21
-16667.02640271945
 31
0.0
  0
LINE
  5
E6
330
1F
100
AcDbEntity
  8
Calm 810
  6
Continuous
 62
    18
420
        0
 48
0.9999999962747097
370
    25
100
AcDbLine
 10
37330.66543027174
 20
-16667.02640271945
 30
0.0
 11
37330.68135449518
 21
-16667.00708296016
 31
0.0
  0
LINE
  5
E7
330
1F
100
AcDbEntity
  8
Calm 810
  6
Continuous
 62
    18
420
        0
 48
0.9999999962747097
370
    25
100
AcDbLine
 10
37330.68135449518
 20
-16667.00708296016
 30
0.0
 11
37330.69731581722
 21
-16666.98927216826
 31
0.0
  0
LINE
  5
E8
330
1F
100
AcDbEntity
  8
Calm 810
  6
Continuous
 62
    18
420
        0
 48
0.9999999962747097
370
    25
100
AcDbLine
 10
37330.69731581722
 20
-16666.98927216826
 30
0.0
 11
37330.71360155832
 21
-16666.9730939281
 31
0.0
  0
LINE
  5
E9
330
1F
100
AcDbEntity
  8
Calm 810
  6
Continuous
 62
    18
420
        0
 48
0.9999999962747097
370
    25
100
AcDbLine
 10
37330.71360155832
 20
-16666.9730939281
 30
0.0
 11
37330.730499039
 21
-16666.95867182403
 31
0.0
  0
LINE
  5
EA
330
1F
100
AcDbEntity
  8
Calm 810
  6
Continuous
 62
    18
420
        0
 48
0.9999999962747097
370
    25
100
AcDbLine
 10
37330.730499039
 20
-16666.95867182403
 30
0.0
 11
37330.74829557975
 21
-16666.94612944043
 31
0.0
  0
LINE
  5
EB
330
1F
100
AcDbEntity
  8
Calm 810
  6
Continuous
 62
    18
420
        0
 48
0.9999999962747097
370
    25
100
AcDbLine
 10
37330.74829557975
 20
-16666.94612944043
 30
0.0
 11
37330.76727850103
 21
-16666.93559036163
 31
0.0
  0
LINE
  5
EC
330
1F
100
AcDbEntity
  8
Calm 810
  6
Continuous
 62
    18
420
        0
 48
0.9999999962747097
370
    25
100
AcDbLine
 10
37330.76727850103
 20
-16666.93559036163
 30
0.0
 11
37330.78773512336
 21
-16666.92717817203
 31
0.0
  0
LINE
  5
ED
330
1F
100
AcDbEntity
  8
Calm 810
  6
Continuous
 62
    18
420
        0
 48
0.9999999962747097
370
    25
100
AcDbLine
 10
37330.78773512336
 20
-16666.92717817203
 30
0.0
 11
37330.80995276722
 21
-16666.92101645596
 31
0.0
  0
LINE
  5
EE
330
1F
100
AcDbEntity
  8
Calm 810
  6
Continuous
 62
    18
420
        0
 48
0.9999999962747097
370
    25
100
AcDbLine
 10
37330.80995276722
 20
-16666.92101645596
 30
0.0
 11
37330.83421875309
 21
-16666.91722879777
 31
0.0
  0
LINE
  5
EF
330
1F
100
AcDbEntity
  8
Calm 810
  6
Continuous
 62
    18
420
        0
 48
0.9999999962747097
370
    25
100
AcDbLine
 10
37330.83421875309
 20
-16666.91722879777
 30
0.0
 11
37330.86082040147
 21
-16666.91593878186
 31
0.0
  0
CIRCLE
  5
F0
330
1F
100
AcDbEntity
  8
Calm 810
  6
Continuous
 62
    18
420
        0
 48
250.0000019073486
370
    25
100
AcDbCircle
 10
36884.32356561261
 20
-16759.08455603372
 30
0.0
 40
29.99971923828125
  0
CIRCLE
  5
F1
330
1F
100
AcDbEntity
  8
Calm 810
  6
Continuous
 62
    18
420
        0
 48
250.0000019073486
370
    25
100
AcDbCircle
 10
36884.32356561261
 20
-16759.08455603372
 30
0.0
 40
20.00032958984375
  0
TEXT
  5
F3
330
1F
100
AcDbEntity
  8
Calm 810
  6
Continuous
 62
    18
420
        0
 48
50.00000038146973
370
    25
100
AcDbText
 10
36869.71736178982
 20
-17018.40267274299
 30
0.0
 40
32.0
  1
ü
 41
0.8125
  7
CENTURY GOTHIC
100
AcDbText
  0
INSERT
  5
F7
330
1F
100
AcDbEntity
  8
Calm 810
  6
Continuous
 62
    18
420
        0
 48
50.00000038146973
370
    25
100
AcDbBlockReference
  2
Dimension14
 10
0.0
 20
0.0
 30
0.0
  0
INSERT
  5
FB
330
1F
100
AcDbEntity
  8
Calm 810
  6
Continuous
 62
    18
420
        0
 48
50.00000038146973
370
    25
100
AcDbBlockReference
  2
Dimension15
 10
0.0
 20
0.0
 30
0.0
  0
INSERT
  5
FF
330
1F
100
AcDbEntity
  8
Calm 810
  6
Continuous
 62
    18
420
        0
 48
50.00000038146973
370
    25
100
AcDbBlockReference
  2
Dimension16
 10
0.0
 20
0.0
 30
0.0
  0
INSERT
  5
103
330
1F
100
AcDbEntity
  8
Calm 810
  6
Continuous
 62
    18
420
        0
 48
50.00000038146973
370
    25
100
AcDbBlockReference
  2
Dimension17
 10
0.0
 20
0.0
 30
0.0
  0
INSERT
  5
107
330
1F
100
AcDbEntity
  8
Calm 810
  6
Continuous
 62
    18
420
        0
 48
50.00000038146973
370
    25
100
AcDbBlockReference
  2
Dimension18
 10
0.0
 20
0.0
 30
0.0
  0
INSERT
  5
10B
330
1F
100
AcDbEntity
  8
Calm 810
  6
Continuous
 62
    18
420
        0
 48
50.00000038146973
370
    25
100
AcDbBlockReference
  2
Dimension19
 10
0.0
 20
0.0
 30
0.0
  0
DIMENSION
  5
10D
330
1F
100
AcDbEntity
  8
Calm 810
  6
Continuous
 62
    18
420
        0
 48
50.00000038146973
370
    25
100
AcDbDimension
  2
*D20
 10
37092.81479961798
 20
-17109.08386156808
 30
0.0
 11
36884.36542365194
 21
-17068.6638574792
 31
0.0
 70
    32
 71
     5
 42
416.8987519320654
  3
ISO-25
100
AcDbAlignedDimension
 13
36675.91604768591
 23
-16859.57059881936
 33
0.0
 14
37092.81479961798
 24
-16859.57059881936
 34
0.0
100
AcDbRotatedDimension
1001
ACAD
1000
DSTYLE
1002
{
1070
   271
1070
     3
1070
   177
1070
    18
1070
   176
1070
    18
1070
   140
1040
40.0
1070
    76
1070
     0
1070
    75
1070
     0
1070
   282
1070
     0
1070
   281
1070
     0
1070
   174
1070
     1
1070
    42
1040
0.0
1070
    49
1040
19.9999995470047
1070
   290
1070
     1
1070
    44
1040
19.9999995470047
1070
    46
1040
0.0
1070
    41
1040
15.00000059604645
1070
   173
1070
     1
1070
   342
1005
0
1070
   344
1005
11B
1070
   343
1005
11B
1070
   147
1040
20.00000408887863
1070
    70
1070
    18
1070
    69
1070
     0
1070
   340
1005
10C
1070
   278
1070
    46
1002
}
1001
ACAD_DSTYLE_DIMEXT_ENABLED
1070
   383
1070
     1
1001
ACAD_DSTYLE_DIMEXT_LENGTH
1070
   378
1040
19.9999995470047
  0
DIMENSION
  5
122
330
1F
100
AcDbEntity
  8
Calm 810
  6
Continuous
 62
    18
420
        0
 48
50.00000038146973
370
    25
100
AcDbDimension
  2
*D22
 10
37117.8113819791
 20
-17163.08386156808
 30
0.0
 11
36884.36542353085
 21
-17131.0838574792
 31
0.0
 70
    32
 71
     5
 42
466.8919168965004
  3
ISO-25
100
AcDbAlignedDimension
 13
36650.9194650826
 23
-16857.81581928782
 33
0.0
 14
37117.8113819791
 24
-16857.81582321657
 34
0.0
100
AcDbRotatedDimension
1001
ACAD
1000
DSTYLE
1002
{
1070
    69
1070
     0
1070
   271
1070
     3
1070
   177
1070
    18
1070
   176
1070
    18
1070
   140
1040
24.0
1070
    76
1070
     0
1070
    75
1070
     0
1070
   282
1070
     0
1070
   281
1070
     0
1070
   174
1070
     1
1070
    42
1040
0.0
1070
    49
1040
19.9999995470047
1070
   290
1070
     1
1070
    44
1040
19.9999995470047
1070
    46
1040
0.0
1070
    41
1040
9.000000357627869
1070
   173
1070
     1
1070
   342
1005
0
1070
   344
1005
11B
1070
   343
1005
11B
1070
   147
1040
20.00000408887863
1070
   178
1070
    18
1070
   340
1005
121
1070
   278
1070
    46
1002
}
1001
ACAD_DSTYLE_DIMEXT_ENABLED
1070
   383
1070
     1
1001
ACAD_DSTYLE_DIMEXT_LENGTH
1070
   378
1040
19.9999995470047
  0
DIMENSION
  5
12F
330
1F
100
AcDbEntity
  8
Calm 810
  6
Continuous
 62
    18
420
        0
 48
50.00000038146973
370
    25
100
AcDbDimension
  2
*D23
 10
36591.9194650826
 20
-16693.08369393733
 30
0.0
 11
36551.49946099372
 21
-16859.08377765734
 31
0.0
 70
    32
 71
     5
 42
332.0001674400119
  3
ISO-25
100
AcDbAlignedDimension
 13
36884.10962518293
 23
-17025.08386137734
 33
0.0
 14
36884.40574216493
 24
-16693.08369393733
 34
0.0
 50
90.0
100
AcDbRotatedDimension
1001
ACAD
1000
DSTYLE
1002
{
1070
   271
1070
     3
1070
   177
1070
    18
1070
   176
1070
    18
1070
   140
1040
40.0
1070
    76
1070
     0
1070
    75
1070
     0
1070
   282
1070
     0
1070
   281
1070
     0
1070
   174
1070
     1
1070
    42
1040
0.0
1070
    49
1040
19.9999995470047
1070
   290
1070
     1
1070
    44
1040
19.9999995470047
1070
    46
1040
0.0
1070
    41
1040
15.00000059604645
1070
   173
1070
     1
1070
   342
1005
0
1070
   344
1005
11B
1070
   343
1005
11B
1070
   147
1040
20.00000408887863
1070
    70
1070
    18
1070
    69
1070
     0
1070
   340
1005
10C
1070
   278
1070
    46
1002
}
1001
ACAD_DSTYLE_DIMEXT_ENABLED
1070
   383
1070
     1
1001
ACAD_DSTYLE_DIMEXT_LENGTH
1070
   378
1040
19.9999995470047
  0
DIMENSION
  5
13C
330
1F
100
AcDbEntity
  8
Calm 810
  6
Continuous
 62
    18
420
        0
 48
50.00000038146973
370
    25
100
AcDbDimension
  2
*D24
 10
36537.9194650826
 20
-17050.08386156808
 30
0.0
 11
36505.91946099373
 21
-16859.08377777359
 31
0.0
 70
    32
 71
     5
 42
382.0001675889689
  3
ISO-25
100
AcDbAlignedDimension
 13
36884.32169467917
 23
-16668.08369397911
 33
0.0
 14
36884.10962518293
 24
-17050.08386156808
 34
0.0
 50
-90.0
100
AcDbRotatedDimension
1001
ACAD
1000
DSTYLE
1002
{
1070
    69
1070
     0
1070
   271
1070
     3
1070
   177
1070
    18
1070
   176
1070
    18
1070
   140
1040
24.0
1070
    76
1070
     0
1070
    75
1070
     0
1070
   282
1070
     0
1070
   281
1070
     0
1070
   174
1070
     1
1070
    42
1040
0.0
1070
    49
1040
19.9999995470047
1070
   290
1070
     1
1070
    44
1040
19.9999995470047
1070
    46
1040
0.0
1070
    41
1040
9.000000357627869
1070
   173
1070
     1
1070
   342
1005
0
1070
   344
1005
11B
1070
   343
1005
11B
1070
   147
1040
20.00000408887863
1070
   178
1070
    18
1070
   340
1005
121
1070
   278
1070
    46
1002
}
1001
ACAD_DSTYLE_DIMEXT_ENABLED
1070
   383
1070
     1
1001
ACAD_DSTYLE_DIMEXT_LENGTH
1070
   378
1040
19.9999995470047
  0
DIMENSION
  5
149
330
1F
100
AcDbEntity
  8
Calm 810
  6
Continuous
 62
    18
420
        0
 48
50.00000038146973
370
    25
100
AcDbDimension
  2
*D25
 10
37454.79547342623
 20
-16609.0836939791
 30
0.0
 11
37386.30356487506
 21
-16568.66368989023
 31
0.0
 70
    32
 71
     5
 42
136.9838171023439
  3
ISO-25
100
AcDbAlignedDimension
 13
37317.81165632389
 23
-16693.08365094704
 33
0.0
 14
37454.79547342623
 24
-16769.96913602934
 34
0.0
100
AcDbRotatedDimension
1001
ACAD
1000
DSTYLE
1002
{
1070
   271
1070
     3
1070
   177
1070
    18
1070
   176
1070
    18
1070
   140
1040
40.0
1070
    76
1070
     0
1070
    75
1070
     0
1070
   282
1070
     0
1070
   281
1070
     0
1070
   174
1070
     1
1070
    42
1040
0.0
1070
    49
1040
19.9999995470047
1070
   290
1070
     1
1070
    44
1040
19.9999995470047
1070
    46
1040
0.0
1070
    41
1040
15.00000059604645
1070
   173
1070
     1
1070
   342
1005
0
1070
   344
1005
11B
1070
   343
1005
11B
1070
   147
1040
20.00000408887863
1070
    70
1070
    18
1070
    69
1070
     0
1070
   340
1005
10C
1070
   278
1070
    46
1002
}
1001
ACAD_DSTYLE_DIMEXT_ENABLED
1070
   383
1070
     1
1001
ACAD_DSTYLE_DIMEXT_LENGTH
1070
   378
1040
19.9999995470047
  0
DIMENSION
  5
158
330
1F
100
AcDbEntity
  8
Calm 810
  6
Continuous
 62
    18
420
        0
 48
50.00000038146973
370
    25
100
AcDbDimension
  2
*D26
 10
37176.8113819791
 20
-16693.15050988309
 30
0.0
 11
37144.81137789022
 21
-16726.11714538516
 31
0.0
 70
    32
 71
     5
 42
65.93327100414899
  3
ISO-25
100
AcDbAlignedDimension
 13
36889.3248107298
 23
-16759.08378088723
 33
0.0
 14
36890.71306231483
 24
-16693.15050988309
 34
0.0
 50
90.0
100
AcDbRotatedDimension
1001
ACAD
1000
DSTYLE
1002
{
1070
    69
1070
     0
1070
   271
1070
     3
1070
   177
1070
    18
1070
   176
1070
    18
1070
   140
1040
24.0
1070
    76
1070
     0
1070
    75
1070
     0
1070
   282
1070
     0
1070
   281
1070
     0
1070
   174
1070
     1
1070
    42
1040
0.0
1070
    49
1040
19.9999995470047
1070
   290
1070
     1
1070
    44
1040
19.9999995470047
1070
    46
1040
0.0
1070
    41
1040
9.000000357627869
1070
   173
1070
     1
1070
   342
1005
0
1070
   344
1005
11B
1070
   343
1005
11B
1070
   147
1040
20.00000408887863
1070
   178
1070
    18
1070
   340
1005
121
1070
   278
1070
    46
1002
}
1001
ACAD_DSTYLE_DIMEXT_ENABLED
1070
   383
1070
     1
1001
ACAD_DSTYLE_DIMEXT_LENGTH
1070
   378
1040
19.9999995470047
  0
INSERT
  5
16A
330
1F
100
AcDbEntity
  8
Calm 810
  6
Continuous
 62
    18
420
        0
 48
50.00000038146973
370
    25
100
AcDbBlockReference
  2
Dimension20
 10
0.0
 20
0.0
 30
0.0
  0
INSERT
  5
16E
330
1F
100
AcDbEntity
  8
Calm 810
  6
Continuous
 62
    18
420
        0
 48
50.00000038146973
370
    25
100
AcDbBlockReference
  2
Dimension21
 10
0.0
 20
0.0
 30
0.0
  0
INSERT
  5
172
330
1F
100
AcDbEntity
  8
Calm 810
  6
Continuous
 62
    18
420
        0
 48
50.00000038146973
370
    25
100
AcDbBlockReference
  2
Dimension22
 10
0.0
 20
0.0
 30
0.0
  0
ELLIPSE
  5
173
330
1F
100
AcDbEntity
  8
Calm 810
  6
Continuous
 62
    18
420
        0
 48
0.9999999962747097
370
    25
100
AcDbEllipse
 10
37117.30605540038
 20
-17251.79815765497
 30
0.0
 11
1.518780122390479
 21
0.0
 31
0.0
210
0.0
220
0.0
230
1.0
 40
0.9978346987038129
 41
0.1221952036248297
 42
1.562463203799882
  0
ELLIPSE
  5
174
330
1F
100
AcDbEntity
  8
Calm 810
  6
Continuous
 62
    18
420
        0
 48
0.9999999962747097
370
    25
100
AcDbEllipse
 10
36651.34797184934
 20
-17251.79815765497
 30
0.0
 11
-1.518780122390483
 21
-1.859907787938514E-16
 31
0.0
210
0.0
220
0.0
230
1.0
 40
0.9978346987038127
 41
4.720722151861072
 42
6.160990152036125
  0
ELLIPSE
  5
175
330
1F
100
AcDbEntity
  8
Calm 810
  6
Continuous
 62
    18
420
        0
 48
0.9999999962747097
370
    25
100
AcDbEllipse
 10
36888.27777476195
 20
-17242.35338915676
 30
0.0
 11
214.7561028699769
 21
0.0
 31
0.0
210
0.0
220
0.0
230
1.0
 40
0.9978346987038127
 41
6.109582303101889
 42
6.155680860451557
  0
ELLIPSE
  5
176
330
1F
100
AcDbEntity
  8
Calm 810
  6
Continuous
 62
    18
420
        0
 48
0.9999999962747097
370
    25
100
AcDbEllipse
 10
36972.29627986988
 20
-17257.53550596739
 30
0.0
 11
129.3732304416171
 21
0.0
 31
0.0
210
0.0
220
0.0
230
1.0
 40
0.9978346987038131
 41
5.979772324913345
 42
6.113243422096156
  0
ELLIPSE
  5
177
330
1F
100
AcDbEntity
  8
Calm 810
  6
Continuous
 62
    18
420
        0
 48
0.9999999962747097
370
    25
100
AcDbEllipse
 10
36998.2695251925
 20
-17265.48827486761
 30
0.0
 11
102.2052223886429
 21
0.0
 31
0.0
210
0.0
220
0.0
230
1.0
 40
0.9978346987038127
 41
5.64299844058533
 42
5.978262760554474
  0
ELLIPSE
  5
178
330
1F
100
AcDbEntity
  8
Calm 810
  6
Continuous
 62
    18
420
        0
 48
0.9999999962747097
370
    25
100
AcDbEllipse
 10
36946.60708642237
 20
-17248.30397808972
 30
0.0
 11
146.215103452491
 21
0.0
 31
0.0
210
0.0
220
0.0
230
1.0
 40
0.9978346987038128
 41
5.99546574377086
 42
6.271035164246748
  0
ELLIPSE
  5
179
330
1F
100
AcDbEntity
  8
Calm 810
  6
Continuous
 62
    18
420
        0
 48
0.9999999962747097
370
    25
100
AcDbEllipse
 10
36998.27525107819
 20
-17262.24486916766
 30
0.0
 11
92.71492628619799
 21
0.0
 31
0.0
210
0.0
220
0.0
230
1.0
 40
0.9978346987038126
 41
5.674910816330684
 42
5.98182303830307
  0
ELLIPSE
  5
17A
330
1F
100
AcDbEntity
  8
Calm 810
  6
Continuous
 62
    18
420
        0
 48
0.9999999962747097
370
    25
100
AcDbEllipse
 10
36977.39271818748
 20
-17249.66104762135
 30
0.0
 11
128.4231700625691
 21
0.0
 31
0.0
210
0.0
220
0.0
230
1.0
 40
0.9978346987038127
 41
5.372531553795304
 42
5.641051234916521
  0
ELLIPSE
  5
17B
330
1F
100
AcDbEntity
  8
Calm 810
  6
Continuous
 62
    18
420
        0
 48
0.9999999962747097
370
    25
100
AcDbEllipse
 10
36977.40743627323
 20
-17246.93173072334
 30
0.0
 11
118.6113942949409
 21
0.0
 31
0.0
210
0.0
220
0.0
230
1.0
 40
0.9978346987038128
 41
5.384443474421534
 42
5.669272093849803
  0
ELLIPSE
  5
17C
330
1F
100
AcDbEntity
  8
Calm 810
  6
Continuous
 62
    18
420
        0
 48
0.9999999962747097
370
    25
100
AcDbEllipse
 10
36951.03412634251
 20
-17213.53053462039
 30
0.0
 11
173.1941592777671
 21
0.0
 31
0.0
210
0.0
220
0.0
230
1.0
 40
0.9978346987038129
 41
5.103690247278038
 42
5.364542793957981
  0
ELLIPSE
  5
17D
330
1F
100
AcDbEntity
  8
Calm 810
  6
Continuous
 62
    18
420
        0
 48
0.9999999962747097
370
    25
100
AcDbEllipse
 10
36955.90288728908
 20
-17218.38463965578
 30
0.0
 11
154.3909897309482
 21
0.0
 31
0.0
210
0.0
220
0.0
230
1.0
 40
0.9978346987038128
 41
5.11924593056875
 42
5.378072683282177
  0
ELLIPSE
  5
17E
330
1F
100
AcDbEntity
  8
Calm 810
  6
Continuous
 62
    18
420
        0
 48
0.9999999962747097
370
    25
100
AcDbEllipse
 10
36856.08713242795
 20
-17001.70560069238
 30
0.0
 11
405.7020090478051
 21
0.0
 31
0.0
210
0.0
220
0.0
230
1.0
 40
0.9978346987038128
 41
5.019974269190559
 42
5.120468630672509
  0
ELLIPSE
  5
17F
330
1F
100
AcDbEntity
  8
Calm 810
  6
Continuous
 62
    18
420
        0
 48
0.9999999962747097
370
    25
100
AcDbEllipse
 10
36850.79948914179
 20
-16984.93528459634
 30
0.0
 11
410.8598341241324
 21
0.0
 31
0.0
210
0.0
220
0.0
230
1.0
 40
0.9978346987038129
 41
5.010823459440985
 42
5.128839472171915
  0
ELLIPSE
  5
180
330
1F
100
AcDbEntity
  8
Calm 810
  6
Continuous
 62
    18
420
        0
 48
0.9999999962747097
370
    25
100
AcDbEllipse
 10
36888.88277911535
 20
-17115.29702159455
 30
0.0
 11
287.2955738251178
 21
0.0
 31
0.0
210
0.0
220
0.0
230
1.0
 40
0.9978346987038124
 41
4.861600765758926
 42
5.031143794626907
  0
ELLIPSE
  5
181
330
1F
100
AcDbEntity
  8
Calm 810
  6
Continuous
 62
    18
420
        0
 48
0.9999999962747097
370
    25
100
AcDbEllipse
 10
36891.92331143202
 20
-17123.35928696301
 30
0.0
 11
266.1800786030292
 21
0.0
 31
0.0
210
0.0
220
0.0
230
1.0
 40
0.9978346987038125
 41
4.81737305592329
 42
5.016392223307681
  0
ELLIPSE
  5
182
330
1F
100
AcDbEntity
  8
Calm 810
  6
Continuous
 62
    18
420
        0
 48
0.9999999962747097
370
    25
100
AcDbEllipse
 10
36822.04694082736
 20
-17248.30397808972
 30
0.0
 11
-146.215103452491
 21
-1.790559447127167E-14
 31
0.0
210
0.0
220
0.0
230
1.0
 40
0.9978346987038127
 41
0.0121997661749171
 42
0.2877195634087259
  0
ELLIPSE
  5
183
330
1F
100
AcDbEntity
  8
Calm 810
  6
Continuous
 62
    18
420
        0
 48
0.9999999962747097
370
    25
100
AcDbEllipse
 10
36770.37877617154
 20
-17262.24486916766
 30
0.0
 11
-92.71492628619802
 21
-1.135392878242514E-14
 31
0.0
210
0.0
220
0.0
230
1.0
 40
0.9978346987038128
 41
0.3013622688765163
 42
0.6082744908489022
  0
ELLIPSE
  5
184
330
1F
100
AcDbEntity
  8
Calm 810
  6
Continuous
 62
    18
420
        0
 48
0.9999999962747097
370
    25
100
AcDbEllipse
 10
36791.2465909765
 20
-17246.93173072334
 30
0.0
 11
-118.6113942949409
 21
-1.452522670893159E-14
 31
0.0
210
0.0
220
0.0
230
1.0
 40
0.9978346987038128
 41
0.6139132133297829
 42
0.8987418327580526
  0
ELLIPSE
  5
185
330
1F
100
AcDbEntity
  8
Calm 810
  6
Continuous
 62
    18
420
        0
 48
0.9999999962747097
370
    25
100
AcDbEllipse
 10
36812.75113996065
 20
-17218.38463965578
 30
0.0
 11
-154.3909897309482
 21
-1.890681869974446E-14
 31
0.0
210
0.0
220
0.0
230
1.0
 40
0.997834698703813
 41
0.9051126238974088
 42
1.163939376610835
  0
ELLIPSE
  5
186
330
1F
100
AcDbEntity
  8
Calm 810
  6
Continuous
 62
    18
420
        0
 48
0.9999999962747097
370
    25
100
AcDbEllipse
 10
36917.85453810794
 20
-16984.93528459634
 30
0.0
 11
-410.8598341241324
 21
-5.031415633988205E-14
 31
0.0
210
0.0
220
0.0
230
1.0
 40
0.9978346987038129
 41
1.154345835007671
 42
1.272361847738601
  0
ELLIPSE
  5
187
330
1F
100
AcDbEntity
  8
Calm 810
  6
Continuous
 62
    18
420
        0
 48
0.9999999962747097
370
    25
100
AcDbEllipse
 10
36876.73071581771
 20
-17123.35928696301
 30
0.0
 11
-266.1800786030291
 21
-3.259658155182093E-14
 31
0.0
210
0.0
220
0.0
230
1.0
 40
0.9978346987038127
 41
1.266793083871904
 42
1.465395505416014
  0
ELLIPSE
  5
188
330
1F
100
AcDbEntity
  8
Calm 810
  6
Continuous
 62
    18
420
        0
 48
0.9999999962747097
370
    25
100
AcDbEllipse
 10
36879.77124813438
 20
-17115.29702159455
 30
0.0
 11
-287.2955738251177
 21
-3.518239851312850E-14
 31
0.0
210
0.0
220
0.0
230
1.0
 40
0.9978346987038126
 41
1.25204151255268
 42
1.421584541420661
  0
ELLIPSE
  5
189
330
1F
100
AcDbEntity
  8
Calm 810
  6
Continuous
 62
    18
420
        0
 48
0.9999999962747097
370
    25
100
AcDbEllipse
 10
36912.56689482178
 20
-17001.70560069238
 30
0.0
 11
-405.7020090478051
 21
-4.968252580384458E-14
 31
0.0
210
0.0
220
0.0
230
1.0
 40
0.9978346987038127
 41
1.162716676507077
 42
1.263211037989026
  0
ELLIPSE
  5
18A
330
1F
100
AcDbEntity
  8
Calm 810
  6
Continuous
 62
    18
420
        0
 48
0.9999999962747097
370
    25
100
AcDbEllipse
 10
36817.61990090722
 20
-17213.53053462039
 30
0.0
 11
-173.1941592777671
 21
-2.120946678964784E-14
 31
0.0
210
0.0
220
0.0
230
1.0
 40
0.9978346987038127
 41
0.918642513221605
 42
1.179495059901547
  0
ELLIPSE
  5
18B
330
1F
100
AcDbEntity
  8
Calm 810
  6
Continuous
 62
    18
420
        0
 48
0.9999999962747097
370
    25
100
AcDbEllipse
 10
36791.26130906225
 20
-17249.66104762135
 30
0.0
 11
-128.4231700625691
 21
-1.572678300366338E-14
 31
0.0
210
0.0
220
0.0
230
1.0
 40
0.9978346987038127
 41
0.6421340722630645
 42
0.9106537533842821
  0
ELLIPSE
  5
18C
330
1F
100
AcDbEntity
  8
Calm 810
  6
Continuous
 62
    18
420
        0
 48
0.9999999962747097
370
    25
100
AcDbEllipse
 10
36770.38450205723
 20
-17265.48827486761
 30
0.0
 11
-102.205222388643
 21
-1.251611647309612E-14
 31
0.0
210
0.0
220
0.0
230
1.0
 40
0.9978346987038127
 41
0.3049225466251124
 42
0.6401868665942563
  0
ELLIPSE
  5
18D
330
1F
100
AcDbEntity
  8
Calm 810
  6
Continuous
 62
    18
420
        0
 48
0.9999999962747097
370
    25
100
AcDbEllipse
 10
36796.35774737985
 20
-17257.53550596739
 30
0.0
 11
-129.373230441617
 21
-1.584312800133308E-14
 31
0.0
210
0.0
220
0.0
230
1.0
 40
0.9978346987038127
 41
0.16994188508343
 42
0.3034129822662415
  0
ELLIPSE
  5
18E
330
1F
100
AcDbEntity
  8
Calm 810
  6
Continuous
 62
    18
420
        0
 48
0.9999999962747097
370
    25
100
AcDbEllipse
 10
36880.37625248778
 20
-17242.35338915676
 30
0.0
 11
-214.756102869977
 21
-2.629916880967059E-14
 31
0.0
210
0.0
220
0.0
230
1.0
 40
0.9978346987038123
 41
0.1275045741244191
 42
0.1736030040776968
  0
ELLIPSE
  5
18F
330
1F
100
AcDbEntity
  8
Calm 810
  6
Continuous
 62
    18
420
        0
 48
0.9999999962747097
370
    25
100
AcDbEllipse
 10
36932.7677055215
 20
-17406.5906394693
 30
0.0
 11
7.910313137450429
 21
0.0
 31
0.0
210
0.0
220
0.0
230
1.0
 40
0.9978346987038127
 41
1.720008112169132
 42
2.83454691392963
  0
ELLIPSE
  5
190
330
1F
100
AcDbEntity
  8
Calm 810
  6
Continuous
 62
    18
420
        0
 48
0.9999999962747097
370
    25
100
AcDbEllipse
 10
36835.88632172822
 20
-17406.5906394693
 30
0.0
 11
-7.910313137450429
 21
-9.687019728846421E-16
 31
0.0
210
0.0
220
0.0
230
1.0
 40
0.9978346987038129
 41
3.448638393249956
 42
4.563177195010454
  0
ELLIPSE
  5
191
330
1F
100
AcDbEntity
  8
Calm 810
  6
Continuous
 62
    18
420
        0
 48
0.9999999962747097
370
    25
100
AcDbEllipse
 10
36848.39415214994
 20
-17390.62878352216
 30
0.0
 11
-3.164125254980171
 21
-3.874807891538567E-16
 31
0.0
210
0.0
220
0.0
230
1.0
 40
0.9978346987038129
 41
3.932338360371248
 42
4.606988159005807
  0
ELLIPSE
  5
192
330
1F
100
AcDbEntity
  8
Calm 810
  6
Continuous
 62
    18
420
        0
 48
0.9999999962747097
370
    25
100
AcDbEllipse
 10
36857.75097306297
 20
-17399.86601881269
 30
0.0
 11
3.164125254980171
 21
0.0
 31
0.0
210
0.0
220
0.0
230
1.0
 40
0.9978346987038127
 41
0.0821675316713831
 42
0.7907431372689447
  0
ELLIPSE
  5
193
330
1F
100
AcDbEntity
  8
Calm 810
  6
Continuous
 62
    18
420
        0
 48
0.9999999962747097
370
    25
100
AcDbEllipse
 10
36920.14824844128
 20
-17390.6405437871
 30
0.0
 11
3.164125254980172
 21
0.0
 31
0.0
210
0.0
220
0.0
230
1.0
 40
0.9978346987038129
 41
1.675780402333497
 42
2.356194490192345
  0
ELLIPSE
  5
194
330
1F
100
AcDbEntity
  8
Calm 810
  6
Continuous
 62
    18
420
        0
 48
0.9999999962747097
370
    25
100
AcDbEllipse
 10
37109.13665430031
 20
-17270.60617862306
 30
0.0
 11
7.910313137450429
 21
0.0
 31
0.0
210
0.0
220
0.0
230
1.0
 40
0.9978346987038126
 41
1.927615913312636
 42
3.014088206861765
  0
ELLIPSE
  5
195
330
1F
100
AcDbEntity
  8
Calm 810
  6
Continuous
 62
    18
420
        0
 48
0.9999999962747097
370
    25
100
AcDbEllipse
 10
36659.51737294942
 20
-17270.60617862306
 30
0.0
 11
-7.910313137450429
 21
-9.687019728846421E-16
 31
0.0
210
0.0
220
0.0
230
1.0
 40
0.9978346987038127
 41
3.269097100317821
 42
4.355569393866953
  0
ELLIPSE
  5
196
330
1F
100
AcDbEntity
  8
Calm 810
  6
Continuous
 62
    18
420
        0
 48
0.9999999962747097
370
    25
100
AcDbEllipse
 10
36910.90308111448
 20
-17399.86569254111
 30
0.0
 11
2.237374424320095
 21
-2.232529834579054
 31
0.0
210
0.0
220
0.0
230
1.0
 40
0.9978346987038131
 41
3.223760185261175
 42
3.926990816987241
  0
ELLIPSE
  5
197
330
1F
100
AcDbEntity
  8
Calm 810
  6
Continuous
 62
    18
420
        0
 48
0.9999999962747097
370
    25
100
AcDbEllipse
 10
37120.2195637661
 20
-18415.56230025401
 30
0.0
 11
1.061632565720167E-13
 21
1733.834815418818
 31
0.0
210
0.0
220
0.0
230
1.0
 40
0.9973470568288352
 41
6.120640903167998
 42
6.168669552263531
  0
ELLIPSE
  5
198
330
1F
100
AcDbEntity
  8
Calm 810
  6
Continuous
 62
    18
420
        0
 48
0.9999999962747097
370
    25
100
AcDbEllipse
 10
37329.29786356576
 20
-17181.29187100087
 30
0.0
 11
2.951064557250913E-14
 21
481.9613336219795
 31
0.0
210
0.0
220
0.0
230
1.0
 40
0.9973470568288351
 41
6.080349977385708
 42
6.13543460479611
  0
ELLIPSE
  5
199
330
1F
100
AcDbEntity
  8
Calm 810
  6
Continuous
 62
    18
420
        0
 48
0.9999999962747097
370
    25
100
AcDbEllipse
 10
37415.60717223602
 20
-16758.58329349961
 30
0.0
 11
3.091336599724717E-15
 21
50.48702532165858
 31
0.0
210
0.0
220
0.0
230
1.0
 40
0.9973470568288351
 41
5.786342041163416
 42
6.072650505871905
  0
ELLIPSE
  5
19A
330
1F
100
AcDbEntity
  8
Calm 810
  6
Continuous
 62
    18
420
        0
 48
0.9999999962747097
370
    25
100
AcDbEllipse
 10
37425.03833121367
 20
-16740.45465373513
 30
0.0
 11
1.839648722198433E-15
 21
30.04473586889888
 31
0.0
210
0.0
220
0.0
230
1.0
 40
0.997347056828835
 41
4.88394282247644
 42
5.77541938285349
  0
ELLIPSE
  5
19B
330
1F
100
AcDbEntity
  8
Calm 810
  6
Continuous
 62
    18
420
        0
 48
0.9999999962747097
370
    25
100
AcDbEllipse
 10
37427.21704585687
 20
-16741.24651188324
 30
0.0
 11
2.493049549309022E-15
 21
40.71593359821201
 31
0.0
210
0.0
220
0.0
230
1.0
 40
0.9973470568288351
 41
5.120415301167588
 42
5.690411618712695
  0
ELLIPSE
  5
19C
330
1F
100
AcDbEntity
  8
Calm 810
  6
Continuous
 62
    18
420
        0
 48
0.9999999962747097
370
    25
100
AcDbEllipse
 10
37419.34362898262
 20
-16756.56262157154
 30
0.0
 11
3.543043742975187E-15
 21
57.86420643525564
 31
0.0
210
0.0
220
0.0
230
1.0
 40
0.9973470568288352
 41
5.725138095470049
 42
6.080446600752354
  0
ELLIPSE
  5
19D
330
1F
100
AcDbEntity
  8
Calm 810
  6
Continuous
 62
    18
420
        0
 48
0.9999999962747097
370
    25
100
AcDbEllipse
 10
37294.19370107807
 20
-17413.45858210938
 30
0.0
 11
4.449194993494345E-14
 21
726.6326815318284
 31
0.0
210
0.0
220
0.0
230
1.0
 40
0.9973470568288352
 41
6.093321409830635
 42
6.12885117437622
  0
ELLIPSE
  5
19E
330
1F
100
AcDbEntity
  8
Calm 810
  6
Continuous
 62
    18
420
        0
 48
0.9999999962747097
370
    25
100
AcDbEllipse
 10
37175.85676866019
 20
-18045.5937820247
 30
0.0
 11
8.386354254607089E-14
 21
1369.640820240834
 31
0.0
210
0.0
220
0.0
230
1.0
 40
0.9973470568288351
 41
6.114198456566573
 42
6.16416088199195
  0
ELLIPSE
  5
19F
330
1F
100
AcDbEntity
  8
Calm 810
  6
Continuous
 62
    18
420
        0
 48
0.9999999962747097
370
    25
100
AcDbEllipse
 10
37338.99164575046
 20
-16677.84372991181
 30
0.0
 11
4.809692082986473E-16
 21
7.855082685099466
 31
0.0
210
0.0
220
0.0
230
1.0
 40
0.997347056828835
 41
1.570796326794897
 42
3.022568228402156
  0
ELLIPSE
  5
1A0
330
1F
100
AcDbEntity
  8
Calm 810
  6
Continuous
 62
    18
420
        0
 48
0.9999999962747097
370
    25
100
AcDbEllipse
 10
37329.5880424584
 20
-16670.97987623941
 30
0.0
 11
9.634799845726109E-17
 21
-1.573534191726656
 31
0.0
210
0.0
220
0.0
230
1.0
 40
0.9973470568288352
 41
1.570796326794897
 42
2.421436545998409
  0
ELLIPSE
  5
1A1
330
1F
100
AcDbEntity
  8
Calm 810
  6
Continuous
 62
    18
420
        0
 48
0.9999999962747097
370
    25
100
AcDbEllipse
 10
37331.11983637795
 20
-16669.22928777887
 30
0.0
 11
4.624703925948531E-17
 21
-0.7552964120287947
 31
0.0
210
0.0
220
0.0
230
1.0
 40
0.9973470568288352
 41
4.71238898038469
 42
5.563029199588201
  0
ELLIPSE
  5
1A2
330
1F
100
AcDbEntity
  8
Calm 810
  6
Continuous
 62
    18
420
        0
 48
0.9999999962747097
370
    25
100
AcDbEllipse
 10
37319.51582144966
 20
-16669.21579118038
 30
0.0
 11
9.249407851897063E-17
 21
1.510592824057589
 31
0.0
210
0.0
220
0.0
230
1.0
 40
0.9973470568288361
 41
0.1221968035099777
 42
1.562499031530916
  0
ELLIPSE
  5
1A3
330
1F
100
AcDbEntity
  8
Calm 810
  6
Continuous
 62
    18
420
        0
 48
0.9999999962747097
370
    25
100
AcDbEllipse
 10
37045.54543254139
 20
-16809.33177489415
 30
0.0
 11
2.500323677886274E-14
 21
-408.3473305657751
 31
0.0
210
0.0
220
0.0
230
1.0
 40
0.9973470568288351
 41
1.282022196667021
 42
1.473255983553315
  0
ELLIPSE
  5
1A4
330
1F
100
AcDbEntity
  8
Calm 810
  6
Continuous
 62
    18
420
        0
 48
0.9999999962747097
370
    25
100
AcDbEllipse
 10
36516.6842789637
 20
-16745.05371650822
 30
0.0
 11
5.770560621085661E-14
 21
-942.4351920229627
 31
0.0
210
0.0
220
0.0
230
1.0
 40
0.9973470568288354
 41
1.460170377486488
 42
1.508132946477287
  0
ELLIPSE
  5
1A5
330
1F
100
AcDbEntity
  8
Calm 810
  6
Continuous
 62
    18
420
        0
 48
0.9999999962747097
370
    25
100
AcDbEllipse
 10
36537.89526580445
 20
-16746.09437028941
 30
0.0
 11
5.717412351170512E-14
 21
-933.7551341824562
 31
0.0
210
0.0
220
0.0
230
1.0
 40
0.9973470568288351
 41
1.448716605788907
 42
1.4959986902969
  0
ELLIPSE
  5
1A6
330
1F
100
AcDbEntity
  8
Calm 810
  6
Continuous
 62
    18
420
        0
 48
0.9999999962747097
370
    25
100
AcDbEllipse
 10
37081.21852383103
 20
-16815.97025931227
 30
0.0
 11
2.354572887079992E-14
 21
-384.5436339164235
 31
0.0
210
0.0
220
0.0
230
1.0
 40
0.9973470568288358
 41
1.263033256812163
 42
1.456559097338639
  0
ELLIPSE
  5
1A7
330
1F
100
AcDbEntity
  8
Calm 810
  6
Continuous
 62
    18
420
        0
 48
0.9999999962747097
370
    25
100
AcDbEllipse
 10
37247.74550795822
 20
-16871.40523832013
 30
0.0
 11
1.277499318834868E-14
 21
-208.6383620087213
 31
0.0
210
0.0
220
0.0
230
1.0
 40
0.9973470568288351
 41
1.116889275449253
 42
1.273820021847274
  0
ELLIPSE
  5
1A8
330
1F
100
AcDbEntity
  8
Calm 810
  6
Continuous
 62
    18
420
        0
 48
0.9999999962747097
370
    25
100
AcDbEllipse
 10
37320.91092388507
 20
-16907.84856594463
 30
0.0
 11
7.759618906924301E-15
 21
-126.7283790044714
 31
0.0
210
0.0
220
0.0
230
1.0
 40
0.9973470568288348
 41
0.8132535212965417
 42
1.121514688855246
  0
ELLIPSE
  5
1A9
330
1F
100
AcDbEntity
  8
Calm 810
  6
Continuous
 62
    18
420
        0
 48
0.9999999962747097
370
    25
100
AcDbEllipse
 10
37333.05178092042
 20
-16917.63035869067
 30
0.0
 11
6.806970285547828E-15
 21
-111.1699325142509
 31
0.0
210
0.0
220
0.0
230
1.0
 40
0.9973470568288354
 41
0.4522049674740043
 42
0.8019381154235491
  0
ELLIPSE
  5
1AA
330
1F
100
AcDbEntity
  8
Calm 810
  6
Continuous
 62
    18
420
        0
 48
0.9999999962747097
370
    25
100
AcDbEllipse
 10
37331.87747875288
 20
-17042.86255701713
 30
0.0
 11
4.624703925948531E-17
 21
0.7552964120287947
 31
0.0
210
0.0
220
0.0
230
1.0
 40
0.9973470568288352
 41
0.0523621561841312
 42
1.570796326794897
  0
ELLIPSE
  5
1AB
330
1F
100
AcDbEntity
  8
Calm 810
  6
Continuous
 62
    18
420
        0
 48
0.9999999962747097
370
    25
100
AcDbEllipse
 10
37329.55479168357
 20
-17045.21249366401
 30
0.0
 11
9.634799845726109E-17
 21
-1.573534191726656
 31
0.0
210
0.0
220
0.0
230
1.0
 40
0.9973470568288352
 41
0.7418808510487438
 42
1.570796326794897
  0
ELLIPSE
  5
1AC
330
1F
100
AcDbEntity
  8
Calm 810
  6
Continuous
 62
    18
420
        0
 48
0.9999999962747097
370
    25
100
AcDbEllipse
 10
37331.12418609932
 20
-17046.92926004833
 30
0.0
 11
4.624703925948531E-17
 21
-0.7552964120287947
 31
0.0
210
0.0
220
0.0
230
1.0
 40
0.9973470568288352
 41
3.883473504638536
 42
4.71238898038469
  0
ELLIPSE
  5
1AD
330
1F
100
AcDbEntity
  8
Calm 810
  6
Continuous
 62
    18
420
        0
 48
0.9999999962747097
370
    25
100
AcDbEllipse
 10
37331.12414955124
 20
-17048.51515544523
 30
0.0
 11
4.624703925948531E-17
 21
-0.7552964120287947
 31
0.0
210
0.0
220
0.0
230
1.0
 40
0.9973470568288352
 41
4.71238898038469
 42
5.926086239528839
  0
ELLIPSE
  5
1AE
330
1F
100
AcDbEntity
  8
Calm 810
  6
Continuous
 62
    18
420
        0
 48
0.9999999962747097
370
    25
100
AcDbEllipse
 10
37319.51585194861
 20
-17046.92298052872
 30
0.0
 11
9.249407851897070E-17
 21
-1.51059282405759
 31
0.0
210
0.0
220
0.0
230
1.0
 40
0.9973470568288352
 41
4.720687584645609
 42
6.160990152036125
  0
ELLIPSE
  5
1AF
330
1F
100
AcDbEntity
  8
Calm 810
  6
Continuous
 62
    18
420
        0
 48
0.9999999962747097
370
    25
100
AcDbEllipse
 10
37280.61449032094
 20
-16674.88209510264
 30
0.0
 11
2.144070394434468E-14
 21
-350.1648325998241
 31
0.0
210
0.0
220
0.0
230
1.0
 40
0.9973470568288352
 41
0.1067125817558605
 42
0.1736151244197244
  0
ELLIPSE
  5
1B0
330
1F
100
AcDbEntity
  8
Calm 810
  6
Continuous
 62
    18
420
        0
 48
0.9999999962747097
370
    25
100
AcDbEllipse
 10
37317.51450510418
 20
-16888.05790205119
 30
0.0
 11
8.192805462554507E-15
 21
-133.8030859791347
 31
0.0
210
0.0
220
0.0
230
1.0
 40
0.9973470568288352
 41
0.1764771250234179
 42
0.4156212179856864
  0
ELLIPSE
  5
1B1
330
1F
100
AcDbEntity
  8
Calm 810
  6
Continuous
 62
    18
420
        0
 48
0.9999999962747097
370
    25
100
AcDbEllipse
 10
37329.40694607141
 20
-16916.91116142398
 30
0.0
 11
6.281891340363955E-15
 21
-102.5944593665747
 31
0.0
210
0.0
220
0.0
230
1.0
 40
0.9973470568288353
 41
0.4228420814335004
 42
0.7647968302019559
  0
ELLIPSE
  5
1B2
330
1F
100
AcDbEntity
  8
Calm 810
  6
Continuous
 62
    18
420
        0
 48
0.9999999962747097
370
    25
100
AcDbEllipse
 10
37319.23018639533
 20
-16908.6683751644
 30
0.0
 11
7.079369752977691E-15
 21
-115.618700342045
 31
0.0
210
0.0
220
0.0
230
1.0
 40
0.9973470568288357
 41
0.779112214652286
 42
1.097566153524006
  0
ELLIPSE
  5
1B3
330
1F
100
AcDbEntity
  8
Calm 810
  6
Continuous
 62
    18
420
        0
 48
0.9999999962747097
370
    25
100
AcDbEllipse
 10
37231.09479966841
 20
-16865.17249231606
 30
0.0
 11
1.310979570293395E-14
 21
-214.1062825946345
 31
0.0
210
0.0
220
0.0
230
1.0
 40
0.9973470568288355
 41
1.104852563781505
 42
1.284580509980868
  0
ELLIPSE
  5
1B4
330
1F
100
AcDbEntity
  8
Calm 810
  6
Continuous
 62
    18
420
        0
 48
0.9999999962747097
370
    25
100
AcDbEllipse
 10
37457.65613954626
 20
-16734.78836224371
 30
0.0
 11
1.926959969145222E-16
 21
3.147068383453312
 31
0.0
210
0.0
220
0.0
230
1.0
 40
0.9973470568288354
 41
1.742350168886647
 42
2.356194490192344
  0
ELLIPSE
  5
1B5
330
1F
100
AcDbEntity
  8
Calm 810
  6
Continuous
 62
    18
420
        0
 48
0.9999999962747097
370
    25
100
AcDbEllipse
 10
37457.90698609387
 20
-16804.2683221508
 30
0.0
 11
1.926959969145223E-16
 21
-3.147068383453314
 31
0.0
210
0.0
220
0.0
230
1.0
 40
0.9973470568288352
 41
3.926990816987241
 42
4.649725600067079
  0
ELLIPSE
  5
1B6
330
1F
100
AcDbEntity
  8
Calm 810
  6
Continuous
 62
    18
420
        0
 48
0.9999999962747097
370
    25
100
AcDbEllipse
 10
37466.05890544831
 20
-16743.21347950305
 30
0.0
 11
1.926959969145222E-16
 21
-3.147068383453312
 31
0.0
210
0.0
220
0.0
230
1.0
 40
0.9973470568288352
 41
5.497787143782138
 42
6.195911911744229
  0
ELLIPSE
  5
1B7
330
1F
100
AcDbEntity
  8
Calm 810
  6
Continuous
 62
    18
420
        0
 48
0.9999999962747097
370
    25
100
AcDbEllipse
 10
37466.05890544831
 20
-16796.09471869089
 30
0.0
 11
1.926959969145222E-16
 21
3.147068383453312
 31
0.0
210
0.0
220
0.0
230
1.0
 40
0.9973470568288352
 41
0.0872733954353564
 42
0.7853981633974486
  0
ELLIPSE
  5
1B8
330
1F
100
AcDbEntity
  8
Calm 810
  6
Continuous
 62
    18
420
        0
 48
0.9999999962747097
370
    25
100
AcDbEllipse
 10
37471.69390835891
 20
-16721.96861368049
 30
0.0
 11
4.817399922863055E-16
 21
7.867670958633281
 31
0.0
210
0.0
220
0.0
230
1.0
 40
0.9973470568288351
 41
1.978822647577794
 42
2.827433097342606
  0
ELLIPSE
  5
1B9
330
1F
100
AcDbEntity
  8
Calm 810
  6
Continuous
 62
    18
420
        0
 48
0.9999999962747097
370
    25
100
AcDbEllipse
 10
37474.39416898625
 20
-16816.45988276057
 30
0.0
 11
4.817399922863053E-16
 21
-7.867670958633277
 31
0.0
210
0.0
220
0.0
230
1.0
 40
0.9973470568288352
 41
3.455752500725189
 42
4.637591343886693
  0
ELLIPSE
  5
1BA
330
1F
100
AcDbEntity
  8
Calm 810
  6
Continuous
 62
    18
420
        0
 48
0.9999999962747097
370
    25
100
AcDbEllipse
 10
37322.17575500596
 20
-16893.83464496334
 30
0.0
 11
8.409373135951159E-15
 21
-137.3400213007697
 31
0.0
210
0.0
220
0.0
230
1.0
 40
0.9973470568288355
 41
0.3018970183667797
 42
0.4479186327565784
  0
ELLIPSE
  5
1BB
330
1F
100
AcDbEntity
  8
Calm 810
  6
Continuous
 62
    18
420
        0
 48
0.9999999962747097
370
    25
100
AcDbEllipse
 10
37322.17575500596
 20
-16893.83464496334
 30
0.0
 11
8.409373135951159E-15
 21
-137.3400213007697
 31
0.0
210
0.0
220
0.0
230
1.0
 40
0.9973470568288355
 41
0.1557044586730225
 42
0.3018982788823507
  0
ELLIPSE
  5
1BC
330
1F
100
AcDbEntity
  8
Calm 810
  6
Continuous
 62
    18
420
        0
 48
0.9999999962747097
370
    25
100
AcDbEllipse
 10
37337.53290737827
 20
-17036.26263107356
 30
0.0
 11
3.391449545695590E-16
 21
-5.538840354877829
 31
0.0
210
0.0
220
0.0
230
1.0
 40
0.9973470568288352
 41
1.082843525581544
 42
1.518427722588807
  0
ELLIPSE
  5
1BD
330
1F
100
AcDbEntity
  8
Calm 810
  6
Continuous
 62
    18
420
        0
 48
0.9999999962747097
370
    25
100
AcDbEllipse
 10
37337.53290737827
 20
-17036.26263107356
 30
0.0
 11
3.391449545695590E-16
 21
-5.538840354877829
 31
0.0
210
0.0
220
0.0
230
1.0
 40
0.9973470568288352
 41
0.0523686042060894
 42
1.061816283567198
  0
DIMENSION
  5
1BE
330
1F
100
AcDbEntity
  8
Calm 810
  6
Continuous
 62
    18
420
        0
 48
50.00000038146973
370
    25
100
AcDbDimension
  2
*D30
 10
37176.8113819791
 20
-17408.0967726369
 30
0.0
 11
37144.81137789022
 21
-17329.09031710249
 31
0.0
 70
    32
 71
     5
 42
158.0129110688249
  3
ISO-25
100
AcDbAlignedDimension
 13
36884.32704253505
 23
-17250.08386156808
 33
0.0
 14
36884.32704253505
 24
-17408.0967726369
 34
0.0
 50
-90.0
100
AcDbRotatedDimension
1001
ACAD
1000
DSTYLE
1002
{
1070
    69
1070
     0
1070
   271
1070
     3
1070
   177
1070
    18
1070
   176
1070
    18
1070
   140
1040
24.0
1070
    76
1070
     0
1070
    75
1070
     0
1070
   282
1070
     0
1070
   281
1070
     0
1070
   174
1070
     1
1070
    42
1040
0.0
1070
    49
1040
19.9999995470047
1070
   290
1070
     1
1070
    44
1040
19.9999995470047
1070
    46
1040
0.0
1070
    41
1040
9.000000357627869
1070
   173
1070
     1
1070
   342
1005
0
1070
   344
1005
11B
1070
   343
1005
11B
1070
   147
1040
20.00000408887863
1070
   178
1070
    18
1070
   340
1005
121
1070
   278
1070
    46
1002
}
1001
ACAD_DSTYLE_DIMEXT_ENABLED
1070
   383
1070
     1
1001
ACAD_DSTYLE_DIMEXT_LENGTH
1070
   378
1040
19.9999995470047
  0
INSERT
  5
1D0
330
1F
100
AcDbEntity
  8
Calm 810
  6
Continuous
 62
    18
420
        0
 48
50.00000038146973
370
    25
100
AcDbBlockReference
  2
Dimension23
 10
0.0
 20
0.0
 30
0.0
  0
LINE
  5
1D1
330
1F
100
AcDbEntity
  8
Calm 810
  6
Continuous
 62
    18
420
        0
 48
60.00000166893005
370
    25
100
AcDbLine
 10
37800.11413737781
 20
-17475.8503060203
 30
0.0
 11
37800.11413737781
 21
-16475.85029839091
 31
0.0
  0
LINE
  5
1D2
330
1F
100
AcDbEntity
  8
Calm 810
  6
Continuous
 62
    18
420
        0
 48
60.00000166893005
370
    25
100
AcDbLine
 10
36365.11413127429
 20
-17475.8503060203
 30
0.0
 11
37800.11413737781
 21
-17475.8503060203
 31
0.0
  0
LINE
  5
1D3
330
1F
100
AcDbEntity
  8
Calm 810
  6
Continuous
 62
    18
420
        0
 48
60.00000166893005
370
    25
100
AcDbLine
 10
37788.1140946532
 20
-17455.85011571459
 30
0.0
 11
37788.1140946532
 21
-16560.85034264139
 31
0.0
  0
LINE
  5
1D4
330
1F
100
AcDbEntity
  8
Calm 810
  6
Continuous
 62
    18
420
        0
 48
60.00000166893005
370
    25
100
AcDbLine
 10
36377.1141739989
 20
-17455.85011571459
 30
0.0
 11
37788.1140946532
 21
-17455.85011571459
 31
0.0
  0
LINE
  5
1D5
330
1F
100
AcDbEntity
  8
Calm 810
  6
Continuous
 62
    18
420
        0
 48
907.2000518798828
370
    25
100
AcDbLine
 10
37788.1140946532
 20
-17455.85011571459
 30
0.0
 11
37788.1140946532
 21
-17233.10011571458
 31
0.0
  0
LINE
  5
1D6
330
1F
100
AcDbEntity
  8
Calm 810
  6
Continuous
 62
    18
420
        0
 48
907.2000518798828
370
    25
100
AcDbLine
 10
37414.1140946532
 20
-17455.85011571459
 30
0.0
 11
37414.1140946532
 21
-17343.10011571459
 31
0.0
  0
LINE
  5
1D7
330
1F
100
AcDbEntity
  8
Calm 810
  6
Continuous
 62
    18
420
        0
 48
60.00000166893005
370
    25
100
AcDbLine
 10
37414.1140946532
 20
-17343.10011571459
 30
0.0
 11
37788.1140946532
 21
-17343.10011571459
 31
0.0
  0
LINE
  5
1D8
330
1F
100
AcDbEntity
  8
Calm 810
  6
Continuous
 62
    18
420
        0
 48
162.0000075340271
370
    25
100
AcDbLine
 10
37479.62493999701
 20
-17372.99139896633
 30
0.0
 11
37509.25043816741
 21
-17372.98948100792
 31
0.0
  0
LINE
  5
1D9
330
1F
100
AcDbEntity
  8
Calm 810
  6
Continuous
 62
    18
420
        0
 48
162.0000075340271
370
    25
100
AcDbLine
 10
37475.79721054813
 20
-17382.24871462488
 30
0.0
 11
37513.07640856278
 21
-17382.24759607676
 31
0.0
  0
LINE
  5
1DA
330
1F
100
AcDbEntity
  8
Calm 810
  6
Continuous
 62
    18
420
        0
 48
162.0000075340271
370
    25
100
AcDbLine
 10
37511.89788477986
 20
-17377.62045837622
 30
0.0
 11
37476.97714703555
 21
-17377.61936254707
 31
0.0
  0
LINE
  5
1DB
330
1F
100
AcDbEntity
  8
Calm 810
  6
Continuous
 62
    18
420
        0
 48
162.0000075340271
370
    25
100
AcDbLine
 10
37476.97906514425
 20
-17391.44398373191
 30
0.0
 11
37511.8974571963
 21
-17391.4410299269
 31
0.0
  0
LINE
  5
1DC
330
1F
100
AcDbEntity
  8
Calm 810
  6
Continuous
 62
    18
420
        0
 48
162.0000075340271
370
    25
100
AcDbLine
 10
37513.07739343066
 20
-17386.81050544004
 30
0.0
 11
37475.79819566908
 21
-17386.81279639721
 31
0.0
  0
LINE
  5
1DD
330
1F
100
AcDbEntity
  8
Calm 810
  6
Continuous
 62
    18
420
        0
 48
162.0000075340271
370
    25
100
AcDbLine
 10
37509.25200944399
 20
-17396.07080490638
 30
0.0
 11
37479.62405945879
 21
-17396.07080490638
 31
0.0
  0
LINE
  5
1DE
330
1F
100
AcDbEntity
  8
Calm 810
  6
Continuous
 62
    18
420
        0
 48
162.0000075340271
370
    25
100
AcDbLine
 10
37516.0158598522
 20
-17396.11357678009
 30
0.0
 11
37534.39188025754
 21
-17396.11430009777
 31
0.0
  0
LINE
  5
1DF
330
1F
100
AcDbEntity
  8
Calm 810
  6
Continuous
 62
    18
420
        0
 48
162.0000075340271
370
    25
100
AcDbLine
 10
37534.39004126349
 20
-17382.1624192188
 30
0.0
 11
37522.89062628949
 21
-17382.16085113608
 31
0.0
  0
LINE
  5
1E0
330
1F
100
AcDbEntity
  8
Calm 810
  6
Continuous
 62
    18
420
        0
 48
162.0000075340271
370
    25
100
AcDbLine
 10
37522.78609278721
 20
-17377.82818263412
 30
0.0
 11
37541.2646453003
 21
-17377.82707191613
 31
0.0
  0
LINE
  5
1E1
330
1F
100
AcDbEntity
  8
Calm 810
  6
Continuous
 62
    18
420
        0
 48
162.0000075340271
370
    25
100
AcDbLine
 10
37541.2646453003
 20
-17377.82707191613
 30
0.0
 11
37541.2658467455
 21
-17373.02360505323
 31
0.0
  0
LINE
  5
1E2
330
1F
100
AcDbEntity
  8
Calm 810
  6
Continuous
 62
    18
420
        0
 48
162.0000075340271
370
    25
100
AcDbLine
 10
37541.2658467455
 20
-17373.02360505323
 30
0.0
 11
37522.78622826799
 21
-17373.02407650541
 31
0.0
  0
LINE
  5
1E3
330
1F
100
AcDbEntity
  8
Calm 810
  6
Continuous
 62
    18
420
        0
 48
162.0000075340271
370
    25
100
AcDbLine
 10
37522.7880652606
 20
-17386.96668469482
 30
0.0
 11
37534.28748172993
 21
-17386.97518064907
 31
0.0
  0
LINE
  5
1E4
330
1F
100
AcDbEntity
  8
Calm 810
  6
Continuous
 62
    18
420
        0
 48
162.0000075340271
370
    25
100
AcDbLine
 10
37534.39084319125
 20
-17391.30955472627
 30
0.0
 11
37516.01599558603
 21
-17391.31064306041
 31
0.0
  0
LINE
  5
1E5
330
1F
100
AcDbEntity
  8
Calm 810
  6
Continuous
 62
    18
420
        0
 48
162.0000075340271
370
    25
100
AcDbLine
 10
37516.01599558603
 20
-17391.31064306041
 30
0.0
 11
37516.0158598522
 21
-17396.11357678009
 31
0.0
  0
LINE
  5
1E6
330
1F
100
AcDbEntity
  8
Calm 810
  6
Continuous
 62
    18
420
        0
 48
162.0000075340271
370
    25
100
AcDbLine
 10
37554.53493221238
 20
-17396.10526274301
 30
0.0
 11
37569.55775607037
 21
-17396.10607032579
 31
0.0
  0
LINE
  5
1E7
330
1F
100
AcDbEntity
  8
Calm 810
  6
Continuous
 62
    18
420
        0
 48
162.0000075340271
370
    25
100
AcDbLine
 10
37569.55775607037
 20
-17396.10607032579
 30
0.0
 11
37569.55789143612
 21
-17391.30143128388
 31
0.0
  0
LINE
  5
1E8
330
1F
100
AcDbEntity
  8
Calm 810
  6
Continuous
 62
    18
420
        0
 48
162.0000075340271
370
    25
100
AcDbLine
 10
37569.55789143612
 20
-17391.30143128388
 30
0.0
 11
37554.53389542216
 21
-17391.30179636319
 31
0.0
  0
LINE
  5
1E9
330
1F
100
AcDbEntity
  8
Calm 810
  6
Continuous
 62
    18
420
        0
 48
162.0000075340271
370
    25
100
AcDbLine
 10
37548.96965194491
 20
-17386.9041184745
 30
0.0
 11
37569.55811449701
 21
-17386.9030852623
 31
0.0
  0
LINE
  5
1EA
330
1F
100
AcDbEntity
  8
Calm 810
  6
Continuous
 62
    18
420
        0
 48
162.0000075340271
370
    25
100
AcDbLine
 10
37569.55811449701
 20
-17386.9030852623
 30
0.0
 11
37569.55707795984
 21
-17382.10079129154
 31
0.0
  0
LINE
  5
1EB
330
1F
100
AcDbEntity
  8
Calm 810
  6
Continuous
 62
    18
420
        0
 48
162.0000075340271
370
    25
100
AcDbLine
 10
37569.55707795984
 20
-17382.10079129154
 30
0.0
 11
37548.96978779376
 21
-17382.101717668
 31
0.0
  0
LINE
  5
1EC
330
1F
100
AcDbEntity
  8
Calm 810
  6
Continuous
 62
    18
420
        0
 48
162.0000075340271
370
    25
100
AcDbLine
 10
37554.53202576204
 20
-17377.70163821629
 30
0.0
 11
37569.55847306168
 21
-17377.70073969468
 31
0.0
  0
LINE
  5
1ED
330
1F
100
AcDbEntity
  8
Calm 810
  6
Continuous
 62
    18
420
        0
 48
162.0000075340271
370
    25
100
AcDbLine
 10
37569.55847306168
 20
-17377.70073969468
 30
0.0
 11
37569.55850221288
 21
-17372.89780599801
 31
0.0
  0
LINE
  5
1EE
330
1F
100
AcDbEntity
  8
Calm 810
  6
Continuous
 62
    18
420
        0
 48
162.0000075340271
370
    25
100
AcDbLine
 10
37569.55850221288
 20
-17372.89780599801
 30
0.0
 11
37554.53439947825
 21
-17372.89753160449
 31
0.0
  0
LINE
  5
1EF
330
1F
100
AcDbEntity
  8
Calm 810
  6
Continuous
 62
    18
420
        0
 48
162.0000075340271
370
    25
100
AcDbLine
 10
37573.01795574412
 20
-17396.07889097331
 30
0.0
 11
37578.12305110766
 21
-17396.07832199206
 31
0.0
  0
LINE
  5
1F0
330
1F
100
AcDbEntity
  8
Calm 810
  6
Continuous
 62
    18
420
        0
 48
162.0000075340271
370
    25
100
AcDbLine
 10
37578.12305110766
 20
-17396.07832199206
 30
0.0
 11
37578.12369169891
 21
-17377.81282780651
 31
0.0
  0
LINE
  5
1F1
330
1F
100
AcDbEntity
  8
Calm 810
  6
Continuous
 62
    18
420
        0
 48
162.0000075340271
370
    25
100
AcDbLine
 10
37578.12369169891
 20
-17377.81282780651
 30
0.0
 11
37590.57403684111
 21
-17377.81355114263
 31
0.0
  0
LINE
  5
1F2
330
1F
100
AcDbEntity
  8
Calm 810
  6
Continuous
 62
    18
420
        0
 48
162.0000075340271
370
    25
100
AcDbLine
 10
37590.67857011333
 20
-17382.14515381818
 30
0.0
 11
37579.59227032275
 21
-17382.14754670827
 31
0.0
  0
LINE
  5
1F3
330
1F
100
AcDbEntity
  8
Calm 810
  6
Continuous
 62
    18
420
        0
 48
162.0000075340271
370
    25
100
AcDbLine
 10
37579.59227032275
 20
-17382.14754670827
 30
0.0
 11
37579.5922460026
 21
-17386.97286275915
 31
0.0
  0
LINE
  5
1F4
330
1F
100
AcDbEntity
  8
Calm 810
  6
Continuous
 62
    18
420
        0
 48
162.0000075340271
370
    25
100
AcDbLine
 10
37579.5922460026
 20
-17386.97286275915
 30
0.0
 11
37585.73215234738
 21
-17386.97270991801
 31
0.0
  0
LINE
  5
1F5
330
1F
100
AcDbEntity
  8
Calm 810
  6
Continuous
 62
    18
420
        0
 48
162.0000075340271
370
    25
100
AcDbLine
 10
37585.73215234738
 20
-17386.97270991801
 30
0.0
 11
37591.98572282381
 21
-17396.07884707129
 31
0.0
  0
LINE
  5
1F6
330
1F
100
AcDbEntity
  8
Calm 810
  6
Continuous
 62
    18
420
        0
 48
162.0000075340271
370
    25
100
AcDbLine
 10
37591.98572282381
 20
-17396.07884707129
 30
0.0
 11
37598.23956561872
 21
-17396.07685773294
 31
0.0
  0
LINE
  5
1F7
330
1F
100
AcDbEntity
  8
Calm 810
  6
Continuous
 62
    18
420
        0
 48
162.0000075340271
370
    25
100
AcDbLine
 10
37598.23956561872
 20
-17396.07685773294
 30
0.0
 11
37591.82834676626
 21
-17386.91213415257
 31
0.0
  0
LINE
  5
1F8
330
1F
100
AcDbEntity
  8
Calm 810
  6
Continuous
 62
    18
420
        0
 48
162.0000075340271
370
    25
100
AcDbLine
 10
37590.67766394944
 20
-17373.00888976286
 30
0.0
 11
37573.01873181616
 21
-17373.00929065905
 31
0.0
  0
LINE
  5
1F9
330
1F
100
AcDbEntity
  8
Calm 810
  6
Continuous
 62
    18
420
        0
 48
162.0000075340271
370
    25
100
AcDbLine
 10
37573.01873181616
 20
-17373.00929065905
 30
0.0
 11
37573.01795574412
 21
-17396.07889097331
 31
0.0
  0
LINE
  5
1FA
330
1F
100
AcDbEntity
  8
Calm 810
  6
Continuous
 62
    18
420
        0
 48
162.0000075340271
370
    25
100
AcDbLine
 10
37443.55234449055
 20
-17396.11024574603
 30
0.0
 11
37443.55026224526
 21
-17376.09338614058
 31
0.0
  0
LINE
  5
1FB
330
1F
100
AcDbEntity
  8
Calm 810
  6
Continuous
 62
    18
420
        0
 48
162.0000075340271
370
    25
100
AcDbLine
 10
37449.66447828731
 20
-17374.59383420752
 30
0.0
 11
37457.8609744235
 21
-17388.28612291853
 31
0.0
  0
LINE
  5
1FC
330
1F
100
AcDbEntity
  8
Calm 810
  6
Continuous
 62
    18
420
        0
 48
162.0000075340271
370
    25
100
AcDbLine
 10
37457.8609744235
 20
-17388.28612291853
 30
0.0
 11
37466.05603628184
 21
-17374.59381344664
 31
0.0
  0
LINE
  5
1FD
330
1F
100
AcDbEntity
  8
Calm 810
  6
Continuous
 62
    18
420
        0
 48
162.0000075340271
370
    25
100
AcDbLine
 10
37472.16866119666
 20
-17376.09232505246
 30
0.0
 11
37472.17074346495
 21
-17396.10929124053
 31
0.0
  0
LINE
  5
1FE
330
1F
100
AcDbEntity
  8
Calm 810
  6
Continuous
 62
    18
420
        0
 48
162.0000075340271
370
    25
100
AcDbLine
 10
37472.17074346495
 20
-17396.10929124053
 30
0.0
 11
37467.16231841706
 21
-17396.1091998604
 31
0.0
  0
LINE
  5
1FF
330
1F
100
AcDbEntity
  8
Calm 810
  6
Continuous
 62
    18
420
        0
 48
162.0000075340271
370
    25
100
AcDbLine
 10
37467.16231841706
 20
-17396.1091998604
 30
0.0
 11
37467.16174974141
 21
-17382.61093444044
 31
0.0
  0
LINE
  5
200
330
1F
100
AcDbEntity
  8
Calm 810
  6
Continuous
 62
    18
420
        0
 48
162.0000075340271
370
    25
100
AcDbLine
 10
37467.16174974141
 20
-17382.61093444044
 30
0.0
 11
37460.47162552434
 21
-17393.79119249296
 31
0.0
  0
LINE
  5
201
330
1F
100
AcDbEntity
  8
Calm 810
  6
Continuous
 62
    18
420
        0
 48
162.0000075340271
370
    25
100
AcDbLine
 10
37455.2503553142
 20
-17393.79285237606
 30
0.0
 11
37448.5600945332
 21
-17382.61324413825
 31
0.0
  0
LINE
  5
202
330
1F
100
AcDbEntity
  8
Calm 810
  6
Continuous
 62
    18
420
        0
 48
162.0000075340271
370
    25
100
AcDbLine
 10
37448.5600945332
 20
-17382.61324413825
 30
0.0
 11
37448.55959724444
 21
-17396.11087029244
 31
0.0
  0
LINE
  5
203
330
1F
100
AcDbEntity
  8
Calm 810
  6
Continuous
 62
    18
420
        0
 48
162.0000075340271
370
    25
100
AcDbLine
 10
37448.55959724444
 20
-17396.11087029244
 30
0.0
 11
37443.55234449055
 21
-17396.11024574603
 31
0.0
  0
LINE
  5
204
330
1F
100
AcDbEntity
  8
Calm 810
  6
Continuous
 62
    18
420
        0
 48
60.00000166893005
370
    25
100
AcDbLine
 10
37414.1140946532
 20
-17455.85011571459
 30
0.0
 11
37788.1140946532
 21
-17455.85011571459
 31
0.0
  0
LINE
  5
205
330
1F
100
AcDbEntity
  8
Calm 810
  6
Continuous
 62
    18
420
        0
 48
60.00000166893005
370
    25
100
AcDbLine
 10
37800.11413737781
 20
-16475.85029839091
 30
0.0
 11
36365.11413127429
 21
-16475.85029839091
 31
0.0
  0
LINE
  5
206
330
1F
100
AcDbEntity
  8
Calm 810
  6
Continuous
 62
    18
420
        0
 48
60.00000166893005
370
    25
100
AcDbLine
 10
36365.11413127429
 20
-16475.85029839091
 30
0.0
 11
36365.11413127429
 21
-17475.8503060203
 31
0.0
  0
LINE
  5
207
330
1F
100
AcDbEntity
  8
Calm 810
  6
Continuous
 62
    18
420
        0
 48
60.00000166893005
370
    25
100
AcDbLine
 10
36377.1141739989
 20
-16560.85034264139
 30
0.0
 11
36377.1141739989
 21
-17455.85011571459
 31
0.0
  0
LINE
  5
208
330
1F
100
AcDbEntity
  8
Calm 810
  6
Continuous
 62
    18
420
        0
 48
60.00000166893005
370
    25
100
AcDbLine
 10
37788.1140946532
 20
-16560.85034264139
 30
0.0
 11
36377.1141739989
 21
-16560.85034264139
 31
0.0
  0
TEXT
  5
20A
330
1F
100
AcDbEntity
  8
Calm 810
  6
Continuous
 62
    18
420
        0
 48
907.2000518798828
370
    25
100
AcDbText
 10
37645.82689813451
 20
-17383.42194603982
 30
0.0
 40
19.2
  1
Moser GmbH
 41
0.8125
  7
HLV-L
100
AcDbText
  0
TEXT
  5
20B
330
1F
100
AcDbEntity
  8
Calm 810
  6
Continuous
 62
    18
420
        0
 48
907.2000518798828
370
    25
100
AcDbText
 10
37645.82689813451
 20
-17404.0469254148
 30
0.0
 40
19.2
  1
Im Mühlegrün 13
 41
0.8125
  7
HLV-L
100
AcDbText
  0
TEXT
  5
20C
330
1F
100
AcDbEntity
  8
Calm 810
  6
Continuous
 62
    18
420
        0
 48
907.2000518798828
370
    25
100
AcDbText
 10
37645.82689813451
 20
-17424.67190478977
 30
0.0
 40
19.2
  1
77716 Haslach
 41
0.8125
  7
HLV-L
100
AcDbText
  0
TEXT
  5
20D
330
1F
100
AcDbEntity
  8
Calm 810
  6
Continuous
 62
    18
420
        0
 48
907.2000518798828
370
    25
100
AcDbText
 10
37645.82689813451
 20
-17445.29688416478
 30
0.0
 40
19.2
  1
www.moser.gmbh
 41
0.8125
  7
HLV-L
100
AcDbText
  0
TEXT
  5
20E
330
1F
100
AcDbEntity
  8
Calm 810
  6
Continuous
 62
    18
420
        0
 48
41.66666698455811
370
    25
100
AcDbText
 10
37415.41930148741
 20
-17302.37433924733
 30
0.0
 40
40.0
  1
Calm 810
 41
0.8125
  7
ARIAL
100
AcDbText
  0
TEXT
  5
210
330
1F
100
AcDbEntity
  8
Calm 810
  6
Continuous
 62
    18
420
        0
 48
16.94687619209289
370
    25
100
AcDbText
 10
37442.34993114118
 20
-17434.98738748074
 30
0.0
 40
10.86419914340973
  1
Mineralwerkstoffe
 41
0.8125
  7
HELV-HFT
100
AcDbText
  0
ARC
  5
211
330
1F
100
AcDbEntity
  8
Calm 810
  6
Continuous
 62
    18
420
        0
 48
162.0000075340271
370
    25
100
AcDbCircle
 10
37494.43843614479
 20
-17384.52984633255
 30
0.0
 40
18.77699219107415
100
AcDbArc
 50
37.92296160428956
 51
142.0844570673071
  0
ARC
  5
212
330
1F
100
AcDbEntity
  8
Calm 810
  6
Continuous
 62
    18
420
        0
 48
162.0000075340271
370
    25
100
AcDbCircle
 10
37494.43565553405
 20
-17384.53426252501
 30
0.0
 40
18.77805529592489
100
AcDbArc
 50
158.3926594912069
 51
173.0089805633655
  0
ARC
  5
213
330
1F
100
AcDbEntity
  8
Calm 810
  6
Continuous
 62
    18
420
        0
 48
162.0000075340271
370
    25
100
AcDbCircle
 10
37494.44733708231
 20
-17384.52873480076
 30
0.0
 40
18.76821510166706
100
AcDbArc
 50
6.9811420411914
 51
21.59749032313623
  0
ARC
  5
214
330
1F
100
AcDbEntity
  8
Calm 810
  6
Continuous
 62
    18
420
        0
 48
162.0000075340271
370
    25
100
AcDbCircle
 10
37494.44436421337
 20
-17384.52450268901
 30
0.0
 40
18.78605571898771
100
AcDbArc
 50
186.9964645332844
 51
201.6127039760878
  0
ARC
  5
215
330
1F
100
AcDbEntity
  8
Calm 810
  6
Continuous
 62
    18
420
        0
 48
162.0000075340271
370
    25
100
AcDbCircle
 10
37494.43437769468
 20
-17384.52554473104
 30
0.0
 40
18.78252062887146
100
AcDbArc
 50
338.396134446147
 51
353.0124555183045
  0
ARC
  5
216
330
1F
100
AcDbEntity
  8
Calm 810
  6
Continuous
 62
    18
420
        0
 48
162.0000075340271
370
    25
100
AcDbCircle
 10
37494.4380344514
 20
-17384.53053518735
 30
0.0
 40
18.77848982931697
100
AcDbArc
 50
217.9190317150191
 51
322.080968284981
  0
ARC
  5
217
330
1F
100
AcDbEntity
  8
Calm 810
  6
Continuous
 62
    18
420
        0
 48
162.0000075340271
370
    25
100
AcDbCircle
 10
37534.58240328946
 20
-17389.13833442428
 30
0.0
 40
6.978566908997784
100
AcDbArc
 50
268.4355638780451
 51
91.57954040753737
  0
ARC
  5
218
330
1F
100
AcDbEntity
  8
Calm 810
  6
Continuous
 62
    18
420
        0
 48
162.0000075340271
370
    25
100
AcDbCircle
 10
37523.13145440252
 20
-17379.98744543878
 30
0.0
 40
2.186707686213958
100
AcDbArc
 50
99.08716097410273
 51
263.677032393143
  0
ARC
  5
219
330
1F
100
AcDbEntity
  8
Calm 810
  6
Continuous
 62
    18
420
        0
 48
162.0000075340271
370
    25
100
AcDbCircle
 10
37522.59584926658
 20
-17379.99540580432
 30
0.0
 40
6.973928330401642
100
AcDbArc
 50
88.43570681814643
 51
271.5793910633276
  0
ARC
  5
21A
330
1F
100
AcDbEntity
  8
Calm 810
  6
Continuous
 62
    18
420
        0
 48
162.0000075340271
370
    25
100
AcDbCircle
 10
37534.04592656001
 20
-17389.14936046003
 30
0.0
 40
2.187557256506918
100
AcDbArc
 50
279.0717992648611
 51
83.66033837562392
  0
ARC
  5
21B
330
1F
100
AcDbEntity
  8
Calm 810
  6
Continuous
 62
    18
420
        0
 48
162.0000075340271
370
    25
100
AcDbCircle
 10
37554.87498128779
 20
-17385.15126109639
 30
0.0
 40
6.159985684698465
100
AcDbArc
 50
196.5322763668531
 51
266.8258399252677
  0
ARC
  5
21C
330
1F
100
AcDbEntity
  8
Calm 810
  6
Continuous
 62
    18
420
        0
 48
162.0000075340271
370
    25
100
AcDbCircle
 10
37554.8758181614
 20
-17383.85194768967
 30
0.0
 40
6.159910700022103
100
AcDbArc
 50
93.19941229080963
 51
163.4930068869733
  0
ARC
  5
21D
330
1F
100
AcDbEntity
  8
Calm 810
  6
Continuous
 62
    18
420
        0
 48
162.0000075340271
370
    25
100
AcDbCircle
 10
37554.36743035515
 20
-17383.70476308067
 30
0.0
 40
10.8085212155781
100
AcDbArc
 50
89.11486442915225
 51
136.5283713875384
  0
ARC
  5
21E
330
1F
100
AcDbEntity
  8
Calm 810
  6
Continuous
 62
    18
420
        0
 48
162.0000075340271
370
    25
100
AcDbCircle
 10
37555.23983824975
 20
-17383.80301855598
 30
0.0
 40
11.52138668666262
100
AcDbArc
 50
139.1595473476376
 51
183.4766818662686
  0
ARC
  5
21F
330
1F
100
AcDbEntity
  8
Calm 810
  6
Continuous
 62
    18
420
        0
 48
162.0000075340271
370
    25
100
AcDbCircle
 10
37555.24004548782
 20
-17385.20023435557
 30
0.0
 40
11.52158436745914
100
AcDbArc
 50
176.5241317977107
 51
220.8411051562533
  0
ARC
  5
220
330
1F
100
AcDbEntity
  8
Calm 810
  6
Continuous
 62
    18
420
        0
 48
162.0000075340271
370
    25
100
AcDbCircle
 10
37554.36699858432
 20
-17385.29790189449
 30
0.0
 40
10.80866551491771
100
AcDbArc
 50
223.4768675460023
 51
270.890237122227
  0
ARC
  5
221
330
1F
100
AcDbEntity
  8
Calm 810
  6
Continuous
 62
    18
420
        0
 48
162.0000075340271
370
    25
100
AcDbCircle
 10
37590.33320244541
 20
-17379.98642579995
 30
0.0
 40
2.186180569544971
100
AcDbArc
 50
279.0895312176609
 51
83.67533595583488
  0
ARC
  5
222
330
1F
100
AcDbEntity
  8
Calm 810
  6
Continuous
 62
    18
420
        0
 48
162.0000075340271
370
    25
100
AcDbCircle
 10
37590.94104540983
 20
-17380.6044946164
 30
0.0
 40
6.369742554847889
100
AcDbArc
 50
278.0073079506292
 51
5.572465930779263
  0
ARC
  5
223
330
1F
100
AcDbEntity
  8
Calm 810
  6
Continuous
 62
    18
420
        0
 48
162.0000075340271
370
    25
100
AcDbCircle
 10
37590.94261907156
 20
-17379.37118779126
 30
0.0
 40
6.367812608690737
100
AcDbArc
 50
354.4597953776715
 51
92.38467978670899
  0
ARC
  5
224
330
1F
100
AcDbEntity
  8
Calm 810
  6
Continuous
 62
    18
420
        0
 48
162.0000075340271
370
    25
100
AcDbCircle
 10
37446.77371277323
 20
-17376.02184878787
 30
0.0
 40
3.224244236885948
100
AcDbArc
 50
26.28899618675848
 51
181.2713443681834
  0
ARC
  5
225
330
1F
100
AcDbEntity
  8
Calm 810
  6
Continuous
 62
    18
420
        0
 48
162.0000075340271
370
    25
100
AcDbCircle
 10
37468.94609421336
 20
-17376.02124321445
 30
0.0
 40
3.223350832532582
100
AcDbArc
 50
358.7364020576685
 51
153.7147532946061
  0
ARC
  5
226
330
1F
100
AcDbEntity
  8
Calm 810
  6
Continuous
 62
    18
420
        0
 48
162.0000075340271
370
    25
100
AcDbCircle
 10
37457.86061300229
 20
-17392.60483276643
 30
0.0
 40
2.867897451272214
100
AcDbArc
 50
204.4719426219853
 51
335.5644869397248
  0
INSERT
  5
22B
330
1F
100
AcDbEntity
  8
Calm 815
  6
Continuous
 62
    18
420
        0
 48
50.00000038146973
370
    25
100
AcDbBlockReference
  2
Dimension24
 10
0.0
 20
0.0
 30
0.0
  0
INSERT
  5
22F
330
1F
100
AcDbEntity
  8
Calm 815
  6
Continuous
 62
    18
420
        0
 48
50.00000038146973
370
    25
100
AcDbBlockReference
  2
Dimension25
 10
0.0
 20
0.0
 30
0.0
  0
INSERT
  5
233
330
1F
100
AcDbEntity
  8
Calm 815
  6
Continuous
 62
    18
420
        0
 48
50.00000038146973
370
    25
100
AcDbBlockReference
  2
Dimension26
 10
0.0
 20
0.0
 30
0.0
  0
INSERT
  5
237
330
1F
100
AcDbEntity
  8
Calm 815
  6
Continuous
 62
    18
420
        0
 48
50.00000038146973
370
    25
100
AcDbBlockReference
  2
Dimension27
 10
0.0
 20
0.0
 30
0.0
  0
INSERT
  5
23B
330
1F
100
AcDbEntity
  8
Calm 815
  6
Continuous
 62
    18
420
        0
 48
50.00000038146973
370
    25
100
AcDbBlockReference
  2
Dimension28
 10
0.0
 20
0.0
 30
0.0
  0
INSERT
  5
23F
330
1F
100
AcDbEntity
  8
Calm 815
  6
Continuous
 62
    18
420
        0
 48
50.00000038146973
370
    25
100
AcDbBlockReference
  2
Dimension29
 10
0.0
 20
0.0
 30
0.0
  0
INSERT
  5
243
330
1F
100
AcDbEntity
  8
Calm 815
  6
Continuous
 62
    18
420
        0
 48
50.00000038146973
370
    25
100
AcDbBlockReference
  2
Dimension30
 10
0.0
 20
0.0
 30
0.0
  0
INSERT
  5
247
330
1F
100
AcDbEntity
  8
Calm 815
  6
Continuous
 62
    18
420
        0
 48
50.00000038146973
370
    25
100
AcDbBlockReference
  2
Dimension31
 10
0.0
 20
0.0
 30
0.0
  0
INSERT
  5
24B
330
1F
100
AcDbEntity
  8
Calm 815
  6
Continuous
 62
    18
420
        0
 48
50.00000038146973
370
    25
100
AcDbBlockReference
  2
Dimension32
 10
0.0
 20
0.0
 30
0.0
  0
INSERT
  5
24F
330
1F
100
AcDbEntity
  8
Calm 815
  6
Continuous
 62
    18
420
        0
 48
50.00000038146973
370
    25
100
AcDbBlockReference
  2
Dimension33
 10
0.0
 20
0.0
 30
0.0
  0
INSERT
  5
253
330
1F
100
AcDbEntity
  8
Calm 815
  6
Continuous
 62
    18
420
        0
 48
50.00000038146973
370
    25
100
AcDbBlockReference
  2
Dimension34
 10
0.0
 20
0.0
 30
0.0
  0
INSERT
  5
257
330
1F
100
AcDbEntity
  8
Calm 815
  6
Continuous
 62
    18
420
        0
 48
50.00000038146973
370
    25
100
AcDbBlockReference
  2
Dimension35
 10
0.0
 20
0.0
 30
0.0
  0
INSERT
  5
25B
330
1F
100
AcDbEntity
  8
Calm 815
  6
Continuous
 62
    18
420
        0
 48
50.00000038146973
370
    25
100
AcDbBlockReference
  2
Dimension36
 10
0.0
 20
0.0
 30
0.0
  0
INSERT
  5
25F
330
1F
100
AcDbEntity
  8
Calm 815
  6
Continuous
 62
    18
420
        0
 48
50.00000038146973
370
    25
100
AcDbBlockReference
  2
Dimension37
 10
0.0
 20
0.0
 30
0.0
  0
INSERT
  5
263
330
1F
100
AcDbEntity
  8
Calm 815
  6
Continuous
 62
    18
420
        0
 48
50.00000038146973
370
    25
100
AcDbBlockReference
  2
Dimension38
 10
0.0
 20
0.0
 30
0.0
  0
INSERT
  5
267
330
1F
100
AcDbEntity
  8
Calm 815
  6
Continuous
 62
    18
420
        0
 48
50.00000038146973
370
    25
100
AcDbBlockReference
  2
Dimension39
 10
0.0
 20
0.0
 30
0.0
  0
INSERT
  5
26B
330
1F
100
AcDbEntity
  8
Calm 815
  6
Continuous
 62
    18
420
        0
 48
50.00000038146973
370
    25
100
AcDbBlockReference
  2
Dimension40
 10
0.0
 20
0.0
 30
0.0
  0
ENDSEC
  0
SECTION
  2
OBJECTS
  0
DICTIONARY
  5
C
330
0
100
AcDbDictionary
281
     1
  3
ACAD_GROUP
350
D
  3
ACAD_LAYOUT
350
1A
  3
ACAD_MATERIAL
350
3B
  3
ACAD_MLEADERSTYLE
350
295
  3
ACAD_MLINESTYLE
350
17
  3
ACAD_PLOTSETTINGS
350
19
  3
ACAD_PLOTSTYLENAME
350
E
  3
ACAD_TABLESTYLE
350
294
  3
ACAD_VISUALSTYLE
350
2A
  0
DICTIONARY
  5
D
102
{ACAD_REACTORS
330
C
102
}
330
C
100
AcDbDictionary
281
     1
  0
DICTIONARY
  5
1A
102
{ACAD_REACTORS
330
C
102
}
330
C
100
AcDbDictionary
281
     1
  3
Layout1
350
1E
  3
Layout2
350
26
  3
Model
350
22
  0
DICTIONARY
  5
3B
102
{ACAD_REACTORS
330
C
102
}
330
C
100
AcDbDictionary
281
     1
  3
ByBlock
350
3D
  3
ByLayer
350
3C
  3
Global
350
3E
  0
DICTIONARY
  5
295
102
{ACAD_REACTORS
330
C
102
}
330
C
100
AcDbDictionary
281
     1
  0
DICTIONARY
  5
17
102
{ACAD_REACTORS
330
C
102
}
330
C
100
AcDbDictionary
281
     1
  3
Standard
350
18
  0
DICTIONARY
  5
19
102
{ACAD_REACTORS
330
C
102
}
330
C
100
AcDbDictionary
281
     1
  0
ACDBDICTIONARYWDFLT
  5
E
102
{ACAD_REACTORS
330
C
102
}
330
C
100
AcDbDictionary
281
     1
  3
Normal
350
F
100
AcDbDictionaryWithDefault
340
F
  0
DICTIONARY
  5
294
102
{ACAD_REACTORS
330
C
102
}
330
C
100
AcDbDictionary
281
     1
  0
DICTIONARY
  5
2A
102
{ACAD_REACTORS
330
C
102
}
330
C
100
AcDbDictionary
281
     1
  3
2dWireframe
350
2F
  3
3D Hidden
350
31
  3
3dWireframe
350
30
  3
Basic
350
32
  3
Brighten
350
36
  3
ColorChange
350
3A
  3
Conceptual
350
34
  3
Dim
350
35
  3
Facepattern
350
39
  3
Flat
350
2B
  3
FlatWithEdges
350
2C
  3
Gouraud
350
2D
  3
GouraudWithEdges
350
2E
  3
Linepattern
350
38
  3
Realistic
350
33
  3
Thicken
350
37
  0
LAYOUT
  5
1E
102
{ACAD_REACTORS
330
1A
102
}
330
1A
100
AcDbPlotSettings
  1

  2
none_device
  4

  6

 40
0.0
 41
0.0
 42
0.0
 43
0.0
 44
0.0
 45
0.0
 46
0.0
 47
0.0
 48
0.0
 49
0.0
140
0.0
141
0.0
142
1.0
143
1.0
 70
   688
 72
     0
 73
     0
 74
     5
  7

 75
    16
 76
     0
 77
     2
 78
   300
147
1.0
148
0.0
149
0.0
100
AcDbLayout
  1
Layout1
 70
     1
 71
     1
 10
0.0
 20
0.0
 11
420.0
 21
297.0
 12
0.0
 22
0.0
 32
0.0
 14
1.000000000000000E+20
 24
1.000000000000000E+20
 34
1.000000000000000E+20
 15
-1.000000000000000E+20
 25
-1.000000000000000E+20
 35
-1.000000000000000E+20
146
0.0
 13
0.0
 23
0.0
 33
0.0
 16
1.0
 26
0.0
 36
0.0
 17
0.0
 27
1.0
 37
0.0
 76
     0
330
1B
  0
LAYOUT
  5
26
102
{ACAD_REACTORS
330
1A
102
}
330
1A
100
AcDbPlotSettings
  1

  2
none_device
  4

  6

 40
0.0
 41
0.0
 42
0.0
 43
0.0
 44
0.0
 45
0.0
 46
0.0
 47
0.0
 48
0.0
 49
0.0
140
0.0
141
0.0
142
1.0
143
1.0
 70
   688
 72
     0
 73
     0
 74
     5
  7

 75
    16
 76
     0
 77
     2
 78
   300
147
1.0
148
0.0
149
0.0
100
AcDbLayout
  1
Layout2
 70
     1
 71
     2
 10
0.0
 20
0.0
 11
0.0
 21
0.0
 12
0.0
 22
0.0
 32
0.0
 14
0.0
 24
0.0
 34
0.0
 15
0.0
 25
0.0
 35
0.0
146
0.0
 13
0.0
 23
0.0
 33
0.0
 16
1.0
 26
0.0
 36
0.0
 17
0.0
 27
1.0
 37
0.0
 76
     0
330
23
  0
LAYOUT
  5
22
102
{ACAD_REACTORS
330
1A
102
}
330
1A
100
AcDbPlotSettings
  1

  2
none_device
  4

  6

 40
0.0
 41
0.0
 42
0.0
 43
0.0
 44
0.0
 45
0.0
 46
0.0
 47
0.0
 48
0.0
 49
0.0
140
0.0
141
0.0
142
1.0
143
1.0
 70
  1712
 72
     0
 73
     0
 74
     0
  7

 75
     0
 76
     0
 77
     2
 78
   300
147
1.0
148
0.0
149
0.0
100
AcDbLayout
  1
Model
 70
     1
 71
     0
 10
0.0
 20
0.0
 11
420.0
 21
297.0
 12
0.0
 22
0.0
 32
0.0
 14
73127.79773009084
 24
-34600.2006082259
 34
0.0
 15
74611.31049695106
 25
-33600.20060059651
 35
0.0
146
0.0
 13
0.0
 23
0.0
 33
0.0
 16
1.0
 26
0.0
 36
0.0
 17
0.0
 27
1.0
 37
0.0
 76
     0
330
1F
331
29
  0
MATERIAL
  5
3D
102
{ACAD_REACTORS
330
3B
102
}
102
{ACAD_XDICTIONARY
360
290
102
}
330
3B
100
AcDbMaterial
  1
ByBlock
  0
MATERIAL
  5
3C
102
{ACAD_REACTORS
330
3B
102
}
102
{ACAD_XDICTIONARY
360
28E
102
}
330
3B
100
AcDbMaterial
  1
ByLayer
  0
MATERIAL
  5
3E
102
{ACAD_REACTORS
330
3B
102
}
102
{ACAD_XDICTIONARY
360
292
102
}
330
3B
100
AcDbMaterial
  1
Global
  0
MLINESTYLE
  5
18
102
{ACAD_REACTORS
330
17
102
}
330
17
100
AcDbMlineStyle
  2
Standard
 70
     0
  3

 62
   256
 51
90.0
 52
90.0
 71
     2
 49
0.5
 62
   256
  6
BYLAYER
 49
-0.5
 62
   256
  6
BYLAYER
  0
ACDBPLACEHOLDER
  5
F
102
{ACAD_REACTORS
330
E
102
}
330
E
  0
VISUALSTYLE
  5
2F
102
{ACAD_REACTORS
330
2A
102
}
102
{ACAD_XDICTIONARY
360
276
102
}
330
2A
100
AcDbVisualStyle
  2
2dWireframe
 70
     4
 71
     0
 72
     2
 73
     0
 90
        0
 40
-0.6
 41
-30.0
 62
     5
 63
     7
421
 16777215
 74
     1
 91
        4
 64
     7
 65
   257
 75
     1
175
     1
 42
1.0
 92
        0
 66
   257
 43
1.0
 76
     1
 77
     6
 78
     2
 67
     7
 79
     5
170
     0
171
     0
290
     0
174
     0
 93
        1
 44
0.0
173
     0
291
     0
 45
0.0
1001
ACAD
1000
AcDbSavedByObjectVersion
1070
     0
  0
VISUALSTYLE
  5
31
102
{ACAD_REACTORS
330
2A
102
}
102
{ACAD_XDICTIONARY
360
27A
102
}
330
2A
100
AcDbVisualStyle
  2
3D Hidden
 70
     6
 71
     1
 72
     2
 73
     2
 90
        0
 40
-0.6
 41
-30.0
 62
     5
 63
     7
421
 16777215
 74
     2
 91
        2
 64
     7
 65
   257
 75
     2
175
     1
 42
40.0
 92
        0
 66
   257
 43
1.0
 76
     1
 77
     6
 78
     2
 67
     7
 79
     3
170
     0
171
     0
290
     0
174
     0
 93
        1
 44
0.0
173
     0
291
     0
 45
0.0
1001
ACAD
1000
AcDbSavedByObjectVersion
1070
     0
  0
VISUALSTYLE
  5
30
102
{ACAD_REACTORS
330
2A
102
}
102
{ACAD_XDICTIONARY
360
278
102
}
330
2A
100
AcDbVisualStyle
  2
3dWireframe
 70
     5
 71
     0
 72
     2
 73
     0
 90
        0
 40
-0.6
 41
-30.0
 62
     5
 63
     7
421
 16777215
 74
     1
 91
        4
 64
     7
 65
   257
 75
     1
175
     1
 42
1.0
 92
        0
 66
   257
 43
1.0
 76
     1
 77
     6
 78
     2
 67
     7
 79
     5
170
     0
171
     0
290
     0
174
     0
 93
        1
 44
0.0
173
     0
291
     0
 45
0.0
1001
ACAD
1000
AcDbSavedByObjectVersion
1070
     0
  0
VISUALSTYLE
  5
32
102
{ACAD_REACTORS
330
2A
102
}
102
{ACAD_XDICTIONARY
360
27C
102
}
330
2A
100
AcDbVisualStyle
  2
Basic
 70
     7
 71
     1
 72
     0
 73
     1
 90
        0
 40
-0.6
 41
-30.0
 62
     5
 63
     7
421
 16777215
 74
     0
 91
        4
 64
     7
 65
   257
 75
     1
175
     1
 42
1.0
 92
        8
 66
     7
 43
1.0
 76
     1
 77
     6
 78
     2
 67
     7
 79
     5
170
     0
171
     0
290
     0
174
     0
 93
        1
 44
0.0
173
     0
291
     1
 45
0.0
1001
ACAD
1000
AcDbSavedByObjectVersion
1070
     0
  0
VISUALSTYLE
  5
36
102
{ACAD_REACTORS
330
2A
102
}
102
{ACAD_XDICTIONARY
360
284
102
}
330
2A
100
AcDbVisualStyle
  2
Brighten
 70
    12
 71
     2
 72
     2
 73
     0
 90
        0
 40
-0.6
 41
-30.0
 62
     5
 63
     7
421
 16777215
 74
     1
 91
        4
 64
     7
 65
   257
 75
     1
175
     1
 42
1.0
 92
        8
 66
     7
 43
1.0
 76
     1
 77
     6
 78
     2
 67
     7
 79
     5
170
     0
171
     0
290
     0
174
     0
 93
        1
 44
50.0
173
     0
291
     1
 45
0.0
1001
ACAD
1000
AcDbSavedByObjectVersion
1070
     0
  0
VISUALSTYLE
  5
3A
102
{ACAD_REACTORS
330
2A
102
}
102
{ACAD_XDICTIONARY
360
28C
102
}
330
2A
100
AcDbVisualStyle
  2
ColorChange
 70
    16
 71
     2
 72
     2
 73
     3
 90
        0
 40
-0.6
 41
-30.0
 62
     5
 63
     8
421
  8421504
 74
     1
 91
        4
 64
     7
 65
   257
 75
     1
175
     1
 42
1.0
 92
        8
 66
     8
424
  8421504
 43
1.0
 76
     1
 77
     6
 78
     2
 67
     7
 79
     5
170
     0
171
     0
290
     0
174
     0
 93
        1
 44
0.0
173
     0
291
     1
 45
0.0
1001
ACAD
1000
AcDbSavedByObjectVersion
1070
     0
  0
VISUALSTYLE
  5
34
102
{ACAD_REACTORS
330
2A
102
}
102
{ACAD_XDICTIONARY
360
280
102
}
330
2A
100
AcDbVisualStyle
  2
Conceptual
 70
     9
 71
     3
 72
     2
 73
     0
 90
        0
 40
-0.6
 41
-30.0
 62
     5
 63
     7
421
 16777215
 74
     2
 91
        2
 64
     7
 65
   257
 75
     1
175
     1
 42
40.0
 92
        8
 66
     7
 43
1.0
 76
     1
 77
     6
 78
     2
 67
     7
 79
     3
170
     0
171
     0
290
     0
174
     0
 93
        1
 44
0.0
173
     0
291
     0
 45
0.0
1001
ACAD
1000
AcDbSavedByObjectVersion
1070
     0
  0
VISUALSTYLE
  5
35
102
{ACAD_REACTORS
330
2A
102
}
102
{ACAD_XDICTIONARY
360
282
102
}
330
2A
100
AcDbVisualStyle
  2
Dim
 70
    11
 71
     2
 72
     2
 73
     0
 90
        0
 40
-0.6
 41
-30.0
 62
     5
 63
     7
421
 16777215
 74
     1
 91
        4
 64
     7
 65
   257
 75
     1
175
     1
 42
1.0
 92
        8
 66
     7
 43
1.0
 76
     1
 77
     6
 78
     2
 67
     7
 79
     5
170
     0
171
     0
290
     0
174
     0
 93
        1
 44
-50.0
173
     0
291
     1
 45
0.0
1001
ACAD
1000
AcDbSavedByObjectVersion
1070
     0
  0
VISUALSTYLE
  5
39
102
{ACAD_REACTORS
330
2A
102
}
102
{ACAD_XDICTIONARY
360
28A
102
}
330
2A
100
AcDbVisualStyle
  2
Facepattern
 70
    15
 71
     2
 72
     2
 73
     0
 90
        0
 40
-0.6
 41
-30.0
 62
     5
 63
     7
421
 16777215
 74
     1
 91
        4
 64
     7
 65
   257
 75
     1
175
     1
 42
1.0
 92
        8
 66
     7
 43
1.0
 76
     1
 77
     6
 78
     2
 67
     7
 79
     5
170
     0
171
     0
290
     0
174
     0
 93
        1
 44
0.0
173
     0
291
     1
 45
0.0
1001
ACAD
1000
AcDbSavedByObjectVersion
1070
     0
  0
VISUALSTYLE
  5
2B
102
{ACAD_REACTORS
330
2A
102
}
102
{ACAD_XDICTIONARY
360
26E
102
}
330
2A
100
AcDbVisualStyle
  2
Flat
 70
     0
 71
     2
 72
     1
 73
     1
 90
        2
 40
-0.6
 41
30.0
 62
     5
 63
     7
421
 16777215
 74
     0
 91
        4
 64
     7
 65
   257
 75
     1
175
     1
 42
1.0
 92
        8
 66
     7
 43
1.0
 76
     1
 77
     6
 78
     2
 67
     7
 79
     5
170
     0
171
     0
290
     0
174
     0
 93
       13
 44
0.0
173
     0
291
     1
 45
0.0
1001
ACAD
1000
AcDbSavedByObjectVersion
1070
     0
  0
VISUALSTYLE
  5
2C
102
{ACAD_REACTORS
330
2A
102
}
102
{ACAD_XDICTIONARY
360
270
102
}
330
2A
100
AcDbVisualStyle
  2
FlatWithEdges
 70
     1
 71
     2
 72
     1
 73
     1
 90
        2
 40
-0.6
 41
30.0
 62
     5
 63
     7
421
 16777215
 74
     1
 91
        4
 64
     7
 65
   257
 75
     1
175
     1
 42
1.0
 92
        0
 66
   257
 43
1.0
 76
     1
 77
     6
 78
     2
 67
     7
 79
     5
170
     0
171
     0
290
     0
174
     0
 93
       13
 44
0.0
173
     0
291
     1
 45
0.0
1001
ACAD
1000
AcDbSavedByObjectVersion
1070
     0
  0
VISUALSTYLE
  5
2D
102
{ACAD_REACTORS
330
2A
102
}
102
{ACAD_XDICTIONARY
360
272
102
}
330
2A
100
AcDbVisualStyle
  2
Gouraud
 70
     2
 71
     2
 72
     2
 73
     1
 90
        2
 40
-0.6
 41
30.0
 62
     5
 63
     7
421
 16777215
 74
     0
 91
        4
 64
     7
 65
   257
 75
     1
175
     1
 42
1.0
 92
        0
 66
     7
 43
1.0
 76
     1
 77
     6
 78
     2
 67
     7
 79
     5
170
     0
171
     0
290
     0
174
     0
 93
       13
 44
0.0
173
     0
291
     1
 45
0.0
1001
ACAD
1000
AcDbSavedByObjectVersion
1070
     0
  0
VISUALSTYLE
  5
2E
102
{ACAD_REACTORS
330
2A
102
}
102
{ACAD_XDICTIONARY
360
274
102
}
330
2A
100
AcDbVisualStyle
  2
GouraudWithEdges
 70
     3
 71
     2
 72
     2
 73
     1
 90
        2
 40
-0.6
 41
30.0
 62
     5
 63
     7
421
 16777215
 74
     1
 91
        4
 64
     7
 65
   257
 75
     1
175
     1
 42
1.0
 92
        0
 66
   257
 43
1.0
 76
     1
 77
     6
 78
     2
 67
     7
 79
     5
170
     0
171
     0
290
     0
174
     0
 93
       13
 44
0.0
173
     0
291
     1
 45
0.0
1001
ACAD
1000
AcDbSavedByObjectVersion
1070
     0
  0
VISUALSTYLE
  5
38
102
{ACAD_REACTORS
330
2A
102
}
102
{ACAD_XDICTIONARY
360
288
102
}
330
2A
100
AcDbVisualStyle
  2
Linepattern
 70
    14
 71
     2
 72
     2
 73
     0
 90
        0
 40
-0.6
 41
-30.0
 62
     5
 63
     7
421
 16777215
 74
     1
 91
        4
 64
     7
 65
   257
 75
     7
175
     7
 42
1.0
 92
        8
 66
     7
 43
1.0
 76
     1
 77
     6
 78
     2
 67
     7
 79
     5
170
     0
171
     0
290
     0
174
     0
 93
        1
 44
0.0
173
     0
291
     1
 45
0.0
1001
ACAD
1000
AcDbSavedByObjectVersion
1070
     0
  0
VISUALSTYLE
  5
33
102
{ACAD_REACTORS
330
2A
102
}
102
{ACAD_XDICTIONARY
360
27E
102
}
330
2A
100
AcDbVisualStyle
  2
Realistic
 70
     8
 71
     2
 72
     2
 73
     0
 90
        0
 40
-0.6
 41
-30.0
 62
     5
 63
     7
421
 16777215
 74
     1
 91
        0
 64
     7
 65
   257
 75
     1
175
     1
 42
1.0
 92
        8
 66
     8
424
  7895160
 43
1.0
 76
     1
 77
     6
 78
     2
 67
     7
 79
     5
170
     0
171
     0
290
     0
174
     0
 93
       13
 44
0.0
173
     0
291
     0
 45
0.0
1001
ACAD
1000
AcDbSavedByObjectVersion
1070
     0
  0
VISUALSTYLE
  5
37
102
{ACAD_REACTORS
330
2A
102
}
102
{ACAD_XDICTIONARY
360
286
102
}
330
2A
100
AcDbVisualStyle
  2
Thicken
 70
    13
 71
     2
 72
     2
 73
     0
 90
        0
 40
-0.6
 41
-30.0
 62
     5
 63
     7
421
 16777215
 74
     1
 91
        4
 64
     7
 65
   257
 75
     1
175
     1
 42
1.0
 92
       12
 66
     7
 43
1.0
 76
     1
 77
     6
 78
     2
 67
     7
 79
     5
170
     0
171
     0
290
     0
174
     0
 93
        1
 44
0.0
173
     0
291
     1
 45
0.0
1001
ACAD
1000
AcDbSavedByObjectVersion
1070
     0
  0
DICTIONARY
  5
290
330
3D
100
AcDbDictionary
280
     1
281
     1
  3
ACAD_XREC_ROUNDTRIP
360
291
  0
DICTIONARY
  5
28E
330
3C
100
AcDbDictionary
280
     1
281
     1
  3
ACAD_XREC_ROUNDTRIP
360
28F
  0
DICTIONARY
  5
292
330
3E
100
AcDbDictionary
280
     1
281
     1
  3
ACAD_XREC_ROUNDTRIP
360
293
  0
DICTIONARY
  5
276
330
2F
100
AcDbDictionary
280
     1
281
     1
  3
ACAD_XREC_ROUNDTRIP
360
277
  0
DICTIONARY
  5
27A
330
31
100
AcDbDictionary
280
     1
281
     1
  3
ACAD_XREC_ROUNDTRIP
360
27B
  0
DICTIONARY
  5
278
330
30
100
AcDbDictionary
280
     1
281
     1
  3
ACAD_XREC_ROUNDTRIP
360
279
  0
DICTIONARY
  5
27C
330
32
100
AcDbDictionary
280
     1
281
     1
  3
ACAD_XREC_ROUNDTRIP
360
27D
  0
DICTIONARY
  5
284
330
36
100
AcDbDictionary
280
     1
281
     1
  3
ACAD_XREC_ROUNDTRIP
360
285
  0
DICTIONARY
  5
28C
330
3A
100
AcDbDictionary
280
     1
281
     1
  3
ACAD_XREC_ROUNDTRIP
360
28D
  0
DICTIONARY
  5
280
330
34
100
AcDbDictionary
280
     1
281
     1
  3
ACAD_XREC_ROUNDTRIP
360
281
  0
DICTIONARY
  5
282
330
35
100
AcDbDictionary
280
     1
281
     1
  3
ACAD_XREC_ROUNDTRIP
360
283
  0
DICTIONARY
  5
28A
330
39
100
AcDbDictionary
280
     1
281
     1
  3
ACAD_XREC_ROUNDTRIP
360
28B
  0
DICTIONARY
  5
26E
330
2B
100
AcDbDictionary
280
     1
281
     1
  3
ACAD_XREC_ROUNDTRIP
360
26F
  0
DICTIONARY
  5
270
330
2C
100
AcDbDictionary
280
     1
281
     1
  3
ACAD_XREC_ROUNDTRIP
360
271
  0
DICTIONARY
  5
272
330
2D
100
AcDbDictionary
280
     1
281
     1
  3
ACAD_XREC_ROUNDTRIP
360
273
  0
DICTIONARY
  5
274
330
2E
100
AcDbDictionary
280
     1
281
     1
  3
ACAD_XREC_ROUNDTRIP
360
275
  0
DICTIONARY
  5
288
330
38
100
AcDbDictionary
280
     1
281
     1
  3
ACAD_XREC_ROUNDTRIP
360
289
  0
DICTIONARY
  5
27E
330
33
100
AcDbDictionary
280
     1
281
     1
  3
ACAD_XREC_ROUNDTRIP
360
27F
  0
DICTIONARY
  5
286
330
37
100
AcDbDictionary
280
     1
281
     1
  3
ACAD_XREC_ROUNDTRIP
360
287
  0
XRECORD
  5
291
102
{ACAD_REACTORS
330
290
102
}
330
290
100
AcDbXrecord
280
     1
102
MATERIAL
148
0.0
149
0.0
149
0.0
 93
        0
 94
      127
282
     0
 72
     1
 77
     1
171
     1
175
     1
179
     1
273
     0
  0
XRECORD
  5
28F
102
{ACAD_REACTORS
330
28E
102
}
330
28E
100
AcDbXrecord
280
     1
102
MATERIAL
148
0.0
149
0.0
149
0.0
 93
        0
 94
      127
282
     0
 72
     1
 77
     1
171
     1
175
     1
179
     1
273
     0
  0
XRECORD
  5
293
102
{ACAD_REACTORS
330
292
102
}
330
292
100
AcDbXrecord
280
     1
102
MATERIAL
148
0.0
149
0.0
149
0.0
 93
        0
 94
      127
282
     0
 72
     1
 77
     1
171
     1
175
     1
179
     1
273
     0
  0
XRECORD
  5
277
102
{ACAD_REACTORS
330
276
102
}
330
276
100
AcDbXrecord
280
     1
102
RTVSPropertyOp0
 70
     1
102
RTVSPropertyOp1
 70
     1
102
RTVSPropertyOp2
 70
     1
102
RTVSPropertyOp3
 70
     1
102
RTVSPropertyOp4
 70
     1
102
RTVSPropertyOp5
 70
     1
102
RTVSPropertyOp6
 70
     1
102
RTVSPropertyOp7
 70
     1
102
RTVSPropertyOp8
 70
     1
102
RTVSPropertyOp9
 70
     1
102
RTVSPropertyOp10
 70
     1
102
RTVSPropertyOp11
 70
     1
102
RTVSPropertyOp12
 70
     1
102
RTVSPropertyOp13
 70
     1
102
RTVSPropertyOp14
 70
     1
102
RTVSPropertyOp15
 70
     1
102
RTVSPropertyOp16
 70
     1
102
RTVSPropertyOp17
 70
     1
102
RTVSPropertyOp18
 70
     1
102
RTVSPropertyOp19
 70
     1
102
RTVSPropertyOp20
 70
     1
102
RTVSPropertyOp21
 70
     1
102
RTVSPropertyOp22
 70
     1
102
RTVSPropertyOp23
 70
     1
102
RTVSPropertyOp24
 70
     1
102
RTVSPropertyOp25
 70
     1
102
RTVSPropertyOp26
 70
     1
102
RTVSPropertyOp27
 70
     1
  0
XRECORD
  5
27B
102
{ACAD_REACTORS
330
27A
102
}
330
27A
100
AcDbXrecord
280
     1
102
RTVSPropertyOp0
 70
     1
102
RTVSPropertyOp1
 70
     1
102
RTVSPropertyOp2
 70
     1
102
RTVSPropertyOp3
 70
     1
102
RTVSPropertyOp4
 70
     1
102
RTVSPropertyOp5
 70
     1
102
RTVSPropertyOp6
 70
     1
102
RTVSPropertyOp7
 70
     1
102
RTVSPropertyOp8
 70
     1
102
RTVSPropertyOp9
 70
     1
102
RTVSPropertyOp10
 70
     1
102
RTVSPropertyOp11
 70
     1
102
RTVSPropertyOp12
 70
     1
102
RTVSPropertyOp13
 70
     1
102
RTVSPropertyOp14
 70
     1
102
RTVSPropertyOp15
 70
     1
102
RTVSPropertyOp16
 70
     1
102
RTVSPropertyOp17
 70
     1
102
RTVSPropertyOp18
 70
     1
102
RTVSPropertyOp19
 70
     1
102
RTVSPropertyOp20
 70
     1
102
RTVSPropertyOp21
 70
     1
102
RTVSPropertyOp22
 70
     1
102
RTVSPropertyOp23
 70
     1
102
RTVSPropertyOp24
 70
     1
102
RTVSPropertyOp25
 70
     1
102
RTVSPropertyOp26
 70
     1
102
RTVSPropertyOp27
 70
     1
  0
XRECORD
  5
279
102
{ACAD_REACTORS
330
278
102
}
330
278
100
AcDbXrecord
280
     1
102
RTVSPropertyOp0
 70
     1
102
RTVSPropertyOp1
 70
     1
102
RTVSPropertyOp2
 70
     1
102
RTVSPropertyOp3
 70
     1
102
RTVSPropertyOp4
 70
     1
102
RTVSPropertyOp5
 70
     1
102
RTVSPropertyOp6
 70
     1
102
RTVSPropertyOp7
 70
     1
102
RTVSPropertyOp8
 70
     1
102
RTVSPropertyOp9
 70
     1
102
RTVSPropertyOp10
 70
     1
102
RTVSPropertyOp11
 70
     1
102
RTVSPropertyOp12
 70
     1
102
RTVSPropertyOp13
 70
     1
102
RTVSPropertyOp14
 70
     1
102
RTVSPropertyOp15
 70
     1
102
RTVSPropertyOp16
 70
     1
102
RTVSPropertyOp17
 70
     1
102
RTVSPropertyOp18
 70
     1
102
RTVSPropertyOp19
 70
     1
102
RTVSPropertyOp20
 70
     1
102
RTVSPropertyOp21
 70
     1
102
RTVSPropertyOp22
 70
     1
102
RTVSPropertyOp23
 70
     1
102
RTVSPropertyOp24
 70
     1
102
RTVSPropertyOp25
 70
     1
102
RTVSPropertyOp26
 70
     1
102
RTVSPropertyOp27
 70
     1
  0
XRECORD
  5
27D
102
{ACAD_REACTORS
330
27C
102
}
330
27C
100
AcDbXrecord
280
     1
102
RTVSPropertyOp0
 70
     1
102
RTVSPropertyOp1
 70
     1
102
RTVSPropertyOp2
 70
     1
102
RTVSPropertyOp3
 70
     1
102
RTVSPropertyOp4
 70
     1
102
RTVSPropertyOp5
 70
     1
102
RTVSPropertyOp6
 70
     1
102
RTVSPropertyOp7
 70
     1
102
RTVSPropertyOp8
 70
     1
102
RTVSPropertyOp9
 70
     1
102
RTVSPropertyOp10
 70
     1
102
RTVSPropertyOp11
 70
     1
102
RTVSPropertyOp12
 70
     1
102
RTVSPropertyOp13
 70
     1
102
RTVSPropertyOp14
 70
     1
102
RTVSPropertyOp15
 70
     1
102
RTVSPropertyOp16
 70
     1
102
RTVSPropertyOp17
 70
     1
102
RTVSPropertyOp18
 70
     1
102
RTVSPropertyOp19
 70
     1
102
RTVSPropertyOp20
 70
     1
102
RTVSPropertyOp21
 70
     1
102
RTVSPropertyOp22
 70
     1
102
RTVSPropertyOp23
 70
     1
102
RTVSPropertyOp24
 70
     1
102
RTVSPropertyOp25
 70
     1
102
RTVSPropertyOp26
 70
     1
102
RTVSPropertyOp27
 70
     1
  0
XRECORD
  5
285
102
{ACAD_REACTORS
330
284
102
}
330
284
100
AcDbXrecord
280
     1
102
RTVSPropertyOp0
 70
     1
102
RTVSPropertyOp1
 70
     1
102
RTVSPropertyOp2
 70
     1
102
RTVSPropertyOp3
 70
     1
102
RTVSPropertyOp4
 70
     1
102
RTVSPropertyOp5
 70
     1
102
RTVSPropertyOp6
 70
     1
102
RTVSPropertyOp7
 70
     1
102
RTVSPropertyOp8
 70
     1
102
RTVSPropertyOp9
 70
     1
102
RTVSPropertyOp10
 70
     1
102
RTVSPropertyOp11
 70
     1
102
RTVSPropertyOp12
 70
     1
102
RTVSPropertyOp13
 70
     1
102
RTVSPropertyOp14
 70
     1
102
RTVSPropertyOp15
 70
     1
102
RTVSPropertyOp16
 70
     1
102
RTVSPropertyOp17
 70
     1
102
RTVSPropertyOp18
 70
     1
102
RTVSPropertyOp19
 70
     1
102
RTVSPropertyOp20
 70
     1
102
RTVSPropertyOp21
 70
     1
102
RTVSPropertyOp22
 70
     1
102
RTVSPropertyOp23
 70
     1
102
RTVSPropertyOp24
 70
     1
102
RTVSPropertyOp25
 70
     1
102
RTVSPropertyOp26
 70
     1
102
RTVSPropertyOp27
 70
     1
  0
XRECORD
  5
28D
102
{ACAD_REACTORS
330
28C
102
}
330
28C
100
AcDbXrecord
280
     1
102
RTVSPropertyOp0
 70
     1
102
RTVSPropertyOp1
 70
     1
102
RTVSPropertyOp2
 70
     1
102
RTVSPropertyOp3
 70
     1
102
RTVSPropertyOp4
 70
     1
102
RTVSPropertyOp5
 70
     1
102
RTVSPropertyOp6
 70
     1
102
RTVSPropertyOp7
 70
     1
102
RTVSPropertyOp8
 70
     1
102
RTVSPropertyOp9
 70
     1
102
RTVSPropertyOp10
 70
     1
102
RTVSPropertyOp11
 70
     1
102
RTVSPropertyOp12
 70
     1
102
RTVSPropertyOp13
 70
     1
102
RTVSPropertyOp14
 70
     1
102
RTVSPropertyOp15
 70
     1
102
RTVSPropertyOp16
 70
     1
102
RTVSPropertyOp17
 70
     1
102
RTVSPropertyOp18
 70
     1
102
RTVSPropertyOp19
 70
     1
102
RTVSPropertyOp20
 70
     1
102
RTVSPropertyOp21
 70
     1
102
RTVSPropertyOp22
 70
     1
102
RTVSPropertyOp23
 70
     1
102
RTVSPropertyOp24
 70
     1
102
RTVSPropertyOp25
 70
     1
102
RTVSPropertyOp26
 70
     1
102
RTVSPropertyOp27
 70
     1
  0
XRECORD
  5
281
102
{ACAD_REACTORS
330
280
102
}
330
280
100
AcDbXrecord
280
     1
102
RTVSPropertyOp0
 70
     1
102
RTVSPropertyOp1
 70
     1
102
RTVSPropertyOp2
 70
     1
102
RTVSPropertyOp3
 70
     1
102
RTVSPropertyOp4
 70
     1
102
RTVSPropertyOp5
 70
     1
102
RTVSPropertyOp6
 70
     1
102
RTVSPropertyOp7
 70
     1
102
RTVSPropertyOp8
 70
     1
102
RTVSPropertyOp9
 70
     1
102
RTVSPropertyOp10
 70
     1
102
RTVSPropertyOp11
 70
     1
102
RTVSPropertyOp12
 70
     1
102
RTVSPropertyOp13
 70
     1
102
RTVSPropertyOp14
 70
     1
102
RTVSPropertyOp15
 70
     1
102
RTVSPropertyOp16
 70
     1
102
RTVSPropertyOp17
 70
     1
102
RTVSPropertyOp18
 70
     1
102
RTVSPropertyOp19
 70
     1
102
RTVSPropertyOp20
 70
     1
102
RTVSPropertyOp21
 70
     1
102
RTVSPropertyOp22
 70
     1
102
RTVSPropertyOp23
 70
     1
102
RTVSPropertyOp24
 70
     1
102
RTVSPropertyOp25
 70
     1
102
RTVSPropertyOp26
 70
     1
102
RTVSPropertyOp27
 70
     1
  0
XRECORD
  5
283
102
{ACAD_REACTORS
330
282
102
}
330
282
100
AcDbXrecord
280
     1
102
RTVSPropertyOp0
 70
     1
102
RTVSPropertyOp1
 70
     1
102
RTVSPropertyOp2
 70
     1
102
RTVSPropertyOp3
 70
     1
102
RTVSPropertyOp4
 70
     1
102
RTVSPropertyOp5
 70
     1
102
RTVSPropertyOp6
 70
     1
102
RTVSPropertyOp7
 70
     1
102
RTVSPropertyOp8
 70
     1
102
RTVSPropertyOp9
 70
     1
102
RTVSPropertyOp10
 70
     1
102
RTVSPropertyOp11
 70
     1
102
RTVSPropertyOp12
 70
     1
102
RTVSPropertyOp13
 70
     1
102
RTVSPropertyOp14
 70
     1
102
RTVSPropertyOp15
 70
     1
102
RTVSPropertyOp16
 70
     1
102
RTVSPropertyOp17
 70
     1
102
RTVSPropertyOp18
 70
     1
102
RTVSPropertyOp19
 70
     1
102
RTVSPropertyOp20
 70
     1
102
RTVSPropertyOp21
 70
     1
102
RTVSPropertyOp22
 70
     1
102
RTVSPropertyOp23
 70
     1
102
RTVSPropertyOp24
 70
     1
102
RTVSPropertyOp25
 70
     1
102
RTVSPropertyOp26
 70
     1
102
RTVSPropertyOp27
 70
     1
  0
XRECORD
  5
28B
102
{ACAD_REACTORS
330
28A
102
}
330
28A
100
AcDbXrecord
280
     1
102
RTVSPropertyOp0
 70
     1
102
RTVSPropertyOp1
 70
     1
102
RTVSPropertyOp2
 70
     1
102
RTVSPropertyOp3
 70
     1
102
RTVSPropertyOp4
 70
     1
102
RTVSPropertyOp5
 70
     1
102
RTVSPropertyOp6
 70
     1
102
RTVSPropertyOp7
 70
     1
102
RTVSPropertyOp8
 70
     1
102
RTVSPropertyOp9
 70
     1
102
RTVSPropertyOp10
 70
     1
102
RTVSPropertyOp11
 70
     1
102
RTVSPropertyOp12
 70
     1
102
RTVSPropertyOp13
 70
     1
102
RTVSPropertyOp14
 70
     1
102
RTVSPropertyOp15
 70
     1
102
RTVSPropertyOp16
 70
     1
102
RTVSPropertyOp17
 70
     1
102
RTVSPropertyOp18
 70
     1
102
RTVSPropertyOp19
 70
     1
102
RTVSPropertyOp20
 70
     1
102
RTVSPropertyOp21
 70
     1
102
RTVSPropertyOp22
 70
     1
102
RTVSPropertyOp23
 70
     1
102
RTVSPropertyOp24
 70
     1
102
RTVSPropertyOp25
 70
     1
102
RTVSPropertyOp26
 70
     1
102
RTVSPropertyOp27
 70
     1
  0
XRECORD
  5
26F
102
{ACAD_REACTORS
330
26E
102
}
330
26E
100
AcDbXrecord
280
     1
102
RTVSPropertyOp0
 70
     1
102
RTVSPropertyOp1
 70
     1
102
RTVSPropertyOp2
 70
     1
102
RTVSPropertyOp3
 70
     1
102
RTVSPropertyOp4
 70
     1
102
RTVSPropertyOp5
 70
     1
102
RTVSPropertyOp6
 70
     1
102
RTVSPropertyOp7
 70
     1
102
RTVSPropertyOp8
 70
     1
102
RTVSPropertyOp9
 70
     1
102
RTVSPropertyOp10
 70
     1
102
RTVSPropertyOp11
 70
     1
102
RTVSPropertyOp12
 70
     1
102
RTVSPropertyOp13
 70
     1
102
RTVSPropertyOp14
 70
     1
102
RTVSPropertyOp15
 70
     1
102
RTVSPropertyOp16
 70
     1
102
RTVSPropertyOp17
 70
     1
102
RTVSPropertyOp18
 70
     1
102
RTVSPropertyOp19
 70
     1
102
RTVSPropertyOp20
 70
     1
102
RTVSPropertyOp21
 70
     1
102
RTVSPropertyOp22
 70
     1
102
RTVSPropertyOp23
 70
     1
102
RTVSPropertyOp24
 70
     1
102
RTVSPropertyOp25
 70
     1
102
RTVSPropertyOp26
 70
     1
102
RTVSPropertyOp27
 70
     1
  0
XRECORD
  5
271
102
{ACAD_REACTORS
330
270
102
}
330
270
100
AcDbXrecord
280
     1
102
RTVSPropertyOp0
 70
     1
102
RTVSPropertyOp1
 70
     1
102
RTVSPropertyOp2
 70
     1
102
RTVSPropertyOp3
 70
     1
102
RTVSPropertyOp4
 70
     1
102
RTVSPropertyOp5
 70
     1
102
RTVSPropertyOp6
 70
     1
102
RTVSPropertyOp7
 70
     1
102
RTVSPropertyOp8
 70
     1
102
RTVSPropertyOp9
 70
     1
102
RTVSPropertyOp10
 70
     1
102
RTVSPropertyOp11
 70
     1
102
RTVSPropertyOp12
 70
     1
102
RTVSPropertyOp13
 70
     1
102
RTVSPropertyOp14
 70
     1
102
RTVSPropertyOp15
 70
     1
102
RTVSPropertyOp16
 70
     1
102
RTVSPropertyOp17
 70
     1
102
RTVSPropertyOp18
 70
     1
102
RTVSPropertyOp19
 70
     1
102
RTVSPropertyOp20
 70
     1
102
RTVSPropertyOp21
 70
     1
102
RTVSPropertyOp22
 70
     1
102
RTVSPropertyOp23
 70
     1
102
RTVSPropertyOp24
 70
     1
102
RTVSPropertyOp25
 70
     1
102
RTVSPropertyOp26
 70
     1
102
RTVSPropertyOp27
 70
     1
  0
XRECORD
  5
273
102
{ACAD_REACTORS
330
272
102
}
330
272
100
AcDbXrecord
280
     1
102
RTVSPropertyOp0
 70
     1
102
RTVSPropertyOp1
 70
     1
102
RTVSPropertyOp2
 70
     1
102
RTVSPropertyOp3
 70
     1
102
RTVSPropertyOp4
 70
     1
102
RTVSPropertyOp5
 70
     1
102
RTVSPropertyOp6
 70
     1
102
RTVSPropertyOp7
 70
     1
102
RTVSPropertyOp8
 70
     1
102
RTVSPropertyOp9
 70
     1
102
RTVSPropertyOp10
 70
     1
102
RTVSPropertyOp11
 70
     1
102
RTVSPropertyOp12
 70
     1
102
RTVSPropertyOp13
 70
     1
102
RTVSPropertyOp14
 70
     1
102
RTVSPropertyOp15
 70
     1
102
RTVSPropertyOp16
 70
     1
102
RTVSPropertyOp17
 70
     1
102
RTVSPropertyOp18
 70
     1
102
RTVSPropertyOp19
 70
     1
102
RTVSPropertyOp20
 70
     1
102
RTVSPropertyOp21
 70
     1
102
RTVSPropertyOp22
 70
     1
102
RTVSPropertyOp23
 70
     1
102
RTVSPropertyOp24
 70
     1
102
RTVSPropertyOp25
 70
     1
102
RTVSPropertyOp26
 70
     1
102
RTVSPropertyOp27
 70
     1
  0
XRECORD
  5
275
102
{ACAD_REACTORS
330
274
102
}
330
274
100
AcDbXrecord
280
     1
102
RTVSPropertyOp0
 70
     1
102
RTVSPropertyOp1
 70
     1
102
RTVSPropertyOp2
 70
     1
102
RTVSPropertyOp3
 70
     1
102
RTVSPropertyOp4
 70
     1
102
RTVSPropertyOp5
 70
     1
102
RTVSPropertyOp6
 70
     1
102
RTVSPropertyOp7
 70
     1
102
RTVSPropertyOp8
 70
     1
102
RTVSPropertyOp9
 70
     1
102
RTVSPropertyOp10
 70
     1
102
RTVSPropertyOp11
 70
     1
102
RTVSPropertyOp12
 70
     1
102
RTVSPropertyOp13
 70
     1
102
RTVSPropertyOp14
 70
     1
102
RTVSPropertyOp15
 70
     1
102
RTVSPropertyOp16
 70
     1
102
RTVSPropertyOp17
 70
     1
102
RTVSPropertyOp18
 70
     1
102
RTVSPropertyOp19
 70
     1
102
RTVSPropertyOp20
 70
     1
102
RTVSPropertyOp21
 70
     1
102
RTVSPropertyOp22
 70
     1
102
RTVSPropertyOp23
 70
     1
102
RTVSPropertyOp24
 70
     1
102
RTVSPropertyOp25
 70
     1
102
RTVSPropertyOp26
 70
     1
102
RTVSPropertyOp27
 70
     1
  0
XRECORD
  5
289
102
{ACAD_REACTORS
330
288
102
}
330
288
100
AcDbXrecord
280
     1
102
RTVSPropertyOp0
 70
     1
102
RTVSPropertyOp1
 70
     1
102
RTVSPropertyOp2
 70
     1
102
RTVSPropertyOp3
 70
     1
102
RTVSPropertyOp4
 70
     1
102
RTVSPropertyOp5
 70
     1
102
RTVSPropertyOp6
 70
     1
102
RTVSPropertyOp7
 70
     1
102
RTVSPropertyOp8
 70
     1
102
RTVSPropertyOp9
 70
     1
102
RTVSPropertyOp10
 70
     1
102
RTVSPropertyOp11
 70
     1
102
RTVSPropertyOp12
 70
     1
102
RTVSPropertyOp13
 70
     1
102
RTVSPropertyOp14
 70
     1
102
RTVSPropertyOp15
 70
     1
102
RTVSPropertyOp16
 70
     1
102
RTVSPropertyOp17
 70
     1
102
RTVSPropertyOp18
 70
     1
102
RTVSPropertyOp19
 70
     1
102
RTVSPropertyOp20
 70
     1
102
RTVSPropertyOp21
 70
     1
102
RTVSPropertyOp22
 70
     1
102
RTVSPropertyOp23
 70
     1
102
RTVSPropertyOp24
 70
     1
102
RTVSPropertyOp25
 70
     1
102
RTVSPropertyOp26
 70
     1
102
RTVSPropertyOp27
 70
     1
  0
XRECORD
  5
27F
102
{ACAD_REACTORS
330
27E
102
}
330
27E
100
AcDbXrecord
280
     1
102
RTVSPropertyOp0
 70
     1
102
RTVSPropertyOp1
 70
     1
102
RTVSPropertyOp2
 70
     1
102
RTVSPropertyOp3
 70
     1
102
RTVSPropertyOp4
 70
     1
102
RTVSPropertyOp5
 70
     1
102
RTVSPropertyOp6
 70
     1
102
RTVSPropertyOp7
 70
     1
102
RTVSPropertyOp8
 70
     1
102
RTVSPropertyOp9
 70
     1
102
RTVSPropertyOp10
 70
     1
102
RTVSPropertyOp11
 70
     1
102
RTVSPropertyOp12
 70
     1
102
RTVSPropertyOp13
 70
     1
102
RTVSPropertyOp14
 70
     1
102
RTVSPropertyOp15
 70
     1
102
RTVSPropertyOp16
 70
     1
102
RTVSPropertyOp17
 70
     1
102
RTVSPropertyOp18
 70
     1
102
RTVSPropertyOp19
 70
     1
102
RTVSPropertyOp20
 70
     1
102
RTVSPropertyOp21
 70
     1
102
RTVSPropertyOp22
 70
     1
102
RTVSPropertyOp23
 70
     1
102
RTVSPropertyOp24
 70
     1
102
RTVSPropertyOp25
 70
     1
102
RTVSPropertyOp26
 70
     1
102
RTVSPropertyOp27
 70
     1
  0
XRECORD
  5
287
102
{ACAD_REACTORS
330
286
102
}
330
286
100
AcDbXrecord
280
     1
102
RTVSPropertyOp0
 70
     1
102
RTVSPropertyOp1
 70
     1
102
RTVSPropertyOp2
 70
     1
102
RTVSPropertyOp3
 70
     1
102
RTVSPropertyOp4
 70
     1
102
RTVSPropertyOp5
 70
     1
102
RTVSPropertyOp6
 70
     1
102
RTVSPropertyOp7
 70
     1
102
RTVSPropertyOp8
 70
     1
102
RTVSPropertyOp9
 70
     1
102
RTVSPropertyOp10
 70
     1
102
RTVSPropertyOp11
 70
     1
102
RTVSPropertyOp12
 70
     1
102
RTVSPropertyOp13
 70
     1
102
RTVSPropertyOp14
 70
     1
102
RTVSPropertyOp15
 70
     1
102
RTVSPropertyOp16
 70
     1
102
RTVSPropertyOp17
 70
     1
102
RTVSPropertyOp18
 70
     1
102
RTVSPropertyOp19
 70
     1
102
RTVSPropertyOp20
 70
     1
102
RTVSPropertyOp21
 70
     1
102
RTVSPropertyOp22
 70
     1
102
RTVSPropertyOp23
 70
     1
102
RTVSPropertyOp24
 70
     1
102
RTVSPropertyOp25
 70
     1
102
RTVSPropertyOp26
 70
     1
102
RTVSPropertyOp27
 70
     1
  0
ENDSEC
  0
EOF
